VERSION	0.00.00	1.03.00
FES_MODE	0
BPM_DEF	175.000	175.000	175.000	175.000
MET_DEF	4	4
RESOLUTION	384
CLK_DEF	384
COMPATIBLE_CODE	MA2

BPM	0	0	175.000
MET	0	0	4	4

STR	1	0	0
SCR	1	0	0	96	480	7
STR	3	0	7
SCL	3	0	7	96	480	0
TAP	5	0	0
TAP	5	96	1
TAP	5	96	3
TAP	5	192	7
TAP	5	288	4
TAP	5	288	6
TAP	6	0	2
TAP	6	96	1
TAP	6	96	4
TAP	6	192	5
TAP	6	288	3
TAP	6	288	6
TAP	7	0	7
TAP	7	96	4
TAP	7	96	6
TAP	7	192	0
TAP	7	288	1
TAP	7	288	3
TAP	8	0	5
TAP	8	96	3
TAP	8	96	6
TAP	8	192	2
BRK	8	288	1
TAP	8	288	4
TAP	9	0	2
TAP	9	96	2
TAP	9	192	3
TAP	9	288	3
TAP	10	0	4
TAP	10	96	4
TAP	10	192	5
TAP	10	288	5
TAP	11	0	6
TAP	11	0	7
TAP	11	96	6
TAP	11	96	7
TAP	11	192	0
TAP	11	192	1
TAP	11	288	0
TAP	11	288	1
TAP	12	0	7
TAP	12	48	7
TAP	12	96	7
TAP	12	192	0
TAP	12	240	0
BRK	12	288	0
TAP	13	0	2
TAP	13	96	2
TAP	13	96	3
TAP	13	192	5
TAP	13	288	4
TAP	13	288	5
TAP	14	0	2
TAP	14	0	3
TAP	14	96	4
TAP	14	96	5
HLD	14	192	0	96
HLD	14	192	6	96
TAP	15	0	6
TAP	15	96	6
TAP	15	96	7
TAP	15	192	1
TAP	15	288	0
TAP	15	288	1
TAP	16	0	6
TAP	16	0	7
TAP	16	96	0
TAP	16	96	1
HLD	16	192	2	96
HLD	16	192	7	96
HLD	17	0	6	96
TAP	17	96	4
HLD	17	192	1	96
TAP	17	288	3
TAP	18	0	4
TAP	18	0	6
TAP	18	96	1
TAP	18	96	3
HLD	18	192	0	96
HLD	18	192	2	96
HLD	19	0	5	96
TAP	19	96	7
HLD	19	192	2	96
TAP	19	288	0
BRK	20	0	7
BRK	20	96	7
BRK	20	192	7
TAP	21	0	4
TAP	21	0	6
TAP	21	96	5
TAP	21	144	4
TAP	21	192	5
TAP	21	288	2
TAP	21	336	3
TAP	22	0	2
TAP	22	0	4
TAP	22	96	1
TAP	22	96	5
TAP	22	192	0
TAP	22	192	6
TAP	22	288	7
TAP	23	0	0
TAP	23	0	2
TAP	23	96	6
TAP	23	144	7
TAP	23	192	6
TAP	23	288	1
TAP	23	336	0
TAP	24	0	1
TAP	24	0	7
TAP	24	96	2
TAP	24	96	6
TAP	24	192	3
TAP	24	192	5
TAP	24	288	4
HLD	25	0	2	96
TAP	25	96	4
TAP	25	144	3
HLD	25	192	5	96
TAP	25	288	3
TAP	25	336	4
TAP	26	0	3
TAP	26	0	4
TAP	26	96	2
TAP	26	96	5
TAP	26	192	1
TAP	26	192	6
TAP	26	288	0
TAP	26	288	7
STR	27	0	0
SCL	27	0	0	96	120	5
STR	27	0	1
SCR	27	0	1	96	120	4
TAP	27	288	0
TAP	27	288	7
STR	28	0	6
SCL	28	0	6	96	120	3
STR	28	0	7
SCR	28	0	7	96	120	2
BRK	28	288	0
BRK	28	288	7
HLD	29	0	0	96
HLD	29	96	1	96
HLD	29	192	2	96
TAP	29	288	3
HLD	30	0	6	96
HLD	30	96	5	96
HLD	30	192	4	96
TAP	30	288	3
HLD	31	0	2	96
HLD	31	96	3	96
HLD	31	192	4	96
STR	31	288	5
SUL	31	288	5	96	216	2
TAP	32	288	0
TAP	32	288	7
HLD	33	0	2	96
TAP	33	0	3
TAP	33	96	7
TAP	33	192	4
HLD	33	192	5	96
TAP	33	288	0
HLD	34	0	1	96
TAP	34	0	3
TAP	34	96	7
TAP	34	192	4
HLD	34	192	6	96
TAP	34	288	0
HLD	35	0	1	96
HLD	35	0	5	96
HLD	35	192	2	96
HLD	35	192	6	96
STR	36	0	0
SV_	36	0	0	96	192	2
STR	36	0	4
SV_	36	0	4	96	192	6
TAP	37	0	4
TAP	37	0	5
BRK	37	96	1
BRK	37	96	7
TAP	37	192	2
TAP	37	192	3
STR	37	288	0
SCR	37	288	0	96	120	3
STR	37	288	6
SCL	37	288	6	96	120	3
TAP	38	192	1
TAP	38	192	6
TAP	38	288	0
TAP	38	336	7
HLD	39	0	0	96
TAP	39	96	4
HLD	39	192	6	96
STR	39	288	2
SCL	39	288	2	96	192	5
TAP	40	0	4
TAP	40	288	3
TAP	40	288	4
TAP	41	0	2
TAP	41	0	5
TAP	41	96	3
TAP	41	144	4
TAP	41	192	3
TAP	41	192	5
TAP	41	288	2
TAP	41	288	6
STR	42	0	1
SI_	42	0	1	96	96	4
STR	42	0	7
SI_	42	0	7	96	96	4
TAP	42	288	2
TAP	42	336	3
TAP	43	0	2
TAP	43	96	6
TAP	43	96	7
TAP	43	192	5
TAP	43	240	4
TAP	43	288	5
STR	44	0	0
SCL	44	0	0	96	120	5
STR	44	0	1
SCR	44	0	1	96	120	4
TAP	45	0	2
TAP	45	0	3
BRK	45	96	0
BRK	45	96	6
TAP	45	192	4
TAP	45	192	5
STR	45	288	1
SCR	45	288	1	96	120	4
STR	45	288	7
SCL	45	288	7	96	120	4
TAP	46	192	1
TAP	46	192	6
TAP	46	288	7
TAP	46	336	0
TAP	47	0	6
TAP	47	0	7
TAP	47	96	4
TAP	47	96	5
TAP	47	192	2
TAP	47	192	3
TAP	47	288	0
STR	47	288	1
SXR	47	288	1	96	216	4
TAP	48	288	3
TAP	48	288	5
HLD	49	0	2	96
TAP	49	96	3
TAP	49	144	2
TAP	49	192	4
STR	49	288	6
SI_	49	288	6	96	96	3
STR	49	288	7
SI_	49	288	7	96	96	2
TAP	50	192	1
TAP	50	192	4
TAP	50	288	2
TAP	50	336	3
TAP	51	0	2
TAP	51	96	0
TAP	51	96	1
TAP	51	192	1
TAP	51	240	0
TAP	51	288	1
STR	52	0	3
SLL	52	0	3	96	192	7
STR	52	0	7
SLL	52	0	7	96	192	3
TAP	53	0	0
HLD	53	0	6	288
TAP	53	192	0
TAP	53	288	1
HLD	54	0	2	288
TAP	54	192	5
TAP	54	288	6
TAP	55	0	3
TAP	55	0	7
TAP	55	96	2
TAP	55	96	6
TAP	55	192	1
TAP	55	192	5
TAP	55	288	0
TAP	55	288	4
TAP	56	0	3
HLD	56	0	7	192
TAP	56	192	0
TAP	56	288	7
HLD	57	0	7	96
HLD	57	96	6	96
HLD	57	192	5	96
HLD	57	288	4	96
HLD	58	0	3	96
HLD	58	96	2	96
HLD	58	192	1	96
TAP	58	288	0
TAP	59	0	0
TAP	59	48	1
TAP	59	96	2
TAP	59	144	3
TAP	59	192	4
TAP	59	240	5
TAP	59	288	6
TAP	59	336	7
HLD	60	0	0	288
BRK	60	288	7
HLD	61	0	1	96
TAP	61	96	0
TAP	61	144	1
HLD	61	192	6	96
TAP	61	288	5
TAP	61	336	6
TAP	62	0	3
TAP	62	48	4
TAP	62	96	3
TAP	62	192	2
TAP	62	192	6
TAP	62	288	4
TAP	62	288	5
HLD	63	0	6	96
TAP	63	96	7
TAP	63	144	6
HLD	63	192	1	96
TAP	63	288	2
TAP	63	336	1
TAP	64	0	4
TAP	64	48	3
TAP	64	96	4
TAP	64	192	1
TAP	64	192	5
TAP	64	288	2
TAP	64	288	3
HLD	65	0	7	96
TAP	65	96	5
TAP	65	144	7
HLD	65	192	1	96
TAP	65	288	3
TAP	65	336	1
TAP	66	0	5
TAP	66	48	4
TAP	66	96	5
TAP	66	192	2
TAP	66	192	6
TAP	66	288	4
TAP	66	288	5
HLD	67	0	0	96
TAP	67	96	2
TAP	67	144	0
HLD	67	192	6	96
TAP	67	288	4
TAP	67	336	6
TAP	68	0	2
TAP	68	48	3
TAP	68	96	2
TAP	68	192	1
TAP	68	192	5
TAP	68	288	2
TAP	68	288	3
HLD	69	0	1	96
TAP	69	96	7
TAP	69	144	7
HLD	69	192	6	96
TAP	69	288	0
TAP	69	336	0
TAP	70	0	1
TAP	70	48	3
TAP	70	96	2
TAP	70	192	0
TAP	70	192	4
TAP	70	288	4
TAP	70	288	5
HLD	71	0	6	96
TAP	71	96	0
TAP	71	144	0
HLD	71	192	1	96
TAP	71	288	7
TAP	71	336	7
TAP	72	0	6
TAP	72	48	4
TAP	72	96	5
TAP	72	192	3
TAP	72	192	7
TAP	72	288	2
TAP	72	288	3
HLD	73	0	1	96
TAP	73	96	3
TAP	73	144	4
HLD	73	192	5	96
TAP	73	288	4
TAP	73	336	3
TAP	74	0	2
TAP	74	48	4
TAP	74	96	3
TAP	74	192	2
TAP	74	192	5
TAP	74	288	0
TAP	74	288	7
STR	75	0	6
SCL	75	0	6	96	120	3
STR	75	0	7
SUL	75	0	7	96	120	2
TAP	75	288	0
TAP	75	288	1
STR	76	0	0
SUR	76	0	0	96	120	5
STR	76	0	1
SCR	76	0	1	96	120	4
BRK	76	288	6
BRK	76	288	7
TAP	77	0	1
TAP	77	0	3
TAP	77	96	2
TAP	77	192	4
TAP	77	192	6
TAP	77	288	5
TAP	78	0	1
TAP	78	0	4
TAP	78	96	2
TAP	78	144	2
TAP	78	192	3
TAP	78	192	6
TAP	78	288	5
HLD	79	0	5	96
HLD	79	96	4	96
HLD	79	192	3	96
STR	79	288	2
SCL	79	288	2	96	192	5
SUL	79	288	2	96	192	5
TAP	80	288	3
TAP	80	288	4
TAP	81	0	4
HLD	81	0	5	96
TAP	81	96	0
HLD	81	192	2	96
TAP	81	192	3
TAP	81	288	7
TAP	82	0	4
HLD	82	0	6	96
TAP	82	96	0
TAP	82	144	0
HLD	82	192	1	96
TAP	82	192	3
TAP	82	288	7
HLD	83	0	2	96
HLD	83	0	6	96
HLD	83	192	1	96
HLD	83	192	5	96
STR	84	0	3
SXR	84	0	3	96	192	1
STR	84	0	7
SXR	84	0	7	96	192	5
TAP	85	0	2
TAP	85	0	3
BRK	85	96	0
BRK	85	96	6
TAP	85	192	4
TAP	85	192	5
STR	85	288	1
SCR	85	288	1	96	120	4
STR	85	288	7
SCL	85	288	7	96	120	4
TAP	86	192	1
TAP	86	192	6
TAP	86	288	7
TAP	86	336	0
HLD	87	0	7	96
TAP	87	96	3
HLD	87	192	1	96
STR	87	288	5
SCR	87	288	5	96	192	2
HLD	88	0	3	192
TAP	88	288	3
TAP	88	288	4
TAP	89	0	2
TAP	89	0	5
TAP	89	96	4
TAP	89	144	3
TAP	89	192	2
TAP	89	192	4
TAP	89	288	1
TAP	89	288	5
STR	90	0	6
SI_	90	0	6	96	96	2
STR	90	0	7
SI_	90	0	7	96	96	3
TAP	90	288	5
TAP	90	336	4
TAP	91	0	3
TAP	91	0	5
TAP	91	96	0
TAP	91	96	1
TAP	91	192	2
TAP	91	240	3
TAP	91	288	2
TAP	91	288	4
STR	92	0	1
SCR	92	0	1	96	120	4
STR	92	0	5
SCR	92	0	5	96	120	0
TAP	93	0	4
TAP	93	0	5
BRK	93	96	1
BRK	93	96	7
TAP	93	192	2
TAP	93	192	3
STR	93	288	0
SCR	93	288	0	96	120	3
STR	93	288	6
SCL	93	288	6	96	120	3
TAP	94	192	1
TAP	94	192	6
TAP	94	288	0
TAP	94	336	7
HLD	95	0	0	96
HLD	95	96	2	96
HLD	95	192	4	96
STR	95	288	6
SXL	95	288	6	96	216	3
TAP	96	288	2
TAP	96	288	4
HLD	97	0	5	96
TAP	97	96	4
TAP	97	144	5
TAP	97	192	3
TAP	97	192	6
STR	97	288	1
SI_	97	288	1	96	96	4
STR	97	288	5
SI_	97	288	5	96	96	0
TAP	98	192	2
TAP	98	192	6
TAP	98	288	5
TAP	98	336	4
TAP	99	0	6
TAP	99	96	6
TAP	99	96	7
TAP	99	192	6
TAP	99	240	7
TAP	99	288	0
TAP	99	288	5
STR	100	0	0
SLR	100	0	0	96	192	4
STR	100	0	4
SLR	100	0	4	96	192	0
STR	101	0	5
SCL	101	0	5	96	72	2
STR	101	192	1
SUR	101	192	1	96	72	5
STR	102	0	6
SCL	102	0	6	96	72	3
STR	102	192	0
SUR	102	192	0	96	72	4
STR	103	0	7
SCL	103	0	7	96	576	0
BRK	105	0	1
BRK	105	0	6

T_REC_TAP	366
T_REC_BRK	20
T_REC_XTP	0
T_REC_HLD	75
T_REC_XHO	0
T_REC_STR	49
T_REC_BST	0
T_REC_XST	0
T_REC_TTP	0
T_REC_THO	0
T_REC_SLD	50
T_REC_ALL	560
T_NUM_TAP	415
T_NUM_BRK	20
T_NUM_HLD	75
T_NUM_SLD	50
T_NUM_ALL	560
T_JUDGE_TAP	435
T_JUDGE_HLD	166
T_JUDGE_SLD	50
T_JUDGE_ALL	651
TTM_EACHPAIRS	138
TTM_SCR_TAP	207500
TTM_SCR_BRK	52000
TTM_SCR_HLD	75000
TTM_SCR_SLD	75000
TTM_SCR_ALL	409500
TTM_SCR_S	395300
TTM_SCR_SS	407500
TTM_RAT_ACV	10049

