VERSION	0.00.00	1.03.00
FES_MODE	0
BPM_DEF	175.000	175.000	175.000	175.000
MET_DEF	4	4
RESOLUTION	384
CLK_DEF	384
COMPATIBLE_CODE	MA2

BPM	0	0	175.000

HLD	1	0	5	384
HLD	2	0	4	384
HLD	3	0	3	384
HLD	4	0	2	192
TAP	4	192	3
TAP	5	0	2
TAP	5	96	3
TAP	5	192	2
TAP	5	192	3
TAP	6	0	5
TAP	6	96	4
TAP	6	192	4
TAP	6	192	5
TAP	7	0	2
TAP	7	96	3
TAP	7	192	4
TAP	7	288	5
TAP	8	0	3
TAP	8	0	4
TAP	8	96	3
TAP	8	96	4
TAP	8	192	2
TAP	8	192	5
TAP	9	0	6
TAP	9	96	7
TAP	9	192	6
TAP	9	192	7
TAP	10	0	1
TAP	10	96	0
TAP	10	192	0
TAP	10	192	1
TAP	11	0	6
TAP	11	96	7
TAP	11	192	0
TAP	11	288	1
TAP	12	0	0
TAP	12	0	7
TAP	12	96	0
TAP	12	96	7
BRK	12	192	1
BRK	12	192	6
HLD	13	0	2	192
TAP	13	192	3
TAP	14	0	2
TAP	14	96	2
TAP	14	192	2
TAP	14	192	3
HLD	15	0	5	192
TAP	15	192	4
TAP	16	0	5
TAP	16	96	5
TAP	16	192	4
TAP	16	192	5
HLD	17	0	6	192
TAP	17	192	7
TAP	18	0	6
TAP	18	96	6
TAP	18	192	6
TAP	18	192	7
HLD	19	0	1	192
TAP	19	192	0
TAP	20	0	1
TAP	20	96	1
BRK	20	192	0
BRK	20	192	7
TAP	21	0	2
TAP	21	96	3
TAP	21	192	2
TAP	21	288	3
TAP	22	0	2
TAP	22	96	2
TAP	22	192	2
TAP	22	192	3
TAP	23	0	5
TAP	23	96	4
TAP	23	192	5
TAP	23	288	4
TAP	24	0	5
TAP	24	96	5
TAP	24	192	4
TAP	24	192	5
TAP	25	0	6
TAP	25	96	7
TAP	25	192	6
TAP	25	288	7
TAP	26	0	6
TAP	26	96	6
TAP	26	192	6
TAP	26	192	7
TAP	27	0	1
TAP	27	96	0
TAP	27	192	1
TAP	27	288	0
TAP	28	0	0
TAP	28	96	7
BRK	28	192	1
BRK	28	192	6
HLD	29	0	2	192
HLD	29	192	3	192
HLD	30	0	4	192
TAP	30	192	5
HLD	31	0	5	192
HLD	31	192	4	192
HLD	32	0	3	192
TAP	32	192	2
HLD	33	0	1	192
HLD	33	192	0	192
HLD	34	0	7	192
TAP	34	192	6
HLD	35	0	6	192
HLD	35	192	7	192
TAP	36	0	6
TAP	36	96	6
BRK	36	192	0
BRK	36	192	7
TAP	37	0	3
TAP	37	0	4
TAP	37	96	2
TAP	37	96	5
TAP	37	192	1
TAP	37	192	6
TAP	37	288	0
TAP	37	288	7
TAP	38	0	1
TAP	38	96	0
TAP	38	192	2
TAP	38	192	7
TAP	39	0	6
TAP	39	0	7
TAP	39	96	6
TAP	39	96	7
TAP	39	192	0
TAP	39	192	1
TAP	39	288	0
TAP	39	288	1
TAP	40	0	6
TAP	40	0	7
TAP	40	96	0
TAP	40	96	5
BRK	40	192	1
BRK	40	192	4
TAP	41	0	2
TAP	41	96	3
TAP	41	192	2
TAP	41	192	3
TAP	41	288	3
TAP	41	288	4
TAP	42	0	5
TAP	42	96	4
TAP	42	192	4
TAP	42	192	5
TAP	42	288	3
TAP	42	288	4
TAP	43	0	2
TAP	43	0	3
TAP	43	96	2
TAP	43	96	3
TAP	43	192	4
TAP	43	192	5
TAP	43	288	4
TAP	43	288	5
TAP	44	0	2
STR	44	0	3
SI_	44	0	3	96	192	6
TAP	45	0	0
TAP	45	0	7
TAP	45	96	1
TAP	45	96	6
TAP	45	192	2
TAP	45	192	5
TAP	45	288	3
TAP	45	288	4
TAP	46	0	5
TAP	46	96	4
TAP	46	192	3
TAP	46	192	6
TAP	47	0	2
TAP	47	0	3
TAP	47	96	2
TAP	47	96	3
TAP	47	192	4
TAP	47	192	5
TAP	47	288	4
TAP	47	288	5
TAP	48	0	2
TAP	48	0	3
TAP	48	96	1
TAP	48	96	4
BRK	48	192	0
BRK	48	192	5
TAP	49	0	6
TAP	49	96	7
TAP	49	192	6
TAP	49	192	7
TAP	49	288	0
TAP	49	288	7
TAP	50	0	1
TAP	50	96	0
TAP	50	192	0
TAP	50	192	1
TAP	50	288	0
TAP	50	288	7
TAP	51	0	6
TAP	51	0	7
TAP	51	96	6
TAP	51	96	7
TAP	51	192	0
TAP	51	192	1
TAP	51	288	0
TAP	51	288	1
STR	52	0	6
SI_	52	0	6	96	192	3
STR	52	0	7
SI_	52	0	7	96	192	2
HLD	53	0	1	192
TAP	53	192	0
TAP	53	288	0
HLD	54	0	7	192
TAP	54	192	0
HLD	55	0	6	192
TAP	55	192	7
TAP	55	288	7
HLD	56	0	0	192
TAP	56	192	7
STR	57	0	0
SI_	57	0	0	96	192	5
STR	57	0	1
SI_	57	0	1	96	192	4
STR	58	0	6
SI_	58	0	6	96	192	3
STR	58	0	7
SI_	58	0	7	96	192	2
STR	59	0	0
SI_	59	0	0	96	192	3
STR	59	0	7
SI_	59	0	7	96	192	4
BRK	60	0	2
BRK	60	0	5
HLD	61	0	2	192
TAP	61	192	3
TAP	62	0	2
TAP	62	96	3
TAP	62	192	3
TAP	62	192	4
HLD	63	0	5	192
TAP	63	192	4
TAP	64	0	5
TAP	64	96	4
TAP	64	192	3
TAP	64	192	4
HLD	65	0	6	192
TAP	65	192	7
TAP	66	0	6
TAP	66	96	7
TAP	66	192	0
TAP	66	192	7
HLD	67	0	1	192
TAP	67	192	0
TAP	68	0	1
TAP	68	96	0
BRK	68	192	0
BRK	68	192	7
TAP	69	0	2
TAP	69	96	3
TAP	69	192	5
TAP	69	288	4
TAP	70	0	2
TAP	70	96	3
TAP	70	192	2
TAP	70	192	3
TAP	71	0	5
TAP	71	96	4
TAP	71	192	2
TAP	71	288	3
TAP	72	0	5
TAP	72	96	4
TAP	72	192	4
TAP	72	192	5
TAP	73	0	6
TAP	73	96	7
TAP	73	192	1
TAP	73	288	0
TAP	74	0	6
TAP	74	96	7
TAP	74	192	6
TAP	74	192	7
TAP	75	0	1
TAP	75	96	0
TAP	75	192	6
TAP	75	288	7
TAP	76	0	1
TAP	76	96	0
BRK	76	192	0
BRK	76	192	7
HLD	77	0	6	192
HLD	77	192	7	192
HLD	78	0	0	192
TAP	78	192	1
HLD	79	0	1	192
HLD	79	192	0	192
HLD	80	0	7	192
TAP	80	192	6
HLD	81	0	5	192
HLD	81	192	4	192
HLD	82	0	3	192
TAP	82	192	2
HLD	83	0	2	192
HLD	83	192	3	192
TAP	84	0	4
TAP	84	96	5
BRK	84	192	3
BRK	84	192	6
TAP	85	0	3
TAP	85	0	4
TAP	85	96	2
TAP	85	96	5
TAP	85	192	1
TAP	85	192	6
TAP	85	288	0
TAP	85	288	7
TAP	86	0	6
TAP	86	96	7
TAP	86	192	0
TAP	86	192	5
TAP	87	0	0
TAP	87	0	1
TAP	87	96	2
TAP	87	96	7
TAP	87	192	6
TAP	87	192	7
TAP	87	288	0
TAP	87	288	5
TAP	88	0	0
TAP	88	0	1
TAP	88	96	2
TAP	88	96	7
BRK	88	192	3
BRK	88	192	6
TAP	89	0	5
TAP	89	96	4
TAP	89	192	4
TAP	89	192	5
TAP	89	288	2
TAP	89	288	3
TAP	90	0	2
TAP	90	96	3
TAP	90	192	2
TAP	90	192	3
TAP	90	288	4
TAP	90	288	5
TAP	91	0	2
TAP	91	0	3
TAP	91	96	2
TAP	91	96	3
TAP	91	192	4
TAP	91	192	5
TAP	91	288	4
TAP	91	288	5
TAP	92	0	2
STR	92	0	3
SI_	92	0	3	96	192	6
TAP	93	0	0
TAP	93	0	7
TAP	93	96	1
TAP	93	96	6
TAP	93	192	2
TAP	93	192	5
TAP	93	288	3
TAP	93	288	4
TAP	94	0	2
TAP	94	96	3
TAP	94	192	1
TAP	94	192	4
TAP	95	0	4
TAP	95	0	5
TAP	95	96	3
TAP	95	96	6
TAP	95	192	2
TAP	95	192	3
TAP	95	288	1
TAP	95	288	4
TAP	96	0	4
TAP	96	0	5
TAP	96	96	3
TAP	96	96	6
BRK	96	192	2
BRK	96	192	7
TAP	97	0	1
TAP	97	96	0
TAP	97	192	0
TAP	97	192	1
TAP	97	288	6
TAP	97	288	7
TAP	98	0	6
TAP	98	96	7
TAP	98	192	6
TAP	98	192	7
TAP	98	288	0
TAP	98	288	1
TAP	99	0	6
TAP	99	0	7
TAP	99	96	6
TAP	99	96	7
TAP	99	192	0
TAP	99	192	1
TAP	99	288	0
TAP	99	288	1
STR	100	0	6
SI_	100	0	6	96	192	3
STR	100	0	7
SI_	100	0	7	96	192	2
HLD	101	0	2	192
HLD	101	192	3	192
HLD	102	0	4	192
HLD	102	192	5	192
STR	103	0	4
SXR	103	0	4	96	480	7
BRK	105	0	1
BRK	105	0	6

T_REC_TAP	325
T_REC_BRK	26
T_REC_XTP	0
T_REC_HLD	42
T_REC_XHO	0
T_REC_STR	13
T_REC_BST	0
T_REC_XST	0
T_REC_TTP	0
T_REC_THO	0
T_REC_SLD	13
T_REC_ALL	419
T_NUM_TAP	338
T_NUM_BRK	26
T_NUM_HLD	42
T_NUM_SLD	13
T_NUM_ALL	419
T_JUDGE_TAP	364
T_JUDGE_HLD	180
T_JUDGE_SLD	13
T_JUDGE_ALL	557
TTM_EACHPAIRS	117
TTM_SCR_TAP	169000
TTM_SCR_BRK	67600
TTM_SCR_HLD	42000
TTM_SCR_SLD	19500
TTM_SCR_ALL	298100
TTM_SCR_S	286650
TTM_SCR_SS	295500
TTM_RAT_ACV	10087

