VERSION	0.00.00	1.03.00
FES_MODE	0
BPM_DEF	175.000	175.000	175.000	175.000
MET_DEF	4	4
RESOLUTION	384
CLK_DEF	384
COMPATIBLE_CODE	MA2

BPM	0	0	175.000

TAP	5	0	0
TAP	5	96	0
TAP	5	192	0
TAP	6	0	1
TAP	6	96	1
TAP	6	192	1
TAP	7	0	2
TAP	7	96	2
TAP	7	192	2
TAP	8	0	3
TAP	8	96	4
TAP	8	192	3
TAP	9	0	4
TAP	9	96	4
TAP	9	192	4
TAP	10	0	5
TAP	10	96	5
TAP	10	192	5
TAP	11	0	6
TAP	11	96	6
TAP	11	192	6
TAP	12	0	0
TAP	12	0	7
BRK	12	192	0
BRK	12	192	7
HLD	13	0	1	192
TAP	14	0	2
TAP	14	192	2
TAP	14	192	3
HLD	15	0	3	192
TAP	16	0	4
TAP	16	192	4
TAP	16	192	5
HLD	17	0	5	192
TAP	18	0	6
TAP	18	192	6
TAP	18	192	7
HLD	19	0	7	192
TAP	20	0	0
TAP	20	0	7
BRK	20	192	0
BRK	20	192	7
TAP	21	0	6
TAP	21	192	6
TAP	22	0	5
TAP	22	96	5
TAP	22	192	5
TAP	23	0	4
TAP	23	192	4
TAP	24	0	3
TAP	24	96	3
TAP	24	192	3
TAP	25	0	2
TAP	25	192	2
TAP	26	0	1
TAP	26	96	1
TAP	26	192	1
TAP	27	0	0
TAP	27	192	7
TAP	28	0	0
TAP	28	96	7
TAP	28	192	0
TAP	28	192	7
STR	29	0	6
SI_	29	0	6	96	288	1
STR	31	0	2
SI_	31	0	2	96	288	5
STR	33	0	4
SI_	33	0	4	96	288	7
STR	35	0	0
SI_	35	0	0	96	288	3
TAP	36	192	3
TAP	36	192	4
TAP	37	0	2
TAP	37	96	3
TAP	37	192	2
TAP	37	192	3
TAP	38	0	3
TAP	38	96	4
TAP	38	192	3
TAP	38	192	4
TAP	39	0	5
TAP	39	96	4
TAP	39	192	4
TAP	39	192	5
TAP	40	0	4
TAP	40	96	3
TAP	40	192	3
TAP	40	192	4
TAP	41	0	2
TAP	41	96	2
TAP	41	192	3
TAP	42	0	4
TAP	42	96	4
TAP	42	192	5
TAP	43	0	4
TAP	43	96	3
TAP	43	192	3
TAP	43	192	4
HLD	44	0	2	192
HLD	44	0	5	192
TAP	45	0	6
TAP	45	96	7
TAP	45	192	6
TAP	45	192	7
TAP	46	0	7
TAP	46	96	0
TAP	46	192	0
TAP	46	192	7
TAP	47	0	1
TAP	47	96	0
TAP	47	192	0
TAP	47	192	1
TAP	48	0	0
TAP	48	96	7
TAP	48	192	0
TAP	48	192	7
TAP	49	0	6
TAP	49	96	6
TAP	49	192	7
TAP	50	0	0
TAP	50	96	0
TAP	50	192	1
TAP	51	0	0
TAP	51	96	7
TAP	51	192	0
TAP	51	192	7
HLD	52	0	1	192
HLD	52	0	6	192
HLD	53	0	2	384
HLD	55	0	3	384
HLD	57	0	4	384
HLD	59	0	5	384
BRK	60	192	5
HLD	61	0	6	192
TAP	62	0	5
TAP	62	192	4
TAP	62	192	5
HLD	63	0	4	192
TAP	64	0	3
TAP	64	192	2
TAP	64	192	3
HLD	65	0	2	192
TAP	66	0	1
TAP	66	192	0
TAP	66	192	1
HLD	67	0	0	192
TAP	68	0	0
TAP	68	0	7
BRK	68	192	0
BRK	68	192	7
TAP	69	0	1
TAP	69	192	1
TAP	70	0	2
TAP	70	96	2
TAP	70	192	2
TAP	71	0	3
TAP	71	192	3
TAP	72	0	4
TAP	72	96	4
TAP	72	192	4
TAP	73	0	5
TAP	73	192	5
TAP	74	0	6
TAP	74	96	6
TAP	74	192	6
TAP	75	0	7
TAP	75	192	0
TAP	76	0	7
TAP	76	96	0
TAP	76	192	0
TAP	76	192	7
STR	77	0	1
SI_	77	0	1	96	288	6
STR	79	0	5
SI_	79	0	5	96	288	2
STR	81	0	3
SI_	81	0	3	96	288	0
STR	83	0	7
SI_	83	0	7	96	288	4
TAP	84	192	3
TAP	84	192	4
TAP	85	0	5
TAP	85	96	4
TAP	85	192	4
TAP	85	192	5
TAP	86	0	4
TAP	86	96	3
TAP	86	192	3
TAP	86	192	4
TAP	87	0	2
TAP	87	96	3
TAP	87	192	2
TAP	87	192	3
TAP	88	0	3
TAP	88	96	4
TAP	88	192	3
TAP	88	192	4
TAP	89	0	5
TAP	89	96	5
TAP	89	192	4
TAP	90	0	3
TAP	90	96	3
TAP	90	192	2
TAP	91	0	3
TAP	91	96	4
TAP	91	192	3
TAP	91	192	4
HLD	92	0	2	192
HLD	92	0	5	192
TAP	93	0	1
TAP	93	96	0
TAP	93	192	0
TAP	93	192	1
TAP	94	0	0
TAP	94	96	7
TAP	94	192	0
TAP	94	192	7
TAP	95	0	6
TAP	95	96	7
TAP	95	192	6
TAP	95	192	7
TAP	96	0	7
TAP	96	96	0
TAP	96	192	0
TAP	96	192	7
TAP	97	0	1
TAP	97	96	1
TAP	97	192	0
TAP	98	0	7
TAP	98	96	7
TAP	98	192	6
TAP	99	0	7
TAP	99	96	0
TAP	99	192	0
TAP	99	192	7
HLD	100	0	1	192
HLD	100	0	6	192
HLD	101	0	7	192
HLD	102	0	0	192
STR	103	0	0
SI_	103	0	0	96	288	3
STR	103	0	7
SI_	103	0	7	96	288	4
BRK	105	0	3
BRK	105	0	4

T_REC_TAP	195
T_REC_BRK	9
T_REC_XTP	0
T_REC_HLD	22
T_REC_XHO	0
T_REC_STR	10
T_REC_BST	0
T_REC_XST	0
T_REC_TTP	0
T_REC_THO	0
T_REC_SLD	10
T_REC_ALL	246
T_NUM_TAP	205
T_NUM_BRK	9
T_NUM_HLD	22
T_NUM_SLD	10
T_NUM_ALL	246
T_JUDGE_TAP	214
T_JUDGE_HLD	104
T_JUDGE_SLD	10
T_JUDGE_ALL	328
TTM_EACHPAIRS	42
TTM_SCR_TAP	102500
TTM_SCR_BRK	23400
TTM_SCR_HLD	22000
TTM_SCR_SLD	15000
TTM_SCR_ALL	162900
TTM_SCR_S	157150
TTM_SCR_SS	162000
TTM_RAT_ACV	10055

