VERSION	0.00.00	1.03.00
FES_MODE	0
BPM_DEF	188.000	188.000	188.000	188.000
MET_DEF	4	4
RESOLUTION	384
CLK_DEF	384
COMPATIBLE_CODE	MA2

BPM	0	0	188.000

TAP	1	96	5
TAP	1	288	5
TAP	2	0	0
TAP	2	72	1
TAP	2	96	5
TAP	2	144	2
TAP	2	192	2
TAP	2	264	3
TAP	2	288	5
TAP	2	336	4
TAP	3	0	4
TAP	3	96	5
TAP	3	288	0
TAP	3	288	5
TAP	3	336	0
TAP	4	96	5
TAP	4	240	1
TAP	4	288	5
TAP	4	336	2
TAP	4	336	3
TAP	5	0	3
TAP	5	96	5
TAP	5	240	3
TAP	5	288	5
TAP	6	0	3
TAP	6	0	6
TAP	6	32	7
TAP	6	64	0
TAP	6	96	1
TAP	6	96	5
TAP	6	128	2
TAP	6	160	3
TAP	6	192	6
TAP	6	224	5
TAP	6	240	3
TAP	6	256	4
TAP	6	288	2
TAP	6	288	5
TAP	6	320	1
TAP	6	352	0
TAP	7	0	3
TAP	7	0	7
TAP	7	96	5
TAP	7	144	6
TAP	7	240	3
TAP	7	288	4
TAP	7	288	5
TAP	7	336	4
TAP	8	0	2
TAP	8	24	3
TAP	8	48	2
TAP	8	72	3
TAP	8	120	5
TAP	8	144	4
TAP	8	192	3
TAP	8	216	4
TAP	8	240	3
TAP	8	264	4
STR	8	288	0
SCR	8	288	0	96	1344	7
TAP	9	0	4
TAP	9	48	5
TAP	9	144	5
TAP	9	192	6
TAP	9	288	6
TAP	9	336	7
TAP	10	48	7
TAP	10	96	6
TAP	10	192	6
TAP	10	240	5
STR	10	288	4
SCR	10	288	4	96	576	7
TAP	11	0	3
TAP	11	48	2
TAP	11	144	2
TAP	11	192	1
TAP	11	288	1
TAP	11	336	0
TAP	12	48	0
TAP	12	96	1
TAP	12	192	1
TAP	12	240	2
STR	12	288	3
SCL	12	288	3	96	1344	4
TAP	13	0	7
TAP	13	48	6
TAP	13	144	6
TAP	13	192	5
TAP	13	288	5
TAP	13	336	4
TAP	14	48	4
TAP	14	96	5
TAP	14	192	5
TAP	14	240	6
STR	14	288	7
SCL	14	288	7	96	576	4
TAP	15	0	0
TAP	15	48	1
TAP	15	144	1
TAP	15	192	2
TAP	15	288	2
TAP	15	336	3
TAP	16	48	3
TAP	16	96	2
TAP	16	192	2
TAP	16	240	1
TAP	16	288	0
TAP	16	288	7
TAP	17	0	2
TAP	17	0	5
TAP	17	336	7
TAP	17	360	6
TAP	18	0	5
TAP	18	48	1
STR	18	48	5
SCR	18	48	5	96	48	0
TAP	18	96	2
STR	18	144	1
SI_	18	144	1	96	48	3
TAP	18	144	5
TAP	18	240	1
STR	18	240	5
SCR	18	240	5	96	48	0
STR	18	336	1
SI_	18	336	1	96	48	3
TAP	18	336	5
TAP	19	48	1
TAP	19	48	5
HLD	19	96	5	96
TAP	19	144	3
TAP	19	168	2
TAP	19	192	1
TAP	19	240	1
TAP	19	240	5
TAP	19	288	6
TAP	19	336	3
TAP	19	336	7
TAP	20	0	2
STR	20	48	2
SCL	20	48	2	96	48	7
TAP	20	48	6
TAP	20	96	5
TAP	20	144	2
STR	20	144	6
SI_	20	144	6	96	48	4
STR	20	240	2
SCL	20	240	2	96	48	7
TAP	20	240	6
TAP	20	336	2
STR	20	336	6
SI_	20	336	6	96	48	4
TAP	21	48	2
TAP	21	48	6
HLD	21	96	2	96
TAP	21	144	4
TAP	21	168	5
TAP	21	192	6
TAP	21	240	2
TAP	21	240	6
TAP	21	288	1
TAP	21	336	0
TAP	21	336	4
TAP	22	0	5
TAP	22	48	1
STR	22	48	5
SCR	22	48	5	96	48	0
TAP	22	96	2
STR	22	144	1
SI_	22	144	1	96	48	3
TAP	22	144	5
TAP	22	240	1
STR	22	240	5
SCR	22	240	5	96	48	0
TAP	22	336	1
TAP	22	336	5
TAP	23	0	1
TAP	23	48	3
TAP	23	72	4
TAP	23	96	3
TAP	23	120	4
TAP	23	144	3
TAP	23	168	4
TAP	23	192	2
TAP	23	216	3
TAP	23	240	1
TAP	23	264	4
TAP	23	288	0
TAP	23	312	5
TAP	23	336	7
TAP	23	360	6
TAP	24	0	0
TAP	24	24	1
TAP	24	48	2
TAP	24	72	3
TAP	24	96	6
TAP	24	120	5
TAP	24	144	4
TAP	24	168	3
TAP	24	192	7
TAP	24	216	6
TAP	24	240	5
TAP	24	264	4
TAP	24	288	3
TAP	24	288	7
TAP	24	312	2
TAP	24	312	6
TAP	24	336	1
TAP	24	336	5
TAP	24	360	0
TAP	24	360	4
TAP	25	0	3
TAP	25	24	2
TAP	25	48	1
TAP	25	72	0
TAP	25	96	7
TAP	25	120	6
TAP	25	144	5
TAP	25	168	4
TAP	25	192	1
TAP	25	216	0
TAP	25	240	2
TAP	25	264	7
TAP	25	288	3
TAP	25	312	6
TAP	25	336	4
TAP	25	360	5
TAP	26	0	2
STR	26	48	2
SCL	26	48	2	96	48	7
TAP	26	48	6
TAP	26	96	5
TAP	26	144	2
STR	26	144	6
SI_	26	144	6	96	48	4
STR	26	240	2
SCL	26	240	2	96	48	7
TAP	26	240	6
TAP	26	336	2
STR	26	336	6
SI_	26	336	6	96	48	4
TAP	27	48	2
TAP	27	48	6
HLD	27	96	2	96
TAP	27	144	4
TAP	27	168	5
TAP	27	192	6
TAP	27	240	2
TAP	27	240	6
TAP	27	288	1
TAP	27	336	0
TAP	27	336	4
TAP	28	0	3
TAP	28	48	1
STR	28	48	5
SCR	28	48	5	96	48	0
TAP	28	96	2
STR	28	144	1
SI_	28	144	1	96	48	3
TAP	28	144	5
TAP	28	240	1
STR	28	240	5
SCR	28	240	5	96	48	0
STR	28	336	1
SI_	28	336	1	96	48	3
TAP	28	336	5
TAP	29	48	1
TAP	29	48	5
HLD	29	96	5	96
TAP	29	144	3
TAP	29	168	2
TAP	29	192	1
TAP	29	240	1
TAP	29	240	5
TAP	29	288	6
TAP	29	336	3
TAP	29	336	7
TAP	30	0	4
STR	30	48	2
SCL	30	48	2	96	48	7
TAP	30	48	6
TAP	30	96	5
TAP	30	144	2
STR	30	144	6
SI_	30	144	6	96	48	4
STR	30	240	2
SCL	30	240	2	96	48	7
TAP	30	240	6
TAP	30	336	2
TAP	30	336	6
TAP	31	0	6
TAP	31	48	4
TAP	31	72	3
TAP	31	96	5
TAP	31	120	2
TAP	31	144	6
TAP	31	168	1
TAP	31	192	4
TAP	31	216	3
TAP	31	240	5
TAP	31	264	2
TAP	31	288	6
TAP	31	312	1
TAP	31	336	7
TAP	31	360	0
TAP	32	0	5
TAP	32	24	4
TAP	32	48	6
TAP	32	72	3
TAP	32	96	7
TAP	32	120	2
TAP	32	144	0
TAP	32	168	1
TAP	32	192	6
TAP	32	216	7
TAP	32	240	5
TAP	32	264	0
TAP	32	288	4
TAP	32	312	1
TAP	32	336	3
TAP	32	360	2
TAP	33	0	3
TAP	33	24	2
TAP	33	48	4
TAP	33	72	3
TAP	33	96	4
TAP	33	120	3
TAP	33	144	5
TAP	33	168	4
TAP	33	192	5
TAP	33	216	3
TAP	33	240	6
TAP	33	264	2
BRK	33	288	7
TAP	34	0	1
HLD	34	0	5	96
TAP	34	48	1
TAP	34	96	1
TAP	34	144	2
HLD	34	144	6	96
TAP	34	192	2
TAP	34	240	2
TAP	34	288	3
HLD	34	288	7	96
TAP	34	336	3
TAP	35	0	3
TAP	35	48	4
TAP	35	72	0
TAP	35	96	3
TAP	35	120	7
TAP	35	144	2
TAP	35	168	6
STR	35	192	1
SI_	35	192	1	96	48	5
STR	35	216	5
SI_	35	216	5	96	24	1
TAP	35	240	0
TAP	35	264	4
HLD	36	0	0	192
TAP	36	0	4
TAP	36	96	5
TAP	36	144	5
TAP	36	240	0
TAP	36	240	6
TAP	36	288	1
TAP	36	288	6
HLD	36	336	2	144
TAP	37	0	7
TAP	37	48	7
TAP	37	144	2
TAP	37	192	2
TAP	37	192	7
TAP	37	240	1
TAP	37	288	1
TAP	37	288	6
TAP	37	336	0
TAP	38	0	0
HLD	38	0	5	96
TAP	38	96	4
HLD	38	144	1	96
TAP	38	144	4
TAP	38	240	3
TAP	38	288	3
HLD	38	288	6	96
TAP	39	0	0
TAP	39	48	0
TAP	39	48	7
TAP	39	192	1
TAP	39	192	5
TAP	39	216	2
TAP	39	216	6
TAP	39	240	3
TAP	39	240	7
TAP	39	264	0
TAP	39	264	4
TAP	39	288	1
TAP	39	312	2
TAP	39	336	3
TAP	39	360	4
HLD	40	0	1	72
TAP	40	0	5
HLD	40	72	2	72
TAP	40	144	3
TAP	40	192	2
HLD	40	192	6	72
HLD	40	264	5	72
TAP	40	336	4
TAP	41	0	3
TAP	41	0	4
TAP	41	48	2
TAP	41	72	5
TAP	41	96	1
TAP	41	120	6
TAP	41	144	0
TAP	41	168	7
TAP	41	192	0
TAP	41	240	1
TAP	41	240	6
TAP	41	264	2
TAP	41	264	5
STR	41	288	3
SI_	41	288	3	96	48	0
STR	41	288	4
SI_	41	288	4	96	48	7
TAP	45	192	2
TAP	46	0	5
HLD	47	48	1	24
HLD	47	240	6	24
HLD	48	144	3	24
HLD	48	192	3	24
HLD	49	48	4	24
HLD	49	96	4	24
STR	50	0	2
SI_	50	0	2	96	480	5
TAP	50	96	4
TAP	50	288	4
TAP	51	96	4
TAP	51	192	4
TAP	51	224	4
TAP	51	256	4
TAP	51	288	4
STR	52	0	5
SI_	52	0	5	96	480	2
TAP	52	96	3
TAP	52	288	3
TAP	53	96	3
TAP	53	128	3
TAP	53	160	3
STR	53	192	3
SI_	53	192	3	96	48	0
STR	54	0	1
SV_	54	0	1	96	480	6
TAP	54	96	4
TAP	54	288	4
TAP	55	192	4
TAP	55	224	4
TAP	55	256	4
TAP	55	288	4
STR	56	0	6
SV_	56	0	6	96	480	1
TAP	56	96	3
TAP	56	288	3
TAP	57	96	3
TAP	57	128	3
TAP	57	160	3
STR	57	192	3
SI_	57	192	3	96	48	7
STR	58	0	0
SUL	58	0	0	96	816	7
TAP	58	288	3
TAP	58	312	4
TAP	58	336	3
TAP	58	360	4
TAP	59	0	2
TAP	59	24	4
TAP	59	48	2
TAP	59	72	4
TAP	59	96	2
TAP	59	120	3
TAP	59	144	2
TAP	59	168	3
TAP	59	192	1
TAP	59	216	3
TAP	59	240	1
TAP	59	264	3
TAP	59	288	1
TAP	59	312	2
TAP	59	336	1
TAP	59	360	2
TAP	60	0	0
TAP	60	192	5
TAP	60	216	1
TAP	60	240	7
TAP	60	264	3
TAP	60	288	5
TAP	60	312	6
TAP	60	336	7
TAP	60	360	0
TAP	61	0	1
TAP	61	24	0
TAP	61	48	1
TAP	61	72	0
TAP	61	96	1
TAP	61	144	6
TAP	61	168	7
TAP	61	192	6
TAP	61	216	7
TAP	61	240	6
TAP	61	288	0
TAP	61	312	7
TAP	61	336	0
TAP	62	0	5
TAP	62	24	4
TAP	62	48	5
TAP	62	72	4
TAP	62	96	5
TAP	62	144	2
TAP	62	168	3
TAP	62	192	2
TAP	62	216	3
TAP	62	240	2
TAP	62	288	4
TAP	62	304	3
TAP	62	320	4
TAP	62	336	3
TAP	63	0	3
TAP	63	24	4
TAP	63	48	3
TAP	63	72	4
TAP	63	96	3
TAP	63	144	4
TAP	63	168	3
TAP	63	192	4
TAP	63	216	3
TAP	63	240	4
TAP	63	288	2
TAP	63	312	5
TAP	63	336	2
TAP	64	0	6
TAP	64	24	1
TAP	64	48	6
TAP	64	72	1
TAP	64	96	6
TAP	64	144	1
TAP	64	168	6
TAP	64	192	1
TAP	64	216	6
TAP	64	240	1
TAP	64	288	7
TAP	64	304	0
TAP	64	320	7
TAP	64	336	0
TAP	65	0	1
TAP	65	24	0
TAP	65	48	1
TAP	65	72	0
TAP	65	96	1
TAP	65	144	6
TAP	65	168	7
TAP	65	192	6
TAP	65	216	7
TAP	65	240	6
TAP	65	288	0
TAP	65	312	7
TAP	65	336	0
TAP	65	360	7
TAP	66	0	2
TAP	66	24	3
TAP	66	48	2
TAP	66	72	3
TAP	66	96	2
TAP	66	144	5
TAP	66	168	4
TAP	66	192	5
TAP	66	216	4
TAP	66	240	5
TAP	66	288	3
TAP	66	304	4
TAP	66	320	3
TAP	66	336	4
TAP	66	352	3
TAP	66	368	4
TAP	67	0	2
TAP	67	24	5
TAP	67	48	2
TAP	67	72	5
TAP	67	96	2
TAP	67	144	6
TAP	67	168	1
TAP	67	192	6
TAP	67	216	1
TAP	67	240	6
TAP	67	288	1
TAP	67	312	5
TAP	67	336	2
TAP	67	360	6
TAP	68	0	3
TAP	68	16	7
TAP	68	32	3
TAP	68	48	7
TAP	68	72	2
TAP	68	96	6
TAP	68	120	1
TAP	68	144	5
TAP	68	160	1
TAP	68	176	5
STR	68	192	0
SI_	68	192	0	96	48	4
TAP	68	216	4
TAP	68	240	7
TAP	68	264	3
TAP	68	288	0
TAP	68	336	5
TAP	68	360	6
TAP	69	0	1
TAP	69	0	7
TAP	69	24	6
TAP	69	48	2
TAP	69	96	5
TAP	69	144	3
TAP	69	160	4
TAP	69	176	2
TAP	69	192	3
TAP	69	240	7
TAP	69	288	1
TAP	69	312	6
TAP	69	336	2
TAP	69	360	7
TAP	70	0	1
TAP	70	16	6
TAP	70	32	1
TAP	70	48	6
TAP	70	96	7
TAP	70	144	0
TAP	70	160	6
TAP	70	176	7
TAP	70	192	6
TAP	70	240	2
TAP	70	288	6
TAP	70	312	1
TAP	70	336	5
TAP	70	360	2
TAP	71	0	3
TAP	71	0	4
TAP	71	16	5
TAP	71	32	3
TAP	71	48	5
TAP	71	96	6
TAP	71	144	3
TAP	71	160	4
TAP	71	176	2
TAP	71	192	3
TAP	71	240	6
TAP	71	288	4
TAP	71	312	5
TAP	71	336	3
TAP	71	360	6
TAP	72	0	2
TAP	72	16	4
TAP	72	32	3
TAP	72	48	4
TAP	72	96	6
TAP	72	144	4
TAP	72	160	5
TAP	72	176	3
TAP	72	192	4
TAP	72	240	6
TAP	72	288	5
TAP	72	312	6
TAP	72	336	7
TAP	72	360	0
TAP	73	0	1
TAP	73	0	6
TAP	73	16	7
TAP	73	32	0
TAP	73	48	7
TAP	73	96	7
TAP	73	144	1
TAP	73	160	6
TAP	73	176	2
TAP	73	192	5
TAP	73	240	5
TAP	73	288	4
TAP	73	312	3
TAP	73	336	5
TAP	73	360	4
TAP	74	0	6
TAP	74	16	4
TAP	74	32	5
TAP	74	48	3
TAP	74	96	0
TAP	74	144	7
TAP	74	160	0
TAP	74	176	6
TAP	74	192	1
TAP	74	240	1
TAP	74	288	5
TAP	74	312	2
TAP	74	336	4
TAP	74	360	3
TAP	75	0	2
TAP	75	0	4
TAP	75	16	5
TAP	75	32	3
TAP	75	48	5
TAP	75	96	6
TAP	75	144	0
TAP	75	160	7
TAP	75	176	1
TAP	75	192	6
TAP	75	240	5
TAP	75	288	0
TAP	75	312	7
TAP	75	336	0
TAP	75	360	5
TAP	76	0	0
TAP	76	16	3
TAP	76	32	1
TAP	76	48	4
TAP	76	96	5
TAP	76	144	2
TAP	76	192	4
TAP	76	208	3
TAP	76	224	4
TAP	76	240	3
TAP	76	288	3
TAP	76	312	4
TAP	76	336	5
TAP	76	360	6
TAP	77	0	7
TAP	77	24	0
TAP	77	48	7
TAP	77	72	0
TAP	77	96	7
TAP	77	144	1
TAP	77	144	6
TAP	77	168	1
TAP	77	168	6
TAP	77	192	0
TAP	77	192	7
BRK	77	288	7
TAP	78	0	1
TAP	78	24	6
TAP	78	48	0
TAP	78	96	7
TAP	78	120	1
TAP	78	144	7
TAP	78	168	1
TAP	78	192	6
TAP	78	216	2
TAP	78	240	6
TAP	78	288	3
TAP	78	312	4
TAP	78	336	2
TAP	78	360	5
TAP	79	0	6
TAP	79	16	3
TAP	79	32	7
TAP	79	48	3
TAP	79	96	1
TAP	79	120	0
TAP	79	144	1
TAP	79	168	0
TAP	79	192	2
TAP	79	216	3
TAP	79	240	2
TAP	79	288	5
TAP	79	304	4
TAP	79	320	5
TAP	79	336	3
TAP	79	352	6
TAP	79	368	3
TAP	80	0	5
TAP	80	24	4
TAP	80	48	5
TAP	80	96	3
TAP	80	120	4
TAP	80	144	3
TAP	80	168	4
TAP	80	192	2
TAP	80	216	5
TAP	80	240	2
TAP	80	288	5
TAP	80	312	2
TAP	80	336	6
TAP	80	360	1
TAP	81	0	7
TAP	81	24	0
TAP	81	48	7
TAP	81	72	0
TAP	81	96	6
TAP	81	112	1
TAP	81	128	6
TAP	81	144	1
TAP	81	160	6
TAP	81	176	1
TAP	81	192	5
TAP	81	216	2
TAP	81	240	5
TAP	81	264	2
TAP	81	288	4
TAP	81	304	3
TAP	81	320	4
TAP	81	336	3
TAP	81	352	4
TAP	81	368	3
TAP	82	0	5
TAP	82	24	2
TAP	82	48	6
TAP	82	72	1
TAP	82	96	7
TAP	82	112	0
TAP	82	128	7
TAP	82	144	0
TAP	82	160	7
TAP	82	176	0
TAP	82	192	6
TAP	82	216	1
TAP	82	240	5
TAP	82	264	2
TAP	82	288	4
TAP	82	304	3
TAP	82	320	4
TAP	82	336	3
TAP	82	352	4
TAP	82	368	3
TAP	83	0	4
TAP	83	24	2
TAP	83	48	5
TAP	83	72	1
TAP	83	96	6
TAP	83	120	2
TAP	83	144	7
TAP	83	168	3
TAP	83	192	6
TAP	83	216	2
TAP	83	240	5
TAP	83	264	1
TAP	83	288	4
TAP	83	312	0
TAP	83	336	3
TAP	83	360	7
TAP	84	0	2
STR	84	0	6
SCR	84	0	6	96	168	5
TAP	84	24	3
STR	84	24	7
SCR	84	24	7	96	168	6
STR	84	48	0
SCR	84	48	0	96	168	7
TAP	84	48	4
STR	84	72	1
SCR	84	72	1	96	168	0
TAP	84	72	5
STR	84	96	2
SCR	84	96	2	96	168	1
TAP	84	96	6
TAP	84	192	6
TAP	84	216	7
TAP	84	240	0
TAP	84	264	1
TAP	84	288	2
TAP	84	312	3
TAP	84	336	4
TAP	84	360	5
STR	85	0	6
SI_	85	0	6	96	1440	2
TAP	88	192	0
TAP	88	240	0
STR	88	288	1
SI_	88	288	1	96	1536	5
TAP	88	336	1
TAP	92	192	7
TAP	92	240	7
TAP	92	288	6
TAP	92	336	6

T_REC_TAP	761
T_REC_BRK	2
T_REC_XTP	0
T_REC_HLD	22
T_REC_XHO	0
T_REC_STR	45
T_REC_BST	0
T_REC_XST	0
T_REC_TTP	0
T_REC_THO	0
T_REC_SLD	45
T_REC_ALL	875
T_NUM_TAP	806
T_NUM_BRK	2
T_NUM_HLD	22
T_NUM_SLD	45
T_NUM_ALL	875
T_JUDGE_TAP	808
T_JUDGE_HLD	41
T_JUDGE_SLD	45
T_JUDGE_ALL	894
TTM_EACHPAIRS	83
TTM_SCR_TAP	403000
TTM_SCR_BRK	5200
TTM_SCR_HLD	22000
TTM_SCR_SLD	67500
TTM_SCR_ALL	497700
TTM_SCR_S	482600
TTM_SCR_SS	497500
TTM_RAT_ACV	10004

