VERSION	0.00.00	1.03.00
FES_MODE	0
BPM_DEF	188.000	188.000	188.000	188.000
MET_DEF	4	4
RESOLUTION	384
CLK_DEF	384
COMPATIBLE_CODE	MA2

BPM	0	0	188.000

TAP	2	0	0
TAP	2	72	1
TAP	2	144	2
TAP	2	192	2
TAP	2	264	3
TAP	2	336	4
TAP	3	0	4
TAP	3	288	0
TAP	3	336	0
TAP	4	240	1
TAP	4	336	2
TAP	6	0	6
TAP	6	32	7
TAP	6	64	0
TAP	6	96	1
TAP	6	128	2
TAP	6	160	3
TAP	6	192	6
TAP	6	224	5
TAP	6	256	4
TAP	6	288	2
TAP	6	320	1
TAP	6	352	0
TAP	7	0	7
TAP	7	144	6
TAP	7	288	5
STR	7	336	5
SUL	7	336	5	96	192	2
STR	8	288	0
SCR	8	288	0	96	576	3
TAP	9	0	4
TAP	9	48	5
TAP	9	144	5
TAP	9	192	6
TAP	9	288	6
TAP	9	336	7
TAP	10	48	7
TAP	10	96	6
TAP	10	192	6
TAP	10	240	5
STR	10	288	4
SCR	10	288	4	96	576	7
TAP	11	0	3
TAP	11	48	2
TAP	11	144	2
TAP	11	192	1
TAP	11	288	1
TAP	11	336	0
TAP	12	48	0
TAP	12	96	1
TAP	12	192	1
TAP	12	240	2
STR	12	288	3
SCL	12	288	3	96	576	0
TAP	13	0	7
TAP	13	48	6
TAP	13	144	6
TAP	13	192	5
TAP	13	288	5
TAP	13	336	4
TAP	14	48	4
TAP	14	96	5
TAP	14	192	5
TAP	14	240	6
STR	14	288	7
SCL	14	288	7	96	576	4
TAP	15	0	0
TAP	15	48	1
TAP	15	144	1
TAP	15	192	2
TAP	15	288	2
TAP	15	336	3
TAP	16	48	3
TAP	16	96	2
TAP	16	192	2
TAP	16	240	1
TAP	16	288	0
TAP	16	288	7
TAP	17	0	2
TAP	17	0	5
TAP	17	336	0
TAP	17	336	7
TAP	17	360	1
TAP	17	360	6
TAP	18	0	2
TAP	18	0	5
TAP	18	48	4
TAP	18	96	3
TAP	18	144	6
TAP	18	168	4
TAP	18	216	4
TAP	18	240	6
TAP	18	288	2
TAP	18	336	5
TAP	19	0	1
TAP	19	48	7
TAP	19	96	3
TAP	19	144	4
TAP	19	168	2
TAP	19	192	4
TAP	19	216	2
TAP	19	240	4
TAP	19	288	1
TAP	19	312	0
TAP	19	336	7
TAP	19	360	6
TAP	20	0	0
TAP	20	0	5
TAP	20	48	2
TAP	20	96	4
TAP	20	144	1
TAP	20	168	3
TAP	20	216	3
TAP	20	240	1
TAP	20	288	5
TAP	20	336	2
TAP	21	0	6
TAP	21	48	0
TAP	21	96	4
TAP	21	144	3
TAP	21	168	5
TAP	21	192	3
TAP	21	216	5
TAP	21	240	3
TAP	21	288	6
TAP	21	312	7
TAP	21	336	0
TAP	21	360	1
TAP	22	0	2
TAP	22	0	7
TAP	22	48	5
TAP	22	96	3
TAP	22	144	6
TAP	22	168	4
TAP	22	216	4
TAP	22	240	6
TAP	22	288	3
TAP	22	288	5
TAP	22	336	2
TAP	22	336	4
TAP	23	0	1
TAP	23	24	0
TAP	23	48	1
TAP	23	72	0
TAP	23	96	2
TAP	23	120	7
TAP	23	144	2
TAP	23	168	7
TAP	23	192	3
TAP	23	216	6
TAP	23	240	3
TAP	23	264	6
TAP	23	288	4
TAP	23	312	5
TAP	23	336	4
TAP	23	360	5
TAP	24	0	2
TAP	24	24	3
TAP	24	48	2
TAP	24	72	3
TAP	24	96	1
TAP	24	120	4
TAP	24	144	1
TAP	24	168	4
TAP	24	192	0
TAP	24	216	5
TAP	24	240	0
TAP	24	264	5
TAP	24	288	7
TAP	24	312	6
TAP	24	336	7
TAP	24	360	6
TAP	25	0	0
TAP	25	24	1
TAP	25	48	2
TAP	25	72	3
TAP	25	96	7
TAP	25	120	6
TAP	25	144	5
TAP	25	168	4
TAP	25	192	1
TAP	25	216	2
TAP	25	240	3
TAP	25	264	4
TAP	25	288	5
TAP	25	312	6
TAP	25	336	7
TAP	25	360	0
TAP	26	0	1
TAP	26	0	5
TAP	26	48	2
TAP	26	96	4
TAP	26	144	1
TAP	26	168	3
TAP	26	216	3
TAP	26	240	1
TAP	26	288	5
TAP	26	336	2
TAP	27	0	6
TAP	27	48	0
TAP	27	96	4
TAP	27	144	3
TAP	27	168	5
TAP	27	192	3
TAP	27	216	5
TAP	27	240	3
TAP	27	288	6
TAP	27	312	7
TAP	27	336	0
TAP	27	360	1
TAP	28	0	2
TAP	28	0	7
TAP	28	48	5
TAP	28	96	3
TAP	28	144	6
TAP	28	168	4
TAP	28	216	4
TAP	28	240	6
TAP	28	288	3
TAP	28	336	5
TAP	29	0	0
TAP	29	0	2
TAP	29	48	1
TAP	29	96	6
TAP	29	144	5
TAP	29	144	7
TAP	29	192	0
TAP	29	240	7
TAP	29	288	1
TAP	29	288	6
TAP	29	312	5
TAP	29	336	4
TAP	29	360	3
TAP	30	0	1
TAP	30	0	2
TAP	30	48	3
TAP	30	96	1
TAP	30	144	0
TAP	30	168	7
TAP	30	192	0
TAP	30	216	7
TAP	30	240	0
TAP	30	288	1
TAP	30	288	6
TAP	30	336	2
TAP	30	336	5
TAP	31	0	3
TAP	31	24	4
TAP	31	48	3
TAP	31	72	4
TAP	31	96	2
TAP	31	120	5
TAP	31	144	2
TAP	31	168	5
TAP	31	192	1
TAP	31	216	6
TAP	31	240	1
TAP	31	264	6
TAP	31	288	0
TAP	31	312	7
TAP	31	336	0
TAP	31	360	7
TAP	32	0	1
TAP	32	0	6
TAP	32	48	1
TAP	32	48	6
TAP	32	96	5
TAP	32	144	3
TAP	32	144	4
TAP	32	192	2
TAP	32	240	4
TAP	32	240	5
TAP	32	288	6
TAP	32	336	2
TAP	32	336	3
TAP	33	0	1
TAP	33	48	4
TAP	33	48	6
TAP	33	96	7
TAP	33	144	1
TAP	33	144	3
TAP	33	192	0
TAP	33	192	7
TAP	33	240	0
TAP	33	240	7
TAP	33	288	1
TAP	33	312	6
TAP	33	336	1
TAP	33	360	6
TAP	34	0	0
TAP	34	0	7
TAP	34	48	0
TAP	34	96	0
TAP	34	144	1
TAP	34	144	6
TAP	34	192	1
TAP	34	240	1
TAP	34	288	2
TAP	34	288	5
TAP	34	336	2
TAP	35	0	2
TAP	35	48	3
TAP	35	72	7
TAP	35	96	2
TAP	35	120	6
TAP	35	144	1
TAP	35	168	5
STR	35	192	0
SI_	35	192	0	96	48	4
TAP	35	216	4
TAP	35	240	7
TAP	35	264	3
TAP	36	0	0
TAP	36	0	4
TAP	36	48	5
TAP	36	96	3
TAP	36	144	3
TAP	36	192	6
TAP	36	240	2
TAP	36	240	7
TAP	36	288	1
TAP	36	288	6
TAP	36	336	0
TAP	36	336	5
TAP	37	0	4
TAP	37	48	4
TAP	37	96	1
TAP	37	144	5
TAP	37	192	2
TAP	37	192	7
TAP	37	240	2
TAP	37	288	1
TAP	37	288	6
TAP	37	336	6
TAP	38	0	0
TAP	38	0	5
TAP	38	48	4
TAP	38	96	3
TAP	38	96	6
TAP	38	144	3
TAP	38	144	6
TAP	38	192	2
TAP	38	240	1
TAP	38	240	4
TAP	38	288	1
TAP	38	288	4
TAP	38	336	5
TAP	39	0	0
TAP	39	0	6
TAP	39	48	0
TAP	39	48	6
TAP	39	96	1
TAP	39	96	5
TAP	39	144	2
TAP	39	144	4
TAP	39	192	3
TAP	39	216	2
TAP	39	240	1
TAP	39	264	0
TAP	39	288	7
TAP	39	312	6
TAP	39	336	5
TAP	39	360	4
HLD	40	0	0	72
HLD	40	72	1	72
TAP	40	144	2
HLD	40	192	7	72
HLD	40	264	6	72
TAP	40	336	5
TAP	41	0	3
TAP	41	0	4
TAP	41	48	2
TAP	41	72	5
TAP	41	96	1
TAP	41	120	6
TAP	41	144	0
TAP	41	168	7
TAP	41	192	0
TAP	41	240	1
TAP	41	240	6
TAP	41	264	1
TAP	41	264	6
TAP	41	288	0
TAP	41	288	7
BRK	42	0	0
TAP	45	192	2
TAP	46	0	5
TAP	46	48	5
TAP	46	144	4
TAP	46	240	3
TAP	46	336	2
HLD	47	48	1	24
TAP	47	144	0
TAP	47	192	7
HLD	47	240	6	24
TAP	47	288	0
TAP	47	336	1
TAP	48	0	4
TAP	48	48	4
HLD	48	144	3	24
HLD	48	192	3	24
TAP	48	336	2
TAP	48	336	5
HLD	49	48	4	24
HLD	49	96	4	24
TAP	49	192	2
TAP	49	192	5
TAP	49	240	3
TAP	49	288	4
TAP	49	336	3
STR	50	0	2
SI_	50	0	2	96	480	5
TAP	50	0	5
TAP	50	48	5
TAP	50	144	5
TAP	50	240	6
TAP	50	336	6
TAP	51	48	7
TAP	51	144	7
TAP	51	192	6
TAP	51	240	5
TAP	51	288	4
TAP	51	336	3
TAP	52	0	2
STR	52	0	5
SI_	52	0	5	96	480	2
TAP	52	48	2
TAP	52	144	2
TAP	52	240	1
TAP	52	336	1
TAP	53	48	0
TAP	53	144	0
STR	53	192	0
SI_	53	192	0	96	48	4
TAP	54	0	1
STR	54	0	6
SCR	54	0	6	96	480	1
TAP	54	48	1
TAP	54	144	1
TAP	54	240	2
TAP	54	336	2
TAP	55	48	3
TAP	55	144	3
TAP	55	192	2
TAP	55	240	1
TAP	55	288	0
TAP	55	336	7
STR	56	0	1
SCL	56	0	1	96	480	6
TAP	56	0	6
TAP	56	48	6
TAP	56	144	6
TAP	56	240	5
TAP	56	336	5
TAP	57	48	4
TAP	57	144	4
STR	57	192	4
SI_	57	192	4	96	48	0
TAP	58	0	7
TAP	58	288	0
TAP	58	312	4
TAP	58	336	0
TAP	58	360	4
TAP	59	0	1
TAP	59	24	5
TAP	59	48	1
TAP	59	72	5
TAP	59	96	2
TAP	59	120	6
TAP	59	144	2
TAP	59	168	6
TAP	59	192	3
TAP	59	216	7
TAP	59	240	3
TAP	59	264	7
TAP	59	288	4
TAP	59	312	0
TAP	59	336	4
TAP	59	360	0
STR	60	0	4
SI_	60	0	4	96	48	0
TAP	60	192	0
TAP	60	216	4
TAP	60	240	0
TAP	60	264	4
TAP	60	288	0
TAP	60	336	1
TAP	60	336	5
TAP	60	360	2
TAP	60	360	6
TAP	61	0	3
TAP	61	0	7
STR	61	48	3
SCL	61	48	3	96	48	0
TAP	61	48	7
TAP	61	144	3
STR	61	144	7
SI_	61	144	7	96	48	5
STR	61	240	3
SCL	61	240	3	96	48	0
TAP	61	240	7
TAP	61	336	3
STR	61	336	7
SI_	61	336	7	96	48	5
HLD	62	48	3	96
TAP	62	48	7
TAP	62	144	4
TAP	62	168	5
TAP	62	192	6
TAP	62	240	3
TAP	62	240	7
TAP	62	288	2
TAP	62	288	6
TAP	62	336	1
TAP	62	336	5
TAP	63	0	0
TAP	63	0	4
TAP	63	48	0
STR	63	48	4
SCR	63	48	4	96	48	7
STR	63	144	0
SI_	63	144	0	96	48	2
TAP	63	144	4
TAP	63	240	0
STR	63	240	4
SCR	63	240	4	96	48	7
STR	63	336	0
SI_	63	336	0	96	48	2
TAP	63	336	4
TAP	64	48	0
HLD	64	48	4	96
TAP	64	144	3
TAP	64	168	2
TAP	64	192	1
TAP	64	240	0
TAP	64	240	4
TAP	64	288	1
TAP	64	288	5
TAP	64	336	2
TAP	64	336	6
TAP	65	0	3
TAP	65	0	7
STR	65	48	3
SCL	65	48	3	96	48	0
TAP	65	48	7
TAP	65	144	3
STR	65	144	7
SI_	65	144	7	96	48	5
STR	65	240	3
SCL	65	240	3	96	48	0
TAP	65	240	7
TAP	65	336	3
TAP	65	336	7
TAP	66	0	6
TAP	66	48	0
TAP	66	48	5
TAP	66	96	2
TAP	66	120	3
TAP	66	144	2
TAP	66	168	3
TAP	66	192	1
TAP	66	216	4
TAP	66	240	1
TAP	66	264	4
TAP	66	288	0
TAP	66	312	5
TAP	66	336	0
TAP	66	360	5
TAP	67	0	7
TAP	67	24	6
TAP	67	48	7
TAP	67	72	6
TAP	67	96	1
TAP	67	120	0
TAP	67	144	1
TAP	67	168	0
TAP	67	192	2
TAP	67	216	7
TAP	67	240	2
TAP	67	264	7
TAP	67	288	3
TAP	67	312	6
TAP	67	336	3
TAP	67	360	6
TAP	68	0	4
TAP	68	24	5
TAP	68	48	3
TAP	68	72	4
TAP	68	96	2
TAP	68	120	3
TAP	68	144	1
TAP	68	168	4
STR	68	192	0
SI_	68	192	0	96	48	4
TAP	68	216	5
TAP	68	240	7
TAP	68	264	6
BRK	68	288	0
TAP	69	0	5
STR	69	48	5
SCR	69	48	5	96	48	0
TAP	69	96	2
STR	69	144	1
SI_	69	144	1	96	48	4
TAP	69	144	5
TAP	69	240	1
STR	69	240	5
SCR	69	240	5	96	48	0
TAP	69	336	2
TAP	69	336	5
TAP	70	0	2
TAP	70	24	3
TAP	70	48	4
TAP	70	72	5
TAP	70	96	1
TAP	70	120	2
TAP	70	144	3
TAP	70	168	4
TAP	70	192	0
TAP	70	216	1
TAP	70	240	2
TAP	70	264	3
TAP	70	288	1
TAP	70	312	2
TAP	70	336	3
TAP	70	360	4
TAP	71	0	2
STR	71	48	2
SCL	71	48	2	96	48	7
TAP	71	96	5
TAP	71	144	2
STR	71	144	6
SI_	71	144	6	96	48	3
STR	71	240	2
SCL	71	240	2	96	48	7
TAP	71	240	6
TAP	71	336	2
TAP	71	336	5
TAP	72	0	5
TAP	72	24	4
TAP	72	48	3
TAP	72	72	2
TAP	72	96	6
TAP	72	120	5
TAP	72	144	4
TAP	72	168	3
TAP	72	192	7
TAP	72	216	6
TAP	72	240	5
TAP	72	264	4
TAP	72	288	6
TAP	72	312	5
TAP	72	336	4
TAP	72	360	3
TAP	73	0	5
STR	73	48	5
SCR	73	48	5	96	48	0
TAP	73	96	2
STR	73	144	1
SI_	73	144	1	96	48	4
TAP	73	144	5
TAP	73	240	1
STR	73	240	5
SCR	73	240	5	96	48	0
TAP	73	336	1
TAP	73	336	5
TAP	74	0	2
TAP	74	48	3
TAP	74	72	7
TAP	74	96	3
TAP	74	120	7
TAP	74	144	3
TAP	74	168	7
TAP	74	192	2
TAP	74	216	6
TAP	74	240	2
TAP	74	264	6
TAP	74	288	1
TAP	74	312	5
TAP	74	336	1
TAP	74	360	5
TAP	75	0	0
TAP	75	24	4
TAP	75	48	0
TAP	75	72	4
TAP	75	96	7
TAP	75	120	3
TAP	75	144	7
TAP	75	168	3
TAP	75	192	0
TAP	75	216	4
TAP	75	240	0
TAP	75	264	4
TAP	75	288	1
TAP	75	312	5
TAP	75	336	1
TAP	75	360	5
TAP	76	0	2
TAP	76	24	4
TAP	76	48	1
TAP	76	72	5
TAP	76	96	0
TAP	76	120	6
TAP	76	144	1
TAP	76	168	7
TAP	76	192	2
TAP	76	216	6
TAP	76	240	3
TAP	76	264	5
TAP	76	288	4
TAP	77	0	1
TAP	77	0	5
TAP	77	48	2
STR	77	48	6
SCL	77	48	6	96	48	3
TAP	77	96	3
TAP	77	96	7
STR	77	144	2
SI_	77	144	2	96	48	7
TAP	77	144	6
TAP	77	240	2
STR	77	240	6
SCL	77	240	6	96	48	3
TAP	77	288	5
TAP	77	336	1
TAP	77	336	6
TAP	78	0	1
TAP	78	24	2
TAP	78	48	3
TAP	78	72	4
TAP	78	96	1
TAP	78	120	2
TAP	78	144	3
TAP	78	168	4
TAP	78	192	0
TAP	78	216	1
TAP	78	240	2
TAP	78	264	3
TAP	78	288	0
TAP	78	312	1
TAP	78	336	2
TAP	78	360	3
TAP	79	0	1
STR	79	48	1
SCR	79	48	1	96	48	4
TAP	79	96	7
TAP	79	120	6
TAP	79	144	1
STR	79	144	5
SI_	79	144	5	96	48	0
STR	79	240	1
SCR	79	240	1	96	48	4
TAP	79	240	5
TAP	79	288	2
TAP	79	336	1
TAP	79	336	6
TAP	80	0	6
TAP	80	24	5
TAP	80	48	4
TAP	80	72	3
TAP	80	96	6
TAP	80	120	5
TAP	80	144	4
TAP	80	168	3
TAP	80	192	7
TAP	80	216	6
TAP	80	240	5
TAP	80	264	4
TAP	80	288	7
TAP	80	312	6
TAP	80	336	5
TAP	80	360	4
TAP	81	0	6
STR	81	48	6
SCL	81	48	6	96	48	3
TAP	81	96	0
TAP	81	120	1
STR	81	144	2
SI_	81	144	2	96	48	7
TAP	81	144	6
TAP	81	240	2
STR	81	240	6
SCL	81	240	6	96	48	3
TAP	81	288	5
TAP	81	336	1
TAP	81	336	6
TAP	82	0	1
TAP	82	48	3
TAP	82	72	4
TAP	82	96	2
TAP	82	120	5
TAP	82	144	1
TAP	82	168	6
TAP	82	192	0
TAP	82	216	7
TAP	82	240	1
TAP	82	264	6
TAP	82	288	2
TAP	82	312	5
TAP	82	336	3
TAP	82	360	4
TAP	83	0	2
TAP	83	0	5
STR	83	48	2
SI_	83	48	2	96	48	5
TAP	83	48	5
TAP	83	96	6
TAP	83	144	2
STR	83	144	7
SI_	83	144	7	96	48	4
STR	83	240	3
SI_	83	240	3	96	48	0
TAP	83	240	7
TAP	83	336	3
STR	83	336	6
SI_	83	336	6	96	48	1
TAP	84	48	2
TAP	84	48	6
TAP	84	144	3
TAP	84	144	7
STR	84	192	2
SI_	84	192	2	96	48	5
STR	84	192	6
SI_	84	192	6	96	48	1
TAP	84	240	1
TAP	84	240	5
TAP	84	288	2
TAP	84	288	6
HLD	85	0	2	48
TAP	85	48	3
TAP	85	96	4
HLD	85	144	4	48
TAP	85	192	3
TAP	85	240	4
HLD	85	288	2	48
TAP	85	288	5
TAP	85	336	5
TAP	86	0	4
TAP	86	48	3
HLD	86	96	4	48
TAP	86	144	3
TAP	86	192	4
HLD	86	240	2	48
TAP	86	288	3
TAP	86	336	4
TAP	87	0	5
TAP	87	24	5
TAP	87	48	4
TAP	87	72	4
TAP	87	96	5
HLD	87	144	5	48
TAP	87	192	3
TAP	87	240	4
HLD	87	288	2	48
TAP	87	336	3
TAP	88	0	2
HLD	88	48	4	48
TAP	88	96	3
TAP	88	144	4
TAP	88	192	0
TAP	88	240	0
TAP	88	288	0
TAP	88	336	0
HLD	89	0	5	48
TAP	89	48	4
TAP	89	96	3
HLD	89	144	3	48
TAP	89	192	4
TAP	89	240	3
TAP	89	288	2
HLD	89	288	5	48
TAP	89	336	2
TAP	90	0	3
TAP	90	48	4
HLD	90	96	3	48
TAP	90	144	4
TAP	90	192	3
HLD	90	240	5	48
TAP	90	288	4
TAP	90	336	3
TAP	91	0	2
TAP	91	24	2
TAP	91	48	3
TAP	91	72	3
TAP	91	96	2
HLD	91	144	2	48
TAP	91	192	4
TAP	91	240	3
HLD	91	288	5	48
TAP	91	336	4
TAP	92	0	5
HLD	92	48	3	48
TAP	92	96	4
TAP	92	144	3
TAP	92	192	7
TAP	92	240	7
TAP	92	288	7
TAP	92	336	7

T_REC_TAP	770
T_REC_BRK	2
T_REC_XTP	0
T_REC_HLD	28
T_REC_XHO	0
T_REC_STR	49
T_REC_BST	0
T_REC_XST	0
T_REC_TTP	0
T_REC_THO	0
T_REC_SLD	49
T_REC_ALL	898
T_NUM_TAP	819
T_NUM_BRK	2
T_NUM_HLD	28
T_NUM_SLD	49
T_NUM_ALL	898
T_JUDGE_TAP	821
T_JUDGE_HLD	34
T_JUDGE_SLD	49
T_JUDGE_ALL	904
TTM_EACHPAIRS	113
TTM_SCR_TAP	409500
TTM_SCR_BRK	5200
TTM_SCR_HLD	28000
TTM_SCR_SLD	73500
TTM_SCR_ALL	516200
TTM_SCR_S	500550
TTM_SCR_SS	516000
TTM_RAT_ACV	10003

