VERSION	0.00.00	1.03.00
FES_MODE	0
BPM_DEF	188.000	188.000	188.000	188.000
MET_DEF	4	4
RESOLUTION	384
CLK_DEF	384
COMPATIBLE_CODE	MA2

BPM	0	0	188.000

HLD	2	0	1	192
HLD	2	192	3	192
HLD	3	0	4	336
TAP	3	288	6
HLD	3	336	6	288
STR	4	240	7
SCR	4	240	7	96	96	2
TAP	4	336	5
TAP	5	0	5
TAP	5	96	4
TAP	5	240	5
TAP	5	288	3
TAP	6	0	2
TAP	6	96	3
TAP	6	240	2
TAP	6	288	4
TAP	7	0	2
TAP	7	0	5
TAP	7	144	1
TAP	7	144	6
TAP	7	288	0
TAP	7	288	7
STR	7	336	0
SCR	7	336	0	96	144	3
STR	7	336	7
SCL	7	336	7	96	144	4
TAP	8	240	0
TAP	8	240	7
TAP	8	288	1
TAP	8	288	6
TAP	9	0	3
HLD	9	48	3	96
TAP	9	144	4
HLD	9	192	4	96
TAP	9	288	5
HLD	9	336	5	96
TAP	10	48	6
HLD	10	96	6	96
TAP	10	192	7
TAP	10	240	6
TAP	10	288	0
TAP	10	288	5
TAP	11	0	4
HLD	11	48	4	96
TAP	11	144	3
HLD	11	192	3	96
TAP	11	288	2
HLD	11	336	2	96
TAP	12	48	1
HLD	12	96	1	96
TAP	12	192	0
TAP	12	240	1
TAP	12	288	2
TAP	12	288	7
TAP	13	0	3
HLD	13	48	3	96
TAP	13	144	5
HLD	13	192	5	96
TAP	13	288	7
HLD	13	336	7	96
TAP	14	48	1
HLD	14	96	1	96
TAP	14	192	3
TAP	14	240	2
TAP	14	288	1
TAP	14	288	4
TAP	15	0	4
HLD	15	48	4	96
TAP	15	144	2
HLD	15	192	2	96
TAP	15	288	0
HLD	15	336	0	96
TAP	16	48	6
HLD	16	96	6	96
TAP	16	192	4
TAP	16	240	5
STR	16	288	3
SCL	16	288	3	96	96	0
TAP	16	288	6
STR	17	0	0
SCL	17	0	0	96	96	5
TAP	17	336	0
TAP	17	360	7
TAP	18	0	0
STR	18	48	1
SI_	18	48	1	96	48	5
TAP	18	48	6
TAP	18	144	0
STR	18	240	7
SI_	18	240	7	96	48	3
TAP	18	336	0
HLD	19	48	2	96
TAP	19	144	3
TAP	19	192	2
TAP	19	240	1
TAP	19	288	3
TAP	19	336	4
TAP	20	0	6
STR	20	48	6
SI_	20	48	6	96	48	2
TAP	20	144	7
STR	20	240	0
SI_	20	240	0	96	48	4
TAP	20	336	7
HLD	21	48	5	96
TAP	21	144	4
TAP	21	192	5
TAP	21	240	3
TAP	21	288	2
TAP	21	288	4
TAP	22	0	0
STR	22	48	0
SI_	22	48	0	96	48	4
TAP	22	144	7
STR	22	240	5
SI_	22	240	5	96	48	7
TAP	22	336	4
HLD	23	48	0	96
TAP	23	144	7
TAP	23	168	6
TAP	23	192	5
TAP	23	240	2
TAP	23	288	4
TAP	23	336	6
TAP	24	0	0
TAP	24	48	2
TAP	24	96	3
TAP	24	144	6
TAP	24	192	5
TAP	24	240	0
TAP	24	288	1
STR	24	336	6
SCL	24	336	6	96	48	3
TAP	25	48	7
TAP	25	144	1
TAP	25	192	2
TAP	25	240	3
TAP	25	288	1
TAP	25	288	4
TAP	26	0	3
TAP	26	0	6
TAP	26	48	3
STR	26	48	6
SI_	26	48	6	96	48	2
TAP	26	144	7
STR	26	240	0
SI_	26	240	0	96	48	4
TAP	26	336	7
HLD	27	48	5	96
TAP	27	144	4
TAP	27	192	5
TAP	27	240	6
TAP	27	288	4
TAP	27	336	3
TAP	28	0	1
STR	28	48	1
SI_	28	48	1	96	48	5
TAP	28	144	0
STR	28	240	7
SI_	28	240	7	96	48	3
TAP	28	336	0
HLD	29	48	2	96
TAP	29	144	3
TAP	29	192	2
TAP	29	240	4
TAP	29	288	3
TAP	29	288	5
TAP	30	0	7
STR	30	48	7
SI_	30	48	7	96	48	3
TAP	30	144	0
STR	30	240	2
SI_	30	240	2	96	48	0
TAP	30	336	3
HLD	31	48	7	96
TAP	31	144	0
TAP	31	168	1
TAP	31	192	2
TAP	31	240	5
TAP	31	288	3
TAP	31	336	1
TAP	32	0	7
STR	32	48	5
SI_	32	48	5	96	48	1
STR	32	144	0
SI_	32	144	0	96	48	6
STR	32	240	4
SI_	32	240	4	96	48	2
STR	32	336	1
SI_	32	336	1	96	48	5
TAP	33	48	7
TAP	33	144	3
TAP	33	144	7
TAP	33	192	2
TAP	33	192	6
TAP	33	240	1
TAP	33	240	5
BRK	33	288	0
BRK	33	288	4
STR	34	0	1
SI_	34	0	1	96	48	4
TAP	34	96	6
STR	34	144	5
SI_	34	144	5	96	48	0
TAP	34	240	2
STR	34	288	1
SI_	34	288	1	96	48	6
TAP	35	0	4
STR	35	48	5
SI_	35	48	5	96	48	2
TAP	35	144	1
STR	35	192	0
SI_	35	192	0	96	48	4
BRK	35	288	0
HLD	36	0	5	96
TAP	36	96	4
TAP	36	144	3
TAP	36	144	6
TAP	36	240	0
TAP	36	240	7
TAP	36	288	1
TAP	36	288	6
HLD	36	336	2	144
TAP	36	336	5
TAP	37	96	3
TAP	37	144	2
TAP	37	192	1
TAP	37	192	4
TAP	37	288	3
TAP	37	288	6
HLD	38	0	3	96
HLD	38	0	4	96
HLD	38	144	5	96
HLD	38	144	6	96
HLD	38	288	0	96
HLD	38	288	7	96
HLD	39	48	1	96
HLD	39	48	2	96
STR	39	192	0
SCR	39	192	0	96	48	3
STR	39	192	3
SCR	39	192	3	96	48	6
HLD	40	0	7	72
HLD	40	72	6	72
TAP	40	144	5
HLD	40	192	1	72
HLD	40	264	2	72
STR	40	336	3
SI_	40	336	3	96	48	7
TAP	41	192	0
TAP	41	216	7
TAP	41	240	0
TAP	41	264	7
STR	41	288	1
SI_	41	288	1	96	48	5
STR	41	288	6
SI_	41	288	6	96	48	2
STR	45	192	3
SCL	45	192	3	96	192	0
STR	46	0	7
SCL	46	0	7	96	192	4
HLD	50	0	3	672
TAP	50	0	4
TAP	50	96	2
TAP	50	288	2
STR	51	96	2
SI_	51	96	2	96	48	6
TAP	51	288	7
TAP	52	0	3
HLD	52	0	4	672
TAP	52	96	5
TAP	52	288	5
STR	53	96	5
SI_	53	96	5	96	48	1
TAP	53	288	0
HLD	54	0	0	672
TAP	54	0	7
TAP	54	96	2
TAP	54	288	2
STR	55	96	2
SI_	55	96	2	96	48	6
TAP	55	288	7
TAP	56	0	0
HLD	56	0	7	672
TAP	56	96	5
TAP	56	288	5
STR	57	96	5
SI_	57	96	5	96	48	1
TAP	57	288	0
TAP	58	0	2
TAP	58	0	5
STR	58	192	1
SCL	58	192	1	96	96	6
STR	58	288	6
SCL	58	288	6	96	96	3
STR	59	0	3
SCL	59	0	3	96	96	0
STR	59	96	0
SCL	59	96	0	96	96	5
STR	59	192	5
SCL	59	192	5	96	96	2
STR	59	288	2
SCL	59	288	2	96	96	7
TAP	60	0	7
TAP	60	192	3
TAP	60	216	4
TAP	60	240	3
TAP	60	264	4
TAP	60	288	2
TAP	60	288	5
TAP	61	0	1
TAP	61	0	6
STR	61	48	1
SI_	61	48	1	96	48	5
TAP	61	48	6
TAP	61	144	0
STR	61	240	7
SI_	61	240	7	96	48	3
TAP	61	336	0
HLD	62	48	2	96
TAP	62	144	0
TAP	62	192	1
TAP	62	240	2
TAP	62	288	3
TAP	62	336	4
TAP	63	0	5
STR	63	48	6
SI_	63	48	6	96	48	2
TAP	63	144	7
STR	63	240	0
SI_	63	240	0	96	48	4
TAP	63	336	7
HLD	64	48	6	96
TAP	64	144	5
TAP	64	192	4
TAP	64	240	3
TAP	64	288	1
TAP	64	288	2
TAP	65	0	0
TAP	65	0	7
STR	65	48	0
SI_	65	48	0	96	48	4
TAP	65	48	7
TAP	65	144	7
STR	65	240	5
SI_	65	240	5	96	48	7
TAP	65	336	4
HLD	66	48	3	96
TAP	66	144	4
TAP	66	168	5
TAP	66	192	6
HLD	66	240	6	48
TAP	66	288	5
TAP	66	336	4
TAP	67	0	3
TAP	67	48	2
TAP	67	96	1
TAP	67	144	0
TAP	67	192	7
TAP	67	240	6
TAP	67	288	5
HLD	67	336	4	96
TAP	68	48	3
TAP	68	144	0
TAP	68	144	7
TAP	68	168	1
TAP	68	168	6
TAP	68	192	2
TAP	68	192	5
TAP	68	240	2
TAP	68	240	5
BRK	68	288	0
BRK	68	288	7
TAP	69	0	1
TAP	69	0	6
TAP	69	48	1
STR	69	48	6
SI_	69	48	6	96	48	2
STR	69	144	1
SI_	69	144	1	96	48	7
STR	69	240	5
SI_	69	240	5	96	48	3
STR	69	336	2
SI_	69	336	2	96	48	6
HLD	70	48	4	96
TAP	70	144	7
TAP	70	192	6
TAP	70	240	5
TAP	70	288	4
TAP	70	336	3
TAP	71	0	2
STR	71	48	1
SI_	71	48	1	96	48	5
STR	71	144	6
SI_	71	144	6	96	48	0
STR	71	240	2
SI_	71	240	2	96	48	4
STR	71	336	5
SI_	71	336	5	96	48	1
HLD	72	48	0	96
TAP	72	144	2
TAP	72	192	3
TAP	72	240	4
TAP	72	288	5
TAP	72	288	6
TAP	73	0	0
STR	73	48	1
SI_	73	48	1	96	48	3
TAP	73	48	7
STR	73	144	7
SI_	73	144	7	96	48	5
STR	73	240	0
SI_	73	240	0	96	48	4
TAP	73	336	6
HLD	74	48	5	96
TAP	74	144	4
TAP	74	168	3
TAP	74	192	2
TAP	74	240	5
TAP	74	288	3
TAP	74	336	1
TAP	75	0	7
TAP	75	48	0
STR	75	48	6
SI_	75	48	6	96	48	4
STR	75	144	0
SI_	75	144	0	96	48	2
STR	75	240	7
SI_	75	240	7	96	48	3
TAP	75	336	1
HLD	76	48	2	96
TAP	76	144	3
TAP	76	168	4
TAP	76	192	5
TAP	76	240	5
TAP	76	288	4
TAP	76	288	6
TAP	77	0	1
TAP	77	0	3
STR	77	48	2
SI_	77	48	2	96	48	6
STR	77	144	5
SI_	77	144	5	96	48	3
STR	77	240	1
SI_	77	240	1	96	48	7
STR	77	336	6
SI_	77	336	6	96	48	2
HLD	78	48	0	96
TAP	78	144	3
TAP	78	192	2
TAP	78	240	1
TAP	78	288	0
TAP	78	336	7
TAP	79	0	4
TAP	79	0	6
STR	79	48	5
SI_	79	48	5	96	48	1
STR	79	144	2
SI_	79	144	2	96	48	4
STR	79	240	6
SI_	79	240	6	96	48	0
STR	79	336	1
SI_	79	336	1	96	48	5
HLD	80	48	7	96
TAP	80	144	3
TAP	80	168	2
TAP	80	192	1
HLD	80	240	1	48
TAP	80	288	2
TAP	80	336	3
TAP	81	0	4
STR	81	48	5
SI_	81	48	5	96	48	0
STR	81	144	3
SI_	81	144	3	96	48	7
STR	81	240	4
SI_	81	240	4	96	48	0
STR	81	336	2
SI_	81	336	2	96	48	7
HLD	82	48	4	96
TAP	82	144	3
TAP	82	168	2
TAP	82	192	1
TAP	82	240	4
TAP	82	264	5
TAP	82	288	6
TAP	82	336	1
TAP	82	336	6
TAP	83	0	0
TAP	83	0	7
STR	83	48	0
SI_	83	48	0	96	48	4
TAP	83	48	7
BST	83	144	0
SCL	83	144	0	96	48	5
BST	83	240	0
SCR	83	240	0	96	48	3
BST	83	336	0
SI_	83	336	0	96	48	4
BRK	84	48	0
TAP	84	144	1
TAP	84	144	5
TAP	84	192	2
TAP	84	192	6
TAP	84	240	3
TAP	84	240	7
BRK	84	288	0
BRK	84	288	4
HLD	85	0	6	144
HLD	85	144	5	144
HLD	85	288	4	144
HLD	86	48	3	144
TAP	86	192	2
TAP	86	240	2
TAP	86	288	1
TAP	86	288	3
TAP	87	0	0
TAP	87	48	0
TAP	87	144	6
TAP	87	192	6
TAP	87	288	2
TAP	87	336	2
TAP	88	48	4
TAP	88	96	4
TAP	88	192	3
TAP	88	240	4
TAP	88	288	3
TAP	88	336	4
HLD	89	0	1	144
HLD	89	144	2	144
HLD	89	288	3	144
HLD	90	48	4	144
TAP	90	192	5
TAP	90	240	5
TAP	90	288	4
TAP	90	288	6
TAP	91	0	7
TAP	91	48	7
TAP	91	144	1
TAP	91	192	1
TAP	91	288	5
TAP	91	336	5
TAP	92	48	3
TAP	92	96	3
STR	92	192	7
SI_	92	192	7	96	48	4
TAP	92	240	3
TAP	92	288	3
TAP	92	336	3

T_REC_TAP	314
T_REC_BRK	8
T_REC_XTP	0
T_REC_HLD	65
T_REC_XHO	0
T_REC_STR	78
T_REC_BST	3
T_REC_XST	0
T_REC_TTP	0
T_REC_THO	0
T_REC_SLD	81
T_REC_ALL	549
T_NUM_TAP	392
T_NUM_BRK	11
T_NUM_HLD	65
T_NUM_SLD	81
T_NUM_ALL	549
T_JUDGE_TAP	403
T_JUDGE_HLD	198
T_JUDGE_SLD	81
T_JUDGE_ALL	682
TTM_EACHPAIRS	65
TTM_SCR_TAP	196000
TTM_SCR_BRK	28600
TTM_SCR_HLD	65000
TTM_SCR_SLD	121500
TTM_SCR_ALL	411100
TTM_SCR_S	397700
TTM_SCR_SS	410000
TTM_RAT_ACV	10026

