VERSION	0.00.00	1.03.00
FES_MODE	0
BPM_DEF	188.000	188.000	188.000	188.000
MET_DEF	4	4
RESOLUTION	384
CLK_DEF	384
COMPATIBLE_CODE	MA2

BPM	0	0	188.000

STR	1	0	4
SCR	1	0	4	96	480	3
STR	3	0	3
SCL	3	0	3	96	480	4
HLD	5	0	5	576
TAP	5	192	4
HLD	6	0	3	192
HLD	7	0	2	576
TAP	7	192	3
HLD	8	0	4	192
TAP	8	288	1
TAP	8	288	5
TAP	9	0	5
TAP	9	96	4
TAP	9	96	5
TAP	9	288	2
TAP	9	288	5
TAP	10	96	4
TAP	10	96	5
TAP	10	192	4
TAP	10	192	5
TAP	11	0	2
TAP	11	96	2
TAP	11	96	3
TAP	11	288	2
TAP	11	288	5
TAP	12	96	2
TAP	12	96	3
TAP	12	192	2
TAP	12	192	3
HLD	13	0	5	576
TAP	13	96	4
TAP	13	288	2
TAP	14	96	4
TAP	14	192	4
HLD	15	0	2	672
TAP	15	96	3
TAP	15	288	5
TAP	16	96	3
TAP	16	192	3
STR	16	288	3
SSR	16	288	3	96	288	7
TAP	18	0	1
TAP	18	96	2
TAP	18	96	3
TAP	18	192	6
TAP	18	288	4
TAP	18	288	5
TAP	19	0	1
TAP	19	96	2
TAP	19	96	3
TAP	19	192	4
TAP	19	240	4
TAP	19	288	3
TAP	19	288	5
TAP	20	0	6
TAP	20	96	4
TAP	20	96	5
TAP	20	192	1
TAP	20	288	2
TAP	20	288	3
TAP	21	0	6
TAP	21	96	4
TAP	21	96	5
TAP	21	192	3
TAP	21	240	3
TAP	21	288	2
TAP	21	288	4
TAP	22	0	5
TAP	22	96	3
TAP	22	96	4
TAP	22	192	2
TAP	22	192	3
TAP	22	288	1
TAP	23	0	2
TAP	23	0	4
TAP	23	96	3
TAP	23	96	5
TAP	23	192	4
TAP	23	192	6
TAP	23	288	7
TAP	24	0	0
TAP	24	96	1
TAP	24	96	7
TAP	24	192	2
TAP	24	192	6
TAP	24	288	3
TAP	24	288	5
TAP	25	0	2
TAP	25	0	4
TAP	25	96	3
TAP	25	96	5
TAP	25	192	1
TAP	25	192	6
TAP	26	0	6
TAP	26	96	3
TAP	26	96	5
TAP	26	192	1
TAP	26	288	2
TAP	26	288	4
TAP	27	0	6
TAP	27	96	3
TAP	27	96	5
TAP	27	192	1
TAP	27	240	1
TAP	27	288	0
TAP	27	288	1
TAP	28	0	1
TAP	28	96	2
TAP	28	96	4
TAP	28	192	6
TAP	28	288	3
TAP	28	288	5
TAP	29	0	1
TAP	29	96	2
TAP	29	96	4
TAP	29	192	6
TAP	29	240	6
TAP	29	288	6
TAP	29	288	7
TAP	30	0	6
TAP	30	96	3
TAP	30	96	5
TAP	30	192	1
TAP	30	288	0
TAP	30	288	2
TAP	31	0	1
TAP	31	0	7
TAP	31	96	0
TAP	31	96	6
TAP	31	192	5
TAP	31	192	7
TAP	31	288	4
TAP	31	288	6
HLD	32	0	3	144
TAP	32	96	4
TAP	32	144	4
TAP	32	240	1
TAP	32	240	3
TAP	32	336	0
TAP	32	336	7
TAP	33	48	4
TAP	33	48	6
TAP	33	144	3
TAP	33	144	4
TAP	33	192	3
TAP	33	192	4
STR	33	288	2
SCL	33	288	2	96	144	7
STR	34	288	6
SCL	34	288	6	96	144	3
TAP	35	288	1
TAP	35	288	3
HLD	36	0	2	384
TAP	36	96	3
TAP	36	192	3
TAP	36	288	3
HLD	37	0	5	288
TAP	37	96	4
TAP	37	192	4
STR	37	288	4
SCL	37	288	4	96	288	0
TAP	39	0	6
TAP	39	0	7
TAP	39	96	0
TAP	39	96	5
TAP	39	192	1
TAP	39	192	4
HLD	40	0	4	96
HLD	40	0	5	96
HLD	40	192	1	96
HLD	40	192	2	96
HLD	41	0	6	96
HLD	41	0	7	96
TAP	41	192	0
TAP	41	192	5
HLD	42	0	2	192
HLD	42	192	3	192
HLD	43	0	4	384
TAP	43	192	5
HLD	44	0	5	192
HLD	44	192	4	192
HLD	45	0	3	384
TAP	45	192	2
HLD	46	0	1	192
HLD	46	192	2	192
HLD	47	0	3	384
TAP	47	192	4
HLD	48	0	6	192
HLD	48	192	5	192
HLD	49	0	4	192
HLD	49	192	3	192
TAP	50	0	4
TAP	50	96	3
TAP	50	96	5
TAP	50	288	2
TAP	50	288	4
STR	51	96	3
SI_	51	96	3	96	96	1
STR	51	96	5
SI_	51	96	5	96	96	7
TAP	52	0	0
TAP	52	96	1
TAP	52	96	7
TAP	52	288	0
TAP	52	288	6
STR	53	96	1
SI_	53	96	1	96	96	3
STR	53	96	7
SI_	53	96	7	96	96	5
TAP	54	0	4
TAP	54	96	1
TAP	54	96	3
TAP	54	288	4
TAP	54	288	6
STR	55	96	1
SI_	55	96	1	96	96	7
STR	55	96	3
SI_	55	96	3	96	96	5
TAP	56	0	6
TAP	56	96	5
TAP	56	96	7
TAP	56	288	0
TAP	56	288	2
TAP	57	96	1
TAP	57	96	5
TAP	57	192	2
TAP	57	192	4
STR	57	288	3
SCL	57	288	3	96	768	5
BST	60	192	7
SI_	60	192	7	96	48	3
TAP	61	0	1
TAP	61	96	2
TAP	61	96	3
TAP	61	192	6
TAP	61	288	4
TAP	61	288	5
TAP	62	0	1
TAP	62	0	3
TAP	62	96	4
TAP	62	96	6
TAP	62	192	7
TAP	62	240	7
TAP	62	288	0
TAP	62	288	6
TAP	63	0	6
TAP	63	96	4
TAP	63	96	5
TAP	63	192	1
TAP	63	288	2
TAP	63	288	3
TAP	64	0	4
TAP	64	0	6
TAP	64	96	1
TAP	64	96	3
TAP	64	192	0
TAP	64	240	0
TAP	64	288	1
TAP	64	288	7
TAP	65	0	3
TAP	65	96	0
TAP	65	96	1
TAP	65	192	4
TAP	65	288	6
TAP	65	288	7
TAP	66	0	0
TAP	66	0	5
TAP	66	96	2
TAP	66	96	7
TAP	66	192	1
TAP	66	192	4
TAP	66	288	3
TAP	66	288	6
TAP	67	0	4
TAP	67	96	1
TAP	67	96	7
TAP	67	192	3
TAP	67	288	0
TAP	67	288	6
TAP	68	0	5
TAP	68	48	5
TAP	68	96	1
TAP	68	144	1
TAP	68	192	3
BRK	68	288	0
TAP	69	0	2
TAP	69	0	3
TAP	69	96	1
TAP	69	96	3
TAP	69	192	4
TAP	69	192	5
TAP	69	288	4
TAP	69	288	6
TAP	70	0	1
TAP	70	48	1
TAP	70	96	0
TAP	70	96	2
TAP	70	192	6
TAP	70	240	6
TAP	70	288	5
TAP	70	288	7
TAP	71	0	4
TAP	71	0	6
TAP	71	96	4
TAP	71	96	5
TAP	71	192	1
TAP	71	192	3
TAP	71	288	2
TAP	71	288	3
TAP	72	0	6
TAP	72	0	7
TAP	72	48	6
TAP	72	48	7
TAP	72	96	6
TAP	72	96	7
TAP	72	192	0
TAP	72	192	5
TAP	73	0	0
TAP	73	0	1
TAP	73	96	0
TAP	73	96	2
TAP	73	192	6
TAP	73	192	7
TAP	73	288	5
TAP	73	288	7
TAP	74	0	2
TAP	74	48	2
TAP	74	96	1
TAP	74	96	3
TAP	74	192	5
TAP	74	240	5
TAP	74	288	4
TAP	74	288	6
TAP	75	0	6
TAP	75	0	7
TAP	75	96	4
TAP	75	96	5
TAP	75	192	2
TAP	75	192	3
TAP	75	288	0
TAP	75	288	1
TAP	76	0	6
TAP	76	0	7
TAP	76	48	6
TAP	76	48	7
TAP	76	96	0
TAP	76	96	5
HLD	76	192	1	96
HLD	76	192	6	96
TAP	77	0	7
TAP	77	96	3
TAP	77	96	5
TAP	77	192	2
TAP	77	240	2
TAP	77	288	1
TAP	77	288	3
TAP	78	0	0
TAP	78	48	0
TAP	78	96	5
TAP	78	144	5
TAP	78	192	3
TAP	78	240	3
TAP	78	288	6
TAP	78	336	6
TAP	79	0	6
TAP	79	0	7
TAP	79	96	1
TAP	79	96	3
TAP	79	192	5
TAP	79	240	4
TAP	79	288	3
TAP	79	288	6
TAP	80	0	7
TAP	80	48	7
TAP	80	96	2
TAP	80	144	2
TAP	80	192	4
TAP	80	240	4
TAP	80	288	1
TAP	80	336	1
TAP	81	0	0
TAP	81	0	1
TAP	81	96	2
TAP	81	96	4
TAP	81	192	6
TAP	81	240	7
TAP	81	288	0
TAP	81	288	5
TAP	82	0	1
TAP	82	48	1
TAP	82	96	3
TAP	82	144	3
TAP	82	192	7
TAP	82	240	7
TAP	82	288	5
TAP	82	336	5
TAP	83	0	4
TAP	83	0	6
TAP	83	48	4
HLD	83	48	6	96
TAP	83	144	7
TAP	83	240	1
TAP	83	240	3
TAP	83	336	4
TAP	83	336	6
TAP	84	48	1
TAP	84	48	2
TAP	84	144	6
TAP	84	144	7
TAP	84	192	6
TAP	84	192	7
TAP	84	240	6
TAP	84	240	7
STR	84	288	6
SUR	84	288	6	96	576	5
STR	84	288	7
SCR	84	288	7	96	576	4
TAP	87	0	3
TAP	87	0	6
TAP	87	96	4
TAP	87	96	5
TAP	87	288	2
TAP	87	288	3
TAP	88	96	4
TAP	88	96	5
TAP	88	192	3
TAP	88	240	3
TAP	88	288	3
TAP	88	336	3
HLD	89	0	3	768
TAP	89	96	4
TAP	89	288	5
TAP	90	96	4
TAP	90	288	5
HLD	91	0	5	480
TAP	91	96	4
TAP	91	288	2
TAP	92	96	4
TAP	92	192	3
TAP	92	240	3
TAP	92	288	4
TAP	92	336	4

T_REC_TAP	377
T_REC_BRK	1
T_REC_XTP	0
T_REC_HLD	33
T_REC_XHO	0
T_REC_STR	15
T_REC_BST	1
T_REC_XST	0
T_REC_TTP	0
T_REC_THO	0
T_REC_SLD	16
T_REC_ALL	443
T_NUM_TAP	392
T_NUM_BRK	2
T_NUM_HLD	33
T_NUM_SLD	16
T_NUM_ALL	443
T_JUDGE_TAP	394
T_JUDGE_HLD	183
T_JUDGE_SLD	16
T_JUDGE_ALL	593
TTM_EACHPAIRS	135
TTM_SCR_TAP	196000
TTM_SCR_BRK	5200
TTM_SCR_HLD	33000
TTM_SCR_SLD	24000
TTM_SCR_ALL	258200
TTM_SCR_S	250300
TTM_SCR_SS	258000
TTM_RAT_ACV	10007

