VERSION	0.00.00	1.03.00
FES_MODE	0
BPM_DEF	188.000	188.000	188.000	188.000
MET_DEF	4	4
RESOLUTION	384
CLK_DEF	384
COMPATIBLE_CODE	MA2

BPM	0	0	188.000

HLD	5	0	5	576
HLD	6	0	4	192
HLD	7	0	2	576
HLD	8	0	3	192
TAP	9	0	4
TAP	9	96	4
TAP	9	192	4
TAP	10	0	5
TAP	10	96	5
TAP	10	192	5
TAP	11	0	6
TAP	11	96	6
TAP	11	192	6
TAP	12	0	7
TAP	12	96	7
TAP	12	192	7
TAP	13	0	0
TAP	13	96	0
TAP	13	192	0
TAP	14	0	1
TAP	14	96	1
TAP	14	192	1
TAP	15	0	2
TAP	15	96	2
TAP	15	192	2
TAP	16	0	3
TAP	16	96	3
TAP	16	192	3
TAP	17	0	3
TAP	17	0	4
TAP	18	0	3
TAP	18	96	3
TAP	18	192	2
TAP	18	288	2
TAP	19	0	1
TAP	19	96	1
TAP	19	192	0
TAP	20	0	7
TAP	20	96	7
TAP	20	192	6
TAP	20	288	6
TAP	21	0	5
TAP	21	96	5
TAP	21	192	4
TAP	22	0	4
TAP	22	96	4
TAP	22	192	5
TAP	22	288	5
TAP	23	0	6
TAP	23	96	6
TAP	23	192	7
TAP	24	0	0
TAP	24	96	0
TAP	24	192	1
TAP	24	288	1
TAP	25	0	2
TAP	25	96	2
TAP	25	192	3
TAP	26	0	3
TAP	26	96	3
TAP	26	192	2
TAP	26	192	3
TAP	26	288	2
TAP	26	288	3
TAP	27	0	1
TAP	27	96	1
TAP	27	192	0
TAP	27	192	1
TAP	28	0	7
TAP	28	96	7
TAP	28	192	6
TAP	28	192	7
TAP	28	288	6
TAP	28	288	7
TAP	29	0	5
TAP	29	96	5
TAP	29	192	4
TAP	29	192	5
TAP	30	0	4
TAP	30	96	4
TAP	30	192	4
TAP	30	192	5
TAP	30	288	4
TAP	30	288	5
TAP	31	0	6
TAP	31	96	6
TAP	31	192	6
TAP	31	192	7
TAP	32	0	0
TAP	32	96	0
TAP	32	192	0
TAP	32	192	1
TAP	32	288	0
TAP	32	288	1
TAP	33	0	2
TAP	33	96	2
BRK	33	192	2
BRK	33	192	3
STR	34	0	4
SI_	34	0	4	96	288	7
TAP	36	0	6
TAP	36	96	6
TAP	36	192	7
TAP	36	288	7
TAP	37	0	0
TAP	37	96	0
TAP	37	192	1
TAP	37	288	1
HLD	38	0	2	576
HLD	39	0	3	192
TAP	40	0	1
TAP	40	96	1
TAP	40	192	0
TAP	40	288	0
TAP	41	0	7
TAP	41	96	7
TAP	41	192	6
TAP	41	288	6
HLD	42	0	5	576
HLD	44	0	4	576
HLD	46	0	3	576
HLD	48	0	2	576
STR	50	0	3
SI_	50	0	3	96	288	0
STR	52	0	1
SI_	52	0	1	96	288	6
STR	54	0	7
SI_	54	0	7	96	288	4
STR	56	0	5
SI_	56	0	5	96	288	2
HLD	58	0	3	384
HLD	58	0	4	768
TAP	61	0	4
TAP	61	96	4
TAP	61	192	5
TAP	61	288	5
TAP	62	0	6
TAP	62	96	6
TAP	62	192	7
TAP	62	288	7
TAP	63	0	0
TAP	63	96	0
TAP	63	192	1
TAP	63	288	1
TAP	64	0	2
TAP	64	96	2
TAP	64	192	3
TAP	64	192	4
TAP	65	0	3
TAP	65	96	3
TAP	65	192	2
TAP	65	288	2
TAP	66	0	1
TAP	66	96	1
TAP	66	192	0
TAP	66	288	0
TAP	67	0	7
TAP	67	96	7
TAP	67	192	6
TAP	67	288	6
TAP	68	0	5
TAP	68	96	5
TAP	68	192	3
TAP	68	192	4
TAP	69	0	4
TAP	69	96	4
TAP	69	192	4
TAP	69	192	5
TAP	69	288	4
TAP	69	288	5
TAP	70	0	6
TAP	70	96	6
TAP	70	192	6
TAP	70	192	7
TAP	70	288	6
TAP	70	288	7
TAP	71	0	0
TAP	71	96	0
TAP	71	192	0
TAP	71	192	1
TAP	71	288	0
TAP	71	288	1
TAP	72	0	2
TAP	72	96	2
TAP	72	192	2
TAP	72	192	3
TAP	73	0	3
TAP	73	96	3
TAP	73	192	2
TAP	73	192	3
TAP	73	288	2
TAP	73	288	3
TAP	74	0	1
TAP	74	96	1
TAP	74	192	0
TAP	74	192	1
TAP	74	288	0
TAP	74	288	1
TAP	75	0	7
TAP	75	96	7
TAP	75	192	6
TAP	75	192	7
TAP	75	288	6
TAP	75	288	7
TAP	76	0	5
TAP	76	96	5
TAP	76	192	4
TAP	76	192	5
TAP	77	0	4
TAP	77	96	5
TAP	77	192	4
TAP	77	192	5
TAP	77	288	4
TAP	77	288	5
TAP	78	0	6
TAP	78	96	7
TAP	78	192	6
TAP	78	192	7
TAP	78	288	6
TAP	78	288	7
TAP	79	0	0
TAP	79	96	1
TAP	79	192	0
TAP	79	192	1
TAP	79	288	0
TAP	79	288	1
TAP	80	0	2
TAP	80	96	3
TAP	80	192	3
TAP	80	192	4
TAP	81	0	3
TAP	81	96	2
TAP	81	192	2
TAP	81	192	3
TAP	81	288	2
TAP	81	288	3
TAP	82	0	1
TAP	82	96	0
TAP	82	192	0
TAP	82	192	1
TAP	82	288	0
TAP	82	288	1
TAP	83	0	7
TAP	83	96	6
TAP	83	192	6
TAP	83	192	7
TAP	83	288	6
TAP	83	288	7
TAP	84	0	5
TAP	84	96	4
BRK	84	192	3
BRK	84	192	4
HLD	85	0	2	768
HLD	86	0	3	768
HLD	89	0	5	768
HLD	90	0	4	768
TAP	92	192	3
TAP	92	192	4
TAP	92	288	3
TAP	92	288	4

T_REC_TAP	230
T_REC_BRK	4
T_REC_XTP	0
T_REC_HLD	16
T_REC_XHO	0
T_REC_STR	5
T_REC_BST	0
T_REC_XST	0
T_REC_TTP	0
T_REC_THO	0
T_REC_SLD	5
T_REC_ALL	260
T_NUM_TAP	235
T_NUM_BRK	4
T_NUM_HLD	16
T_NUM_SLD	5
T_NUM_ALL	260
T_JUDGE_TAP	239
T_JUDGE_HLD	184
T_JUDGE_SLD	5
T_JUDGE_ALL	428
TTM_EACHPAIRS	46
TTM_SCR_TAP	117500
TTM_SCR_BRK	10400
TTM_SCR_HLD	16000
TTM_SCR_SLD	7500
TTM_SCR_ALL	151400
TTM_SCR_S	146500
TTM_SCR_SS	151000
TTM_RAT_ACV	10026

