VERSION	0.00.00	1.03.00
FES_MODE	0
BPM_DEF	128.000	128.000	128.000	128.000
MET_DEF	4	4
RESOLUTION	384
CLK_DEF	384
COMPATIBLE_CODE	MA2

BPM	0	0	128.000

TAP	3	0	3
STR	3	0	6
SXR	3	0	6	96	192	3
STR	4	0	1
SXL	4	0	1	96	192	4
TAP	4	0	4
TAP	5	0	2
STR	5	0	6
SCL	5	0	6	96	48	3
STR	5	192	1
SCR	5	192	1	96	48	4
TAP	5	192	5
STR	6	0	4
SXL	6	0	4	96	120	4
SXR	6	0	4	96	120	4
TAP	6	288	3
TAP	6	288	5
STR	7	0	2
SXR	7	0	2	96	192	7
TAP	7	0	7
TAP	7	96	6
TAP	7	192	5
TAP	7	288	4
TAP	8	0	0
STR	8	0	5
SXL	8	0	5	96	192	0
TAP	8	96	1
TAP	8	192	2
TAP	8	288	3
STR	9	0	2
SCL	9	0	2	96	48	7
TAP	9	0	6
TAP	9	192	1
STR	9	192	5
SCR	9	192	5	96	48	0
STR	10	0	0
SI_	10	0	0	96	48	4
STR	10	0	7
SI_	10	0	7	96	48	3
STR	10	192	1
SCR	10	192	1	96	384	7
STR	10	192	6
SCL	10	192	6	96	384	0
BST	12	0	3
SI_	12	0	3	96	48	0
BRK	12	0	4
TAP	12	96	3
STR	12	96	4
SI_	12	96	4	96	48	6
STR	12	192	3
SI_	12	192	3	96	48	1
TAP	12	192	4
TAP	12	288	3
STR	12	288	4
SI_	12	288	4	96	48	7
STR	13	0	3
SCL	13	0	3	96	48	0
TAP	13	0	4
TAP	13	96	3
STR	13	96	4
SCR	13	96	4	96	48	7
TAP	13	192	3
TAP	13	192	4
BRK	13	240	0
BRK	13	288	0
TAP	14	0	3
STR	14	0	4
SI_	14	0	4	96	48	7
STR	14	96	3
SI_	14	96	3	96	48	1
TAP	14	96	4
TAP	14	192	3
STR	14	192	4
SI_	14	192	4	96	48	6
STR	14	288	3
SI_	14	288	3	96	48	0
TAP	14	288	4
TAP	15	0	3
STR	15	0	4
SCR	15	0	4	96	48	7
STR	15	96	3
SCL	15	96	3	96	48	0
TAP	15	96	4
TAP	15	192	3
TAP	15	192	4
BRK	15	240	7
BRK	15	288	0
BRK	15	288	7
TAP	16	0	2
STR	16	0	3
SCR	16	0	3	96	48	5
TAP	16	96	6
STR	16	192	4
SCL	16	192	4	96	48	2
TAP	16	192	5
TAP	16	288	1
TAP	17	0	2
STR	17	0	3
SCR	17	0	3	96	48	5
TAP	17	96	6
STR	17	192	4
SCL	17	192	4	96	48	2
TAP	17	192	5
TAP	17	288	1
STR	18	0	2
SCR	18	0	2	96	48	5
STR	18	0	3
SCR	18	0	3	96	48	5
STR	18	192	4
SCL	18	192	4	96	48	2
STR	18	192	5
SCL	18	192	5	96	48	2
HLD	19	0	1	96
HLD	19	96	3	96
TAP	19	192	4
TAP	19	288	3
TAP	19	288	6
STR	20	0	4
SCL	20	0	4	96	48	2
TAP	20	0	5
TAP	20	96	1
TAP	20	96	4
TAP	20	192	2
STR	20	192	3
SCR	20	192	3	96	48	5
TAP	20	288	3
TAP	20	288	6
STR	21	0	4
SCL	21	0	4	96	48	2
TAP	21	0	5
TAP	21	96	1
TAP	21	96	4
TAP	21	192	2
STR	21	192	3
SCR	21	192	3	96	48	5
TAP	21	288	3
TAP	21	288	6
STR	22	0	5
SCL	22	0	5	96	48	3
STR	22	0	6
SCL	22	0	6	96	48	3
STR	22	192	1
SCR	22	192	1	96	48	4
STR	22	192	2
SCR	22	192	2	96	48	4
TAP	23	0	4
TAP	23	0	5
TAP	23	96	2
TAP	23	96	3
STR	23	192	1
SI_	23	192	1	96	48	4
STR	23	192	6
SI_	23	192	6	96	48	3
STR	24	0	2
SCL	24	0	2	96	192	3
STR	24	0	3
SUL	24	0	3	96	192	2
STR	25	0	4
SUR	25	0	4	96	192	5
STR	25	0	5
SCR	25	0	5	96	192	4
STR	26	0	0
SCR	26	0	0	96	192	7
STR	26	0	7
SUR	26	0	7	96	192	0
HLD	27	0	2	96
STR	27	0	3
SI_	27	0	3	96	48	7
STR	27	192	4
SI_	27	192	4	96	48	0
HLD	27	192	5	96
STR	28	0	3
SI_	28	0	3	96	48	7
TAP	28	0	4
TAP	28	96	2
TAP	28	96	3
TAP	28	192	3
STR	28	192	4
SI_	28	192	4	96	48	0
TAP	28	288	4
TAP	28	288	5
STR	29	0	2
SI_	29	0	2	96	48	7
TAP	29	0	3
TAP	29	96	1
TAP	29	96	2
TAP	29	192	4
STR	29	192	5
SI_	29	192	5	96	48	0
TAP	29	288	5
TAP	29	288	6
STR	30	0	0
SCR	30	0	0	96	96	3
STR	30	96	3
SCR	30	96	3	96	96	6
STR	30	192	6
SCR	30	192	6	96	96	1
STR	30	288	1
SCR	30	288	1	96	192	1
TAP	31	288	3
TAP	31	288	7
BRK	32	0	1
BRK	32	96	3
BRK	32	192	5
BST	32	288	7
SI_	32	288	7	96	48	5
STR	33	0	4
SI_	33	0	4	96	48	0
TAP	33	0	7
TAP	33	96	2
TAP	33	96	4
STR	33	192	1
SI_	33	192	1	96	48	3
TAP	33	192	6
TAP	33	288	1
STR	33	288	7
SI_	33	288	7	96	48	5
STR	34	0	0
SI_	34	0	0	96	48	4
TAP	34	0	7
TAP	34	96	0
STR	34	96	5
SCR	34	96	5	96	96	3
TAP	34	192	0
TAP	34	192	5
TAP	35	0	6
STR	35	0	7
SCL	35	0	7	96	48	4
TAP	35	96	2
TAP	35	96	7
STR	35	192	0
SCR	35	192	0	96	48	3
TAP	35	192	1
TAP	35	288	0
TAP	35	288	5
STR	36	0	4
SXL	36	0	4	96	96	4
SXR	36	0	4	96	96	4
BRK	36	240	0
BST	36	288	0
SI_	36	288	0	96	48	2
TAP	37	0	0
STR	37	0	3
SI_	37	0	3	96	48	7
TAP	37	96	3
TAP	37	96	5
TAP	37	192	1
STR	37	192	6
SI_	37	192	6	96	48	4
STR	37	288	0
SI_	37	288	0	96	48	2
TAP	37	288	6
TAP	38	0	0
STR	38	0	7
SI_	38	0	7	96	48	3
STR	38	96	2
SCL	38	96	2	96	96	4
TAP	38	96	7
TAP	38	192	2
TAP	38	192	7
STR	39	0	0
SCR	39	0	0	96	48	3
TAP	39	0	1
TAP	39	96	0
TAP	39	96	5
TAP	39	192	6
STR	39	192	7
SCL	39	192	7	96	48	4
TAP	39	288	2
TAP	39	288	7
STR	40	0	1
SXR	40	0	1	96	96	2
STR	40	0	5
SXR	40	0	5	96	96	6
BRK	40	240	7
BRK	40	288	7
STR	41	0	1
SCR	41	0	1	96	48	3
STR	41	96	0
SUR	41	96	0	96	48	4
STR	41	192	7
SUL	41	192	7	96	48	3
STR	41	288	6
SCL	41	288	6	96	48	4
TAP	42	0	3
TAP	42	96	2
TAP	42	96	6
BRK	42	144	0
BRK	42	144	4
TAP	42	240	1
STR	42	288	0
SCL	42	288	0	96	192	1
TAP	42	336	7
HLD	43	0	6	192
TAP	43	288	0
TAP	43	312	7
TAP	43	336	0
TAP	43	360	7
HLD	44	0	1	192
HLD	44	0	6	192
BST	44	288	1
SCR	44	288	1	96	576	7
BST	44	288	6
SCL	44	288	6	96	576	0
HLD	47	0	2	192
HLD	47	192	3	192
HLD	48	0	4	192
HLD	48	192	5	192
STR	49	0	4
SXR	49	0	4	96	144	0
TAP	49	96	5
TAP	49	144	6
STR	49	192	7
SI_	49	192	7	96	48	3
TAP	49	288	2
TAP	49	288	7
STR	50	0	3
SXL	50	0	3	96	144	7
TAP	50	0	4
TAP	50	96	2
TAP	50	144	1
STR	50	192	0
SI_	50	192	0	96	48	4
TAP	50	288	0
TAP	50	288	5
STR	51	0	4
SI_	51	0	4	96	48	2
STR	51	0	6
SCL	51	0	6	96	48	2
STR	51	192	1
SCR	51	192	1	96	48	5
STR	51	192	3
SI_	51	192	3	96	48	5
STR	52	0	6
SCL	52	0	6	96	48	3
STR	52	96	1
SCR	52	96	1	96	48	4
STR	52	192	7
SI_	52	192	7	96	48	3
TAP	52	288	0
TAP	53	0	2
STR	53	0	3
SCR	53	0	3	96	48	7
SUR	53	0	3	96	48	7
STR	53	192	4
SCL	53	192	4	96	48	0
SUL	53	192	4	96	48	0
TAP	53	192	5
STR	54	0	3
SCR	54	0	3	96	48	6
TAP	54	0	4
TAP	54	96	2
STR	54	96	3
SCL	54	96	3	96	48	0
STR	54	192	3
SF_	54	192	3	96	48	7
TAP	54	192	4
TAP	54	288	3
BRK	55	0	0
BST	55	0	4
SI_	55	0	4	96	480	0
TAP	55	288	4
TAP	56	0	4
TAP	56	96	4
STR	56	192	4
SF_	56	192	4	96	48	0
BRK	56	288	4
STR	57	0	0
SCR	57	0	0	96	48	4
TAP	57	0	1
TAP	57	96	0
TAP	57	96	5
TAP	57	192	6
STR	57	192	7
SCL	57	192	7	96	48	3
TAP	57	288	2
TAP	57	288	7
STR	58	0	1
SLR	58	0	1	96	96	7
STR	58	0	5
SLL	58	0	5	96	96	7
BRK	58	240	0
BST	58	288	0
SI_	58	288	0	96	48	2
TAP	59	0	0
STR	59	0	3
SI_	59	0	3	96	48	7
TAP	59	96	3
STR	59	96	6
SI_	59	96	6	96	48	4
STR	59	192	3
SI_	59	192	3	96	48	7
TAP	59	192	6
STR	59	288	2
SI_	59	288	2	96	48	0
TAP	59	288	3
TAP	60	0	2
STR	60	0	3
SI_	60	0	3	96	48	7
TAP	60	96	3
STR	60	96	5
SCR	60	96	5	96	96	3
TAP	60	192	0
TAP	60	192	5
TAP	61	0	6
STR	61	0	7
SCL	61	0	7	96	48	3
TAP	61	96	2
TAP	61	96	7
STR	61	192	0
SCR	61	192	0	96	48	4
TAP	61	192	1
TAP	61	288	0
TAP	61	288	5
STR	62	0	2
SLR	62	0	2	96	96	0
STR	62	0	6
SLL	62	0	6	96	96	0
BRK	62	240	7
BRK	62	288	7
STR	63	0	7
SI_	63	0	7	96	48	3
STR	63	96	7
SF_	63	96	7	96	48	3
BRK	63	192	7
STR	63	288	2
SLR	63	288	2	96	144	7
STR	63	288	4
SLL	63	288	4	96	144	7
TAP	64	240	6
STR	64	288	7
SCR	64	288	7	96	192	6
TAP	64	336	0
HLD	65	0	1	192
STR	65	288	5
SXL	65	288	5	96	192	3
STR	65	312	2
SXR	65	312	2	96	168	4
TAP	65	336	4
TAP	65	360	3
BRK	66	288	1
BRK	66	288	6
STR	67	0	2
SI_	67	0	2	96	48	7
TAP	67	0	3
TAP	67	96	2
STR	67	96	3
SI_	67	96	3	96	48	5
STR	67	192	2
SI_	67	192	2	96	48	0
TAP	67	192	3
TAP	67	288	2
STR	67	288	3
SI_	67	288	3	96	48	6
STR	68	0	2
SCL	68	0	2	96	48	7
TAP	68	0	3
TAP	68	96	2
STR	68	96	3
SCR	68	96	3	96	48	6
TAP	68	192	2
TAP	68	192	3
BRK	68	240	0
BRK	68	288	0
BRK	68	288	7
TAP	69	0	4
STR	69	0	5
SI_	69	0	5	96	48	0
STR	69	96	4
SI_	69	96	4	96	48	2
TAP	69	96	5
TAP	69	192	4
STR	69	192	5
SI_	69	192	5	96	48	7
STR	69	288	4
SI_	69	288	4	96	48	1
TAP	69	288	5
TAP	70	0	4
STR	70	0	5
SCR	70	0	5	96	48	0
STR	70	96	4
SCL	70	96	4	96	48	1
TAP	70	96	5
TAP	70	192	4
TAP	70	192	5
BRK	70	240	7
BRK	70	288	0
BRK	70	288	7
STR	71	0	2
SI_	71	0	2	96	48	0
TAP	71	0	3
TAP	71	48	1
TAP	71	96	2
STR	71	96	3
SI_	71	96	3	96	48	7
TAP	71	144	4
STR	71	192	2
SI_	71	192	2	96	48	0
TAP	71	192	3
TAP	71	240	1
TAP	71	288	2
STR	71	288	3
SI_	71	288	3	96	48	6
TAP	71	336	4
STR	72	0	2
SI_	72	0	2	96	48	7
TAP	72	0	3
TAP	72	48	1
TAP	72	96	2
STR	72	96	3
SI_	72	96	3	96	48	5
TAP	72	144	4
TAP	72	192	2
TAP	72	192	3
BRK	72	240	0
BRK	72	288	0
BRK	72	288	7
TAP	73	0	4
STR	73	0	5
SI_	73	0	5	96	48	7
TAP	73	48	6
STR	73	96	4
SI_	73	96	4	96	48	0
TAP	73	96	5
TAP	73	144	3
TAP	73	192	4
STR	73	192	5
SI_	73	192	5	96	48	7
TAP	73	240	6
STR	73	288	4
SI_	73	288	4	96	48	1
TAP	73	288	5
TAP	73	336	3
TAP	74	0	4
STR	74	0	5
SI_	74	0	5	96	48	0
TAP	74	48	6
STR	74	96	4
SI_	74	96	4	96	48	2
TAP	74	96	5
TAP	74	144	3
TAP	74	192	4
TAP	74	192	5
BRK	74	240	7
BRK	74	288	3
BRK	74	288	7

T_REC_TAP	198
T_REC_BRK	34
T_REC_XTP	0
T_REC_HLD	12
T_REC_XHO	0
T_REC_STR	142
T_REC_BST	7
T_REC_XST	0
T_REC_TTP	0
T_REC_THO	0
T_REC_SLD	153
T_REC_ALL	546
T_NUM_TAP	340
T_NUM_BRK	41
T_NUM_HLD	12
T_NUM_SLD	153
T_NUM_ALL	546
T_JUDGE_TAP	381
T_JUDGE_HLD	40
T_JUDGE_SLD	153
T_JUDGE_ALL	574
TTM_EACHPAIRS	149
TTM_SCR_TAP	170000
TTM_SCR_BRK	106600
TTM_SCR_HLD	12000
TTM_SCR_SLD	229500
TTM_SCR_ALL	518100
TTM_SCR_S	498600
TTM_SCR_SS	514000
TTM_RAT_ACV	10079

