VERSION	0.00.00	1.03.00
FES_MODE	0
BPM_DEF	128.000	128.000	128.000	128.000
MET_DEF	4	4
RESOLUTION	384
CLK_DEF	384
COMPATIBLE_CODE	MA2

BPM	0	0	128.000

STR	3	0	1
SCR	3	0	1	96	192	5
TAP	3	0	6
TAP	4	0	1
STR	4	0	6
SCL	4	0	6	96	192	2
TAP	5	0	2
HLD	5	0	3	192
HLD	5	192	4	192
HLD	6	0	5	192
TAP	6	96	4
TAP	6	192	4
HLD	7	0	2	576
TAP	7	96	3
TAP	7	192	3
TAP	7	288	3
TAP	8	0	4
TAP	8	96	3
TAP	8	192	3
TAP	8	288	3
TAP	8	288	4
HLD	9	0	5	192
TAP	9	96	4
HLD	9	192	2	192
TAP	9	288	3
TAP	10	0	5
TAP	10	96	1
TAP	10	96	6
BST	10	192	0
SCR	10	192	0	96	288	7
BRK	10	192	7
STR	12	0	1
SI_	12	0	1	96	72	4
TAP	12	0	4
TAP	12	192	5
TAP	12	288	4
TAP	12	288	6
STR	13	0	1
SI_	13	0	1	96	72	4
TAP	13	0	4
TAP	13	192	5
TAP	13	288	0
TAP	13	288	6
HLD	14	0	6	96
TAP	14	96	4
HLD	14	192	1	96
TAP	14	288	3
TAP	15	0	4
TAP	15	0	6
TAP	15	96	1
TAP	15	96	3
TAP	15	192	1
TAP	15	192	7
BRK	15	240	0
BRK	15	288	0
TAP	16	0	1
TAP	16	0	3
TAP	16	96	2
TAP	16	192	3
TAP	16	192	4
TAP	16	288	5
TAP	17	0	4
TAP	17	0	6
TAP	17	96	3
TAP	17	192	1
TAP	17	192	4
TAP	18	0	4
TAP	18	0	6
TAP	18	96	5
TAP	18	192	3
TAP	18	192	4
TAP	18	288	2
TAP	19	0	1
TAP	19	0	3
TAP	19	96	4
TAP	19	192	3
TAP	19	192	6
TAP	20	0	5
TAP	20	96	4
TAP	20	96	6
TAP	20	192	4
TAP	20	192	5
TAP	20	288	3
TAP	20	288	6
TAP	21	0	2
TAP	21	96	1
TAP	21	96	3
TAP	21	192	2
TAP	21	192	3
STR	21	288	1
SCR	21	288	1	96	96	5
TAP	21	288	4
TAP	22	192	6
TAP	22	288	3
TAP	22	288	5
TAP	23	0	1
TAP	23	96	2
TAP	23	96	4
BRK	23	192	1
BRK	23	192	6
STR	24	0	1
SUL	24	0	1	96	120	3
TAP	24	0	3
TAP	24	288	3
TAP	24	288	4
TAP	25	0	4
STR	25	0	6
SUR	25	0	6	96	120	4
TAP	25	288	3
TAP	25	288	4
STR	26	0	1
SUL	26	0	1	96	120	2
TAP	26	0	2
TAP	26	288	3
TAP	26	288	4
TAP	27	0	5
TAP	27	0	6
TAP	27	96	4
BRK	27	192	1
BRK	27	192	6
TAP	28	0	0
STR	28	0	7
SCL	28	0	7	96	96	4
STR	28	192	0
SCR	28	192	0	96	96	3
STR	29	0	7
SUR	29	0	7	96	96	4
TAP	29	192	0
TAP	29	288	2
TAP	29	288	6
TAP	30	0	0
TAP	30	96	1
TAP	30	96	3
TAP	30	192	7
TAP	30	288	4
TAP	30	288	6
BST	31	0	0
SCR	31	0	0	96	192	7
BRK	31	0	7
BRK	32	0	6
BRK	32	96	4
BRK	32	192	2
BRK	32	288	1
BRK	32	288	6
TAP	33	0	0
STR	33	0	7
SI_	33	0	7	96	48	3
TAP	33	96	0
TAP	33	192	1
TAP	33	192	5
TAP	33	288	7
TAP	33	336	7
TAP	34	0	0
TAP	34	0	6
TAP	34	96	0
STR	34	96	1
SCR	34	96	1	96	144	6
TAP	35	0	7
TAP	35	48	7
TAP	35	96	7
TAP	35	192	0
TAP	35	240	0
TAP	35	288	1
TAP	35	288	7
TAP	36	0	2
TAP	36	0	3
TAP	36	96	4
TAP	36	96	5
BRK	36	192	2
BRK	36	192	7
TAP	36	240	6
TAP	36	288	6
STR	37	0	0
SI_	37	0	0	96	48	4
TAP	37	0	7
TAP	37	96	7
TAP	37	192	2
TAP	37	192	6
TAP	37	288	0
TAP	37	336	0
TAP	38	0	1
TAP	38	0	7
STR	38	96	6
SCL	38	96	6	96	144	1
TAP	38	96	7
TAP	39	0	0
TAP	39	48	0
TAP	39	96	0
TAP	39	192	7
TAP	39	240	7
TAP	39	288	0
TAP	39	288	6
TAP	40	0	0
TAP	40	0	2
TAP	40	96	5
TAP	40	96	7
BRK	40	192	1
BRK	40	192	6
TAP	41	0	2
TAP	41	0	3
TAP	41	96	0
TAP	41	96	1
TAP	41	192	6
TAP	41	192	7
TAP	41	288	4
TAP	41	288	5
TAP	42	0	2
TAP	42	0	3
TAP	42	96	0
TAP	42	96	5
STR	42	144	0
SUL	42	144	0	96	96	3
TAP	42	144	5
HLD	43	0	4	96
HLD	43	96	5	96
HLD	43	192	6	96
TAP	43	288	7
HLD	44	0	0	192
HLD	44	0	7	192
BRK	44	288	2
BRK	44	288	5
STR	45	0	3
SCL	45	0	3	96	480	4
TAP	45	0	4
HLD	47	0	2	192
HLD	47	192	0	192
HLD	48	0	7	192
HLD	48	192	5	192
HLD	49	0	2	576
TAP	49	96	4
TAP	49	192	3
TAP	49	288	1
TAP	50	0	0
TAP	50	96	7
TAP	50	192	6
TAP	50	288	4
TAP	50	288	5
HLD	51	0	5	576
TAP	51	96	3
TAP	51	192	4
TAP	51	288	6
TAP	52	0	7
TAP	52	96	0
TAP	52	192	1
TAP	52	288	2
TAP	52	288	3
HLD	53	0	4	96
HLD	53	0	6	96
HLD	53	192	1	96
HLD	53	192	3	96
TAP	54	0	5
TAP	54	0	7
TAP	54	96	0
TAP	54	96	2
TAP	54	192	0
TAP	54	240	7
TAP	54	288	0
TAP	54	288	7
HLD	55	0	1	480
HLD	55	0	6	480
BRK	56	192	3
BRK	56	192	4
BRK	56	288	0
BRK	56	288	7
TAP	57	0	7
TAP	57	48	6
TAP	57	96	0
TAP	57	96	5
TAP	57	192	0
TAP	57	240	1
TAP	57	288	2
TAP	57	288	7
TAP	58	0	0
TAP	58	0	3
TAP	58	96	4
TAP	58	96	7
BRK	58	192	1
BRK	58	192	6
TAP	58	240	0
TAP	58	288	0
STR	59	0	2
SI_	59	0	2	96	48	7
STR	59	0	6
SI_	59	0	6	96	48	3
BRK	59	192	1
BRK	59	192	5
TAP	59	288	0
TAP	59	336	0
TAP	60	0	1
TAP	60	0	7
STR	60	96	3
SUR	60	96	3	96	96	1
STR	60	96	4
SCR	60	96	4	96	96	0
TAP	61	0	2
TAP	61	48	3
TAP	61	96	1
TAP	61	96	4
TAP	61	192	5
TAP	61	240	4
TAP	61	288	3
TAP	61	288	6
TAP	62	0	0
TAP	62	0	2
TAP	62	96	5
TAP	62	96	7
BRK	62	192	1
BRK	62	192	6
HLD	63	0	1	96
HLD	63	96	3	96
HLD	63	192	4	96
TAP	63	288	6
TAP	63	336	6
TAP	64	0	5
TAP	64	0	7
TAP	64	96	1
TAP	64	96	7
TAP	64	144	1
STR	64	144	7
SUR	64	144	7	96	96	4
HLD	65	0	3	96
HLD	65	96	2	96
HLD	65	192	1	96
TAP	65	288	0
HLD	66	0	0	192
HLD	66	0	7	192
BRK	66	288	2
BRK	66	288	5
TAP	67	0	3
STR	67	0	6
SI_	67	0	6	96	72	3
TAP	67	96	2
TAP	67	192	2
TAP	67	288	1
TAP	67	288	3
TAP	68	0	3
STR	68	0	6
SI_	68	0	6	96	72	3
TAP	68	96	2
TAP	68	192	2
TAP	68	288	1
TAP	68	288	3
HLD	69	0	0	192
TAP	69	96	6
HLD	69	192	7	192
TAP	69	288	1
TAP	70	0	0
TAP	70	96	2
TAP	70	96	5
TAP	70	192	1
TAP	70	240	7
BRK	70	288	2
BRK	70	288	6
STR	71	0	1
SI_	71	0	1	96	72	4
TAP	71	0	4
TAP	71	96	5
TAP	71	192	5
TAP	71	288	6
TAP	71	288	7
TAP	72	0	3
STR	72	0	6
SI_	72	0	6	96	72	3
TAP	72	96	2
TAP	72	192	2
TAP	72	288	0
TAP	72	288	1
HLD	73	0	5	96
TAP	73	96	7
HLD	73	192	2	96
TAP	73	288	0
TAP	74	0	4
TAP	74	0	6
TAP	74	96	1
TAP	74	96	3
TAP	74	192	6
TAP	74	240	0
BRK	74	288	1
BRK	74	288	5

T_REC_TAP	251
T_REC_BRK	35
T_REC_XTP	0
T_REC_HLD	37
T_REC_XHO	0
T_REC_STR	26
T_REC_BST	2
T_REC_XST	0
T_REC_TTP	0
T_REC_THO	0
T_REC_SLD	28
T_REC_ALL	379
T_NUM_TAP	277
T_NUM_BRK	37
T_NUM_HLD	37
T_NUM_SLD	28
T_NUM_ALL	379
T_JUDGE_TAP	314
T_JUDGE_HLD	150
T_JUDGE_SLD	28
T_JUDGE_ALL	492
TTM_EACHPAIRS	112
TTM_SCR_TAP	138500
TTM_SCR_BRK	96200
TTM_SCR_HLD	37000
TTM_SCR_SLD	42000
TTM_SCR_ALL	313700
TTM_SCR_S	300700
TTM_SCR_SS	310000
TTM_RAT_ACV	10119

