VERSION	0.00.00	1.03.00
FES_MODE	0
BPM_DEF	128.000	128.000	128.000	128.000
MET_DEF	4	4
RESOLUTION	384
CLK_DEF	384
COMPATIBLE_CODE	MA2

BPM	0	0	128.000

HLD	3	0	2	576
TAP	3	192	3
TAP	4	0	3
TAP	4	192	3
HLD	5	0	5	576
TAP	5	192	4
TAP	6	0	4
TAP	6	192	4
TAP	7	0	2
TAP	7	96	2
TAP	7	192	2
TAP	7	192	3
TAP	8	0	5
TAP	8	96	5
TAP	8	192	4
TAP	8	192	5
TAP	9	0	6
TAP	9	96	6
TAP	9	192	7
TAP	9	288	7
TAP	10	0	0
TAP	10	96	0
STR	10	192	0
SXL	10	192	0	96	384	3
STR	10	192	7
SXR	10	192	7	96	384	4
TAP	12	0	2
TAP	12	96	3
TAP	12	192	2
TAP	12	192	3
TAP	13	0	5
TAP	13	96	4
TAP	13	192	4
TAP	13	192	5
TAP	14	0	2
TAP	14	96	3
TAP	14	192	4
TAP	14	288	5
TAP	15	0	3
TAP	15	0	4
TAP	15	96	3
TAP	15	96	4
TAP	15	192	2
TAP	15	192	5
HLD	16	0	6	192
TAP	16	192	7
TAP	17	0	6
TAP	17	96	6
TAP	17	192	6
TAP	17	192	7
HLD	18	0	1	192
TAP	18	192	0
TAP	19	0	1
TAP	19	96	1
TAP	19	192	0
TAP	19	192	1
HLD	20	0	2	192
TAP	20	192	3
TAP	21	0	2
TAP	21	96	2
TAP	21	192	2
TAP	21	192	3
HLD	22	0	5	192
TAP	22	192	4
TAP	23	0	5
TAP	23	96	5
TAP	23	192	4
TAP	23	192	5
STR	24	0	3
SI_	24	0	3	96	192	0
STR	25	0	7
SI_	25	0	7	96	192	4
STR	26	0	3
SCL	26	0	3	96	192	0
STR	27	0	7
SCL	27	0	7	96	192	4
TAP	28	0	3
TAP	28	96	3
TAP	28	192	2
TAP	28	288	2
TAP	29	0	4
TAP	29	96	4
TAP	29	192	5
TAP	29	288	5
TAP	30	0	6
TAP	30	96	7
TAP	30	192	0
TAP	30	288	1
STR	31	0	0
SI_	31	0	0	96	192	3
STR	31	0	7
SI_	31	0	7	96	192	4
BRK	32	0	2
BRK	32	96	1
BRK	32	192	0
TAP	33	0	6
TAP	33	96	7
TAP	33	192	6
TAP	33	192	7
TAP	33	288	0
TAP	33	288	5
TAP	34	0	1
TAP	34	96	0
TAP	34	192	2
TAP	34	192	7
TAP	35	0	6
TAP	35	96	6
TAP	35	96	7
TAP	35	192	1
TAP	35	288	0
TAP	35	288	1
TAP	36	0	0
TAP	36	0	7
TAP	36	96	0
TAP	36	96	7
BRK	36	192	1
BRK	36	192	6
TAP	37	0	2
TAP	37	96	3
TAP	37	192	2
TAP	37	192	3
TAP	37	288	1
TAP	37	288	4
TAP	38	0	5
TAP	38	96	4
TAP	38	192	3
TAP	38	192	6
TAP	39	0	2
TAP	39	96	2
TAP	39	96	3
TAP	39	192	5
TAP	39	288	4
TAP	39	288	5
TAP	40	0	3
TAP	40	0	4
TAP	40	96	3
TAP	40	96	4
BRK	40	192	2
BRK	40	192	5
STR	41	0	2
SI_	41	0	2	96	192	7
STR	41	0	3
SI_	41	0	3	96	192	6
STR	42	0	4
SI_	42	0	4	96	192	1
STR	42	0	5
SI_	42	0	5	96	192	0
TAP	43	0	2
TAP	43	0	3
TAP	43	96	2
TAP	43	96	3
TAP	43	192	4
TAP	43	192	5
TAP	43	288	4
TAP	43	288	5
STR	44	0	3
SI_	44	0	3	96	192	0
STR	44	0	4
SI_	44	0	4	96	192	7
HLD	45	0	1	192
HLD	45	192	0	192
HLD	46	0	7	192
TAP	46	192	6
HLD	47	0	5	192
HLD	47	192	4	192
HLD	48	0	3	192
TAP	48	192	2
HLD	49	0	2	192
TAP	49	192	3
HLD	50	0	5	192
TAP	50	192	4
HLD	51	0	6	192
TAP	51	192	7
HLD	52	0	1	192
TAP	52	192	0
TAP	53	0	2
TAP	53	0	3
TAP	53	192	4
TAP	53	192	5
TAP	54	0	3
TAP	54	0	4
TAP	54	96	2
TAP	54	96	5
BRK	54	192	1
BRK	54	192	6
HLD	55	0	0	192
HLD	55	192	7	192
HLD	56	0	0	192
TAP	56	192	7
TAP	56	288	1
TAP	56	288	6
TAP	57	0	1
TAP	57	96	0
TAP	57	96	1
TAP	57	192	6
TAP	57	288	6
TAP	57	288	7
TAP	58	0	0
TAP	58	0	7
TAP	58	96	0
TAP	58	96	7
BRK	58	192	1
BRK	58	192	6
TAP	59	0	5
TAP	59	96	4
TAP	59	192	4
TAP	59	192	5
TAP	59	288	3
TAP	59	288	6
TAP	60	0	2
TAP	60	96	3
TAP	60	192	1
TAP	60	192	4
TAP	61	0	5
TAP	61	96	4
TAP	61	96	5
TAP	61	192	2
TAP	61	288	2
TAP	61	288	3
TAP	62	0	3
TAP	62	0	4
TAP	62	96	3
TAP	62	96	4
BRK	62	192	2
BRK	62	192	5
STR	63	0	0
SI_	63	0	0	96	192	5
STR	63	0	1
SI_	63	0	1	96	192	4
STR	64	0	6
SI_	64	0	6	96	192	3
STR	64	0	7
SI_	64	0	7	96	192	2
TAP	65	0	0
TAP	65	0	1
TAP	65	96	0
TAP	65	96	1
TAP	65	192	6
TAP	65	192	7
TAP	65	288	6
TAP	65	288	7
STR	66	0	0
SCR	66	0	0	96	192	3
STR	66	0	7
SCL	66	0	7	96	192	4
TAP	67	0	5
TAP	67	96	4
TAP	67	192	4
TAP	67	192	5
TAP	68	0	2
TAP	68	96	3
TAP	68	192	2
TAP	68	192	3
TAP	69	0	5
TAP	69	96	4
TAP	69	192	3
TAP	69	288	2
TAP	70	0	3
TAP	70	0	4
TAP	70	96	3
TAP	70	96	4
TAP	70	192	2
TAP	70	192	5
TAP	71	0	1
TAP	71	96	0
TAP	71	192	0
TAP	71	192	1
TAP	72	0	6
TAP	72	96	7
TAP	72	192	6
TAP	72	192	7
TAP	73	0	1
TAP	73	96	0
TAP	73	192	7
TAP	73	288	6
TAP	74	0	0
TAP	74	0	7
TAP	74	96	1
TAP	74	96	6
TAP	74	192	2
TAP	74	192	5
BRK	74	288	3
BRK	74	288	4

T_REC_TAP	209
T_REC_BRK	15
T_REC_XTP	0
T_REC_HLD	19
T_REC_XHO	0
T_REC_STR	20
T_REC_BST	0
T_REC_XST	0
T_REC_TTP	0
T_REC_THO	0
T_REC_SLD	20
T_REC_ALL	283
T_NUM_TAP	229
T_NUM_BRK	15
T_NUM_HLD	19
T_NUM_SLD	20
T_NUM_ALL	283
T_JUDGE_TAP	244
T_JUDGE_HLD	92
T_JUDGE_SLD	20
T_JUDGE_ALL	356
TTM_EACHPAIRS	73
TTM_SCR_TAP	114500
TTM_SCR_BRK	39000
TTM_SCR_HLD	19000
TTM_SCR_SLD	30000
TTM_SCR_ALL	202500
TTM_SCR_S	195000
TTM_SCR_SS	201000
TTM_RAT_ACV	10074

