VERSION	0.00.00	1.03.00
FES_MODE	0
BPM_DEF	128.000	128.000	128.000	128.000
MET_DEF	4	4
RESOLUTION	384
CLK_DEF	384
COMPATIBLE_CODE	MA2

BPM	0	0	128.000

TAP	3	0	3
TAP	3	192	3
TAP	4	0	4
TAP	4	192	4
TAP	5	0	3
TAP	5	192	3
TAP	6	0	4
TAP	6	96	3
TAP	6	192	3
TAP	6	192	4
TAP	7	0	5
TAP	7	192	5
TAP	8	0	6
TAP	8	192	6
TAP	9	0	7
TAP	9	192	7
TAP	10	0	0
TAP	10	96	7
TAP	10	192	0
TAP	10	192	7
TAP	12	0	1
TAP	12	96	1
TAP	12	192	1
TAP	13	0	2
TAP	13	96	2
TAP	13	192	2
TAP	14	0	3
TAP	14	96	3
TAP	14	192	3
HLD	15	0	4	192
TAP	16	0	3
TAP	16	192	3
TAP	17	0	2
TAP	17	96	2
TAP	17	192	2
TAP	18	0	1
TAP	18	192	1
TAP	19	0	0
TAP	19	96	0
TAP	19	192	0
TAP	20	0	7
TAP	20	192	7
TAP	21	0	6
TAP	21	96	6
TAP	21	192	6
TAP	22	0	5
TAP	22	192	5
TAP	23	0	4
TAP	23	96	3
TAP	23	192	3
TAP	23	192	4
STR	24	0	2
SI_	24	0	2	96	288	5
STR	26	0	6
SI_	26	0	6	96	288	1
TAP	28	0	0
TAP	28	96	0
TAP	28	192	0
TAP	29	0	7
TAP	29	96	7
TAP	29	192	7
HLD	30	0	0	192
HLD	30	0	7	192
BRK	31	0	1
BRK	31	0	6
TAP	32	0	0
TAP	32	96	0
TAP	32	192	7
TAP	32	288	0
TAP	33	0	1
TAP	33	96	1
TAP	33	192	0
TAP	33	192	1
TAP	34	0	6
TAP	34	96	6
TAP	34	192	6
TAP	34	192	7
TAP	35	0	5
TAP	35	96	5
TAP	35	192	4
TAP	35	288	4
TAP	36	0	3
TAP	36	96	3
TAP	36	192	3
TAP	36	192	4
TAP	37	0	5
TAP	37	96	5
TAP	37	192	4
TAP	37	192	5
TAP	38	0	2
TAP	38	96	2
TAP	38	192	2
TAP	38	192	3
TAP	39	0	1
TAP	39	96	1
TAP	39	192	0
TAP	39	288	0
TAP	40	0	7
TAP	40	96	7
BRK	40	192	0
BRK	40	192	7
HLD	41	0	0	192
HLD	41	0	1	192
HLD	42	0	6	192
HLD	42	0	7	192
STR	43	0	0
SI_	43	0	0	96	288	3
STR	43	0	7
SI_	43	0	7	96	288	4
TAP	44	192	3
TAP	44	192	4
STR	45	0	3
SI_	45	0	3	96	288	0
STR	47	0	7
SI_	47	0	7	96	288	4
HLD	49	0	3	192
HLD	50	0	2	192
HLD	51	0	1	192
TAP	52	0	0
TAP	52	96	0
TAP	52	192	0
TAP	52	192	1
TAP	53	0	7
TAP	53	96	7
TAP	53	192	6
TAP	53	192	7
TAP	54	0	0
TAP	54	0	7
TAP	54	96	0
TAP	54	96	7
TAP	54	192	0
TAP	54	192	7
STR	55	0	0
SI_	55	0	0	96	288	4
TAP	56	192	3
TAP	56	192	4
TAP	57	0	5
TAP	57	96	5
TAP	57	192	4
TAP	57	288	4
TAP	58	0	3
TAP	58	96	3
TAP	58	192	3
TAP	58	192	4
TAP	59	0	5
TAP	59	96	5
TAP	59	192	4
TAP	59	192	5
TAP	60	0	2
TAP	60	96	2
TAP	60	192	2
TAP	60	192	3
TAP	61	0	1
TAP	61	96	1
TAP	61	192	0
TAP	61	288	0
TAP	62	0	7
TAP	62	96	7
BRK	62	192	0
BRK	62	192	7
HLD	63	0	0	192
HLD	63	0	1	192
HLD	64	0	6	192
HLD	64	0	7	192
STR	65	0	0
SI_	65	0	0	96	288	3
STR	65	0	7
SI_	65	0	7	96	288	4
TAP	66	192	3
TAP	66	192	4
TAP	67	0	4
TAP	67	96	4
TAP	67	192	4
TAP	68	0	5
TAP	68	96	5
TAP	68	192	5
TAP	69	0	6
TAP	69	96	6
TAP	69	192	6
HLD	70	0	7	192
TAP	71	0	0
TAP	71	96	0
TAP	71	192	0
TAP	72	0	1
TAP	72	96	1
TAP	72	192	1
TAP	73	0	2
TAP	73	96	2
TAP	73	192	2
HLD	74	0	3	192
HLD	74	0	4	192
TAP	74	288	3
TAP	74	288	4

T_REC_TAP	152
T_REC_BRK	6
T_REC_XTP	0
T_REC_HLD	17
T_REC_XHO	0
T_REC_STR	9
T_REC_BST	0
T_REC_XST	0
T_REC_TTP	0
T_REC_THO	0
T_REC_SLD	9
T_REC_ALL	193
T_NUM_TAP	161
T_NUM_BRK	6
T_NUM_HLD	17
T_NUM_SLD	9
T_NUM_ALL	193
T_JUDGE_TAP	167
T_JUDGE_HLD	68
T_JUDGE_SLD	9
T_JUDGE_ALL	244
TTM_EACHPAIRS	31
TTM_SCR_TAP	80500
TTM_SCR_BRK	15600
TTM_SCR_HLD	17000
TTM_SCR_SLD	13500
TTM_SCR_ALL	126600
TTM_SCR_S	122250
TTM_SCR_SS	126000
TTM_RAT_ACV	10047

