VERSION	0.00.00	1.03.00
FES_MODE	0
BPM_DEF	145.000	145.000	145.000	145.000
MET_DEF	4	4
RESOLUTION	384
CLK_DEF	384
COMPATIBLE_CODE	MA2

BPM	0	0	145.000
MET	0	0	4	4

HLD	1	0	2	96
HLD	1	0	6	96
TAP	1	144	2
TAP	1	144	6
TAP	2	48	0
TAP	2	48	7
TAP	2	192	1
TAP	2	192	4
TAP	2	288	3
TAP	2	288	6
HLD	3	0	1	96
HLD	3	0	5	96
STR	3	144	1
SXL	3	144	1	96	336	0
STR	3	144	5
SXL	3	144	5	96	336	4
HLD	5	0	1	96
HLD	5	0	5	96
TAP	5	144	1
TAP	5	144	5
TAP	6	48	0
TAP	6	48	7
TAP	6	192	3
TAP	6	192	6
TAP	6	288	1
TAP	6	288	4
HLD	7	0	2	96
HLD	7	0	6	96
STR	7	144	2
SXR	7	144	2	96	336	3
STR	7	144	6
SXR	7	144	6	96	336	7
TAP	9	0	4
HLD	9	0	5	192
TAP	9	48	3
TAP	9	96	2
TAP	9	144	1
TAP	9	192	0
TAP	9	240	1
TAP	9	240	7
STR	9	288	2
SCL	9	288	2	96	192	5
TAP	9	288	6
TAP	10	288	3
TAP	10	288	4
HLD	11	0	6	192
TAP	11	0	7
TAP	11	48	0
TAP	11	96	1
TAP	11	144	2
TAP	11	192	3
TAP	11	240	2
TAP	11	240	4
TAP	11	288	1
STR	11	288	5
SCL	11	288	5	96	96	2
TAP	12	192	0
TAP	12	192	2
TAP	12	288	5
TAP	12	288	7
HLD	13	0	2	192
TAP	13	0	3
TAP	13	48	4
TAP	13	96	5
TAP	13	144	6
TAP	13	192	7
TAP	13	240	0
TAP	13	240	6
TAP	13	288	1
STR	13	288	5
SCR	13	288	5	96	192	2
TAP	14	336	1
TAP	14	336	6
TAP	15	0	0
TAP	15	0	7
TAP	15	48	1
TAP	15	72	0
TAP	15	96	1
TAP	15	144	6
TAP	15	168	7
TAP	15	192	6
TAP	15	240	1
TAP	15	264	0
TAP	15	288	2
TAP	15	336	6
TAP	15	360	7
TAP	16	0	5
TAP	16	48	2
TAP	16	72	3
TAP	16	96	2
TAP	16	144	5
TAP	16	168	4
TAP	16	192	5
TAP	16	216	3
TAP	16	240	6
TAP	16	264	2
STR	16	288	7
SF_	16	288	7	96	48	3
TAP	16	336	0
BRK	17	0	7
TAP	17	96	6
TAP	17	144	5
TAP	17	144	7
TAP	17	192	6
TAP	17	288	0
TAP	17	288	4
TAP	18	0	2
TAP	18	48	1
TAP	18	48	3
STR	18	96	2
SI_	18	96	2	96	36	6
TAP	18	192	2
STR	18	192	7
SI_	18	192	7	96	36	4
STR	18	288	1
SI_	18	288	1	96	36	5
TAP	18	288	7
TAP	19	0	0
TAP	19	0	1
TAP	19	96	2
TAP	19	144	1
TAP	19	144	3
TAP	19	192	2
TAP	19	288	0
TAP	19	288	4
TAP	20	0	6
TAP	20	48	5
TAP	20	48	7
STR	20	96	6
SI_	20	96	6	96	36	2
STR	20	192	3
SI_	20	192	3	96	36	0
TAP	20	192	6
TAP	20	288	3
STR	20	288	5
SI_	20	288	5	96	36	1
TAP	21	0	4
TAP	21	0	5
TAP	21	96	4
TAP	21	144	3
TAP	21	144	5
TAP	21	192	4
TAP	21	288	0
TAP	21	288	7
TAP	22	0	3
TAP	22	48	2
TAP	22	48	4
STR	22	96	3
SI_	22	96	3	96	36	7
TAP	22	192	3
STR	22	192	6
SI_	22	192	6	96	36	2
STR	22	288	4
SI_	22	288	4	96	36	0
TAP	22	288	6
TAP	23	0	4
TAP	23	0	7
TAP	23	96	1
TAP	23	144	0
TAP	23	144	2
TAP	23	192	1
TAP	23	288	3
TAP	23	288	4
TAP	24	0	6
TAP	24	48	5
TAP	24	48	7
STR	24	96	6
SI_	24	96	6	96	36	2
STR	24	192	0
SI_	24	192	0	96	36	4
TAP	24	192	6
BRK	24	288	0
BRK	24	288	7
TAP	25	0	6
HLD	25	0	7	96
TAP	25	48	5
TAP	25	96	4
TAP	25	144	2
HLD	25	144	3	96
TAP	25	192	1
TAP	25	240	0
TAP	25	288	6
HLD	25	288	7	96
TAP	25	336	5
TAP	26	0	4
TAP	26	48	2
HLD	26	48	3	96
TAP	26	96	1
TAP	26	144	0
TAP	26	192	6
STR	26	192	7
SI_	26	192	7	96	36	3
TAP	26	288	0
TAP	26	288	7
HLD	27	0	0	96
TAP	27	0	1
TAP	27	48	2
TAP	27	96	3
HLD	27	144	4	96
TAP	27	144	5
TAP	27	192	6
TAP	27	240	7
HLD	27	288	0	96
TAP	27	288	1
TAP	27	336	2
TAP	28	0	3
HLD	28	48	4	96
TAP	28	48	5
TAP	28	96	6
TAP	28	144	7
STR	28	192	0
SI_	28	192	0	96	36	4
TAP	28	192	1
TAP	28	288	0
TAP	28	288	7
HLD	29	0	6	96
TAP	29	0	7
TAP	29	48	0
TAP	29	96	1
TAP	29	144	2
HLD	29	144	3	96
TAP	29	192	1
TAP	29	240	0
TAP	29	288	6
HLD	29	288	7	96
TAP	29	336	5
TAP	30	0	4
HLD	30	48	2	96
TAP	30	48	3
TAP	30	96	4
TAP	30	144	5
TAP	30	192	6
STR	30	192	7
SI_	30	192	7	96	36	3
TAP	30	288	0
TAP	30	288	7
TAP	31	0	0
TAP	31	0	1
TAP	31	96	5
TAP	31	96	7
TAP	31	144	5
TAP	31	144	7
TAP	31	240	0
TAP	31	240	2
TAP	31	288	0
TAP	31	288	2
TAP	32	0	7
TAP	32	24	6
TAP	32	48	5
TAP	32	72	4
TAP	32	96	7
TAP	32	120	0
TAP	32	144	1
TAP	32	168	2
STR	32	192	7
SI_	32	192	7	96	36	3
TAP	32	216	6
TAP	32	240	5
TAP	32	264	4
BRK	32	288	7
TAP	33	0	1
TAP	33	0	4
TAP	33	48	1
TAP	33	48	4
TAP	33	96	1
TAP	33	96	4
TAP	33	144	2
TAP	33	168	2
TAP	33	216	2
TAP	33	264	2
HLD	33	288	2	48
TAP	33	336	3
TAP	33	360	3
TAP	34	24	2
TAP	34	72	1
TAP	34	96	1
TAP	34	144	1
TAP	34	168	1
TAP	34	216	3
TAP	34	216	4
TAP	34	264	2
TAP	34	264	5
TAP	34	288	2
TAP	34	288	5
TAP	34	336	0
TAP	34	336	1
TAP	35	0	3
TAP	35	0	6
TAP	35	48	3
TAP	35	48	6
TAP	35	96	3
TAP	35	96	6
TAP	35	144	5
TAP	35	168	5
TAP	35	216	5
TAP	35	264	5
HLD	35	288	5	48
TAP	35	336	3
TAP	35	360	4
TAP	36	0	3
TAP	36	48	2
TAP	36	48	4
TAP	36	96	1
TAP	36	96	5
TAP	36	144	0
TAP	36	144	6
STR	36	192	7
SF_	36	192	7	96	48	3
BRK	36	288	7
TAP	37	0	0
TAP	37	0	5
TAP	37	48	0
TAP	37	48	5
TAP	37	96	0
TAP	37	96	5
TAP	37	144	6
TAP	37	168	6
TAP	37	216	6
TAP	37	264	6
HLD	37	288	6	48
TAP	37	336	7
TAP	37	360	7
TAP	38	0	5
TAP	38	48	5
TAP	38	96	5
TAP	38	144	5
TAP	38	168	5
TAP	38	192	3
TAP	38	216	4
TAP	38	264	1
TAP	38	264	6
TAP	38	288	1
TAP	38	288	6
TAP	38	336	4
TAP	38	336	5
TAP	39	0	3
TAP	39	48	3
TAP	39	96	3
TAP	39	144	4
TAP	39	168	4
TAP	39	216	4
TAP	39	264	4
TAP	39	288	4
TAP	39	336	2
TAP	39	336	5
TAP	40	0	2
TAP	40	0	5
TAP	40	48	1
TAP	40	48	6
TAP	40	96	1
TAP	40	96	6
TAP	40	144	1
TAP	40	144	6
TAP	40	192	0
TAP	40	192	7
TAP	40	216	0
TAP	40	216	7
TAP	40	264	0
TAP	40	264	7
BST	40	288	0
SI_	40	288	0	96	36	3
BST	40	288	7
SI_	40	288	7	96	36	4
TAP	41	96	2
TAP	41	144	3
TAP	41	192	4
TAP	41	192	5
TAP	41	240	5
TAP	41	240	6
STR	41	288	6
SCR	41	288	6	96	96	1
TAP	41	288	7
TAP	42	0	3
STR	42	96	2
SCR	42	96	2	96	96	5
TAP	42	192	7
TAP	42	288	6
TAP	43	0	0
TAP	43	0	7
TAP	43	48	6
TAP	43	96	5
TAP	43	144	4
TAP	43	192	2
TAP	43	192	3
TAP	43	240	1
TAP	43	240	2
TAP	43	288	0
STR	43	288	1
SCL	43	288	1	96	96	6
TAP	44	0	4
TAP	44	96	5
TAP	44	192	3
TAP	44	192	7
TAP	44	288	1
TAP	44	288	5
TAP	45	0	0
TAP	45	0	7
TAP	45	48	1
TAP	45	96	2
TAP	45	144	3
TAP	45	192	4
TAP	45	192	5
TAP	45	240	5
TAP	45	240	6
HLD	45	288	6	96
HLD	45	288	7	96
TAP	46	48	2
TAP	46	48	3
HLD	46	96	1	48
HLD	46	96	4	48
TAP	46	192	4
TAP	46	192	5
HLD	46	240	3	48
HLD	46	240	6	48
TAP	46	336	0
TAP	46	336	1
HLD	47	0	2	48
HLD	47	0	7	48
TAP	47	96	6
TAP	47	96	7
HLD	47	144	0	48
HLD	47	144	5	48
TAP	47	240	3
TAP	47	240	4
TAP	47	288	2
TAP	47	288	5
TAP	48	0	0
TAP	48	24	1
TAP	48	48	2
TAP	48	72	3
TAP	48	96	0
TAP	48	120	7
TAP	48	144	6
TAP	48	168	5
STR	48	192	0
SI_	48	192	0	96	36	4
TAP	48	216	1
TAP	48	240	2
TAP	48	264	3
BRK	48	288	0
BRK	49	0	1
TAP	49	0	3
TAP	49	24	2
TAP	49	48	3
TAP	49	72	2
TAP	49	144	4
BRK	49	144	6
TAP	49	168	5
TAP	49	192	4
TAP	49	216	5
TAP	50	288	1
TAP	50	288	6
TAP	51	0	0
BRK	51	0	2
TAP	51	24	1
TAP	51	48	0
TAP	51	72	1
BRK	51	144	5
TAP	51	144	7
TAP	51	168	6
TAP	51	192	7
TAP	51	216	6
HLD	53	0	1	96
HLD	53	0	5	96
HLD	53	144	2	96
HLD	53	144	6	96
HLD	53	288	0	96
HLD	53	288	4	96
HLD	54	48	3	96
HLD	54	48	7	96
STR	54	192	1
SI_	54	192	1	96	36	4
STR	54	192	5
SI_	54	192	5	96	36	0
BRK	54	288	1
BRK	54	288	5
TAP	55	0	2
HLD	55	0	6	48
TAP	55	48	4
HLD	55	72	5	48
TAP	55	120	3
HLD	55	144	4	48
TAP	55	192	2
TAP	55	240	6
TAP	55	240	7
TAP	55	288	2
TAP	55	288	3
TAP	55	336	6
TAP	55	336	7
HLD	56	0	1	48
TAP	56	0	5
TAP	56	48	3
HLD	56	72	2	48
TAP	56	120	4
HLD	56	144	3	48
TAP	56	192	5
TAP	56	240	0
TAP	56	240	1
TAP	56	288	4
TAP	56	288	5
TAP	56	336	0
TAP	56	336	1
HLD	57	0	2	96
HLD	57	0	6	96
HLD	57	144	0	96
HLD	57	144	3	96
HLD	57	288	1	96
HLD	57	288	5	96
HLD	58	48	4	96
HLD	58	48	7	96
STR	58	192	2
SI_	58	192	2	96	36	7
STR	58	192	6
SI_	58	192	6	96	36	3
BRK	58	288	2
BRK	58	288	6
TAP	59	0	1
HLD	59	0	5	48
TAP	59	48	7
HLD	59	72	6	48
TAP	59	120	0
HLD	59	144	7	48
TAP	59	192	1
TAP	59	240	4
TAP	59	240	5
TAP	59	288	0
TAP	59	288	1
TAP	59	336	4
TAP	59	336	5
HLD	60	0	2	48
TAP	60	0	6
TAP	60	48	0
HLD	60	72	1	48
TAP	60	120	7
HLD	60	144	0	48
TAP	60	192	6
BRK	60	240	1
BRK	60	240	5
BRK	60	288	3
BRK	60	288	7
TAP	61	0	1
TAP	61	0	4
TAP	61	48	3
TAP	61	48	6
TAP	61	96	1
TAP	61	96	4
TAP	61	144	5
TAP	61	168	5
TAP	61	216	5
TAP	61	264	5
HLD	61	288	5	48
TAP	61	336	4
TAP	61	360	4
TAP	62	24	5
TAP	62	72	6
TAP	62	96	6
TAP	62	144	6
TAP	62	168	6
TAP	62	216	3
TAP	62	216	4
TAP	62	264	2
TAP	62	264	5
TAP	62	288	2
TAP	62	288	5
TAP	62	336	0
TAP	62	336	1
TAP	63	0	3
TAP	63	0	6
TAP	63	48	1
TAP	63	48	4
TAP	63	96	3
TAP	63	96	6
TAP	63	144	2
TAP	63	168	2
TAP	63	216	2
TAP	63	264	2
HLD	63	288	2	48
TAP	63	336	4
TAP	63	360	3
TAP	64	0	4
TAP	64	48	3
TAP	64	48	5
TAP	64	96	2
TAP	64	96	6
TAP	64	144	1
TAP	64	144	7
STR	64	192	0
SF_	64	192	0	96	48	4
BRK	64	288	0
TAP	65	0	2
TAP	65	0	7
TAP	65	48	0
TAP	65	48	5
TAP	65	96	2
TAP	65	96	7
TAP	65	144	6
TAP	65	168	6
TAP	65	216	6
TAP	65	264	6
HLD	65	288	6	48
TAP	65	336	7
TAP	65	360	7
TAP	66	0	5
TAP	66	48	5
TAP	66	96	4
TAP	66	96	6
TAP	66	144	5
TAP	66	168	5
TAP	66	192	0
TAP	66	216	7
TAP	66	264	1
TAP	66	264	6
TAP	66	288	1
TAP	66	288	6
TAP	66	336	3
TAP	66	336	4
TAP	67	0	2
TAP	67	0	7
TAP	67	48	0
TAP	67	48	5
TAP	67	96	2
TAP	67	96	7
TAP	67	144	0
TAP	67	144	4
TAP	67	168	0
TAP	67	168	4
TAP	67	216	0
TAP	67	216	4
TAP	67	264	0
TAP	67	264	4
TAP	67	288	0
TAP	67	288	4
TAP	67	336	2
TAP	67	336	6
TAP	68	0	2
TAP	68	0	6
TAP	68	48	1
TAP	68	48	5
TAP	68	96	1
TAP	68	96	5
TAP	68	144	1
TAP	68	144	5
TAP	68	192	3
TAP	68	192	7
TAP	68	216	3
TAP	68	216	7
TAP	68	264	3
TAP	68	264	7
BST	68	288	3
SXR	68	288	3	96	288	0
BST	68	288	7
SXR	68	288	7	96	288	4

T_REC_TAP	492
T_REC_BRK	19
T_REC_XTP	0
T_REC_HLD	67
T_REC_XHO	0
T_REC_STR	33
T_REC_BST	4
T_REC_XST	0
T_REC_TTP	0
T_REC_THO	0
T_REC_SLD	37
T_REC_ALL	652
T_NUM_TAP	525
T_NUM_BRK	23
T_NUM_HLD	67
T_NUM_SLD	37
T_NUM_ALL	652
T_JUDGE_TAP	548
T_JUDGE_HLD	114
T_JUDGE_SLD	37
T_JUDGE_ALL	699
TTM_EACHPAIRS	194
TTM_SCR_TAP	262500
TTM_SCR_BRK	59800
TTM_SCR_HLD	67000
TTM_SCR_SLD	55500
TTM_SCR_ALL	444800
TTM_SCR_S	429250
TTM_SCR_SS	442500
TTM_RAT_ACV	10051

