VERSION	0.00.00	1.03.00
FES_MODE	0
BPM_DEF	145.000	145.000	145.000	145.000
MET_DEF	4	4
RESOLUTION	384
CLK_DEF	384
COMPATIBLE_CODE	MA2

BPM	0	0	145.000
MET	0	0	4	4

HLD	1	0	0	96
HLD	1	0	4	96
TAP	1	144	0
TAP	1	144	4
HLD	2	48	3	96
HLD	2	48	6	96
TAP	2	192	3
TAP	2	192	6
TAP	2	288	1
TAP	2	288	4
HLD	3	0	3	96
HLD	3	0	5	96
TAP	3	144	3
TAP	3	144	5
HLD	5	0	3	96
HLD	5	0	7	96
TAP	5	144	3
TAP	5	144	7
HLD	6	48	1	96
HLD	6	48	4	96
TAP	6	192	1
TAP	6	192	4
TAP	6	288	3
TAP	6	288	6
HLD	7	0	2	96
HLD	7	0	4	96
TAP	7	144	2
TAP	7	144	4
HLD	8	0	1	96
HLD	8	96	3	96
HLD	8	192	4	96
STR	8	288	6
SXL	8	288	6	96	480	3
HLD	10	192	3	96
STR	10	288	2
SCL	10	288	2	96	288	5
HLD	12	0	6	192
HLD	12	192	4	96
HLD	12	288	3	96
HLD	13	0	1	96
STR	13	144	1
SUR	13	144	1	96	384	4
TAP	15	0	3
TAP	15	0	5
TAP	15	48	3
TAP	15	48	5
TAP	15	144	1
TAP	15	144	4
TAP	15	240	2
TAP	15	240	6
TAP	15	336	0
TAP	15	336	5
TAP	16	48	3
TAP	16	48	7
TAP	16	144	0
TAP	16	144	4
TAP	16	192	1
TAP	16	240	2
TAP	16	288	3
TAP	16	336	4
HLD	17	0	5	96
TAP	17	96	7
HLD	17	144	7	96
TAP	17	240	0
HLD	17	288	0	96
TAP	18	0	2
HLD	18	48	2	96
TAP	18	144	3
STR	18	192	1
SCR	18	192	1	96	48	4
STR	18	192	4
SI_	18	192	4	96	48	1
HLD	19	0	2	96
TAP	19	96	0
HLD	19	144	0	96
TAP	19	240	7
HLD	19	288	7	96
TAP	20	0	5
HLD	20	48	5	96
TAP	20	144	4
STR	20	192	3
SI_	20	192	3	96	48	6
STR	20	192	6
SCL	20	192	6	96	48	3
HLD	21	0	6	96
TAP	21	0	7
TAP	21	96	4
HLD	21	144	4	96
TAP	21	240	3
HLD	21	288	3	96
TAP	22	0	1
HLD	22	48	1	96
TAP	22	144	0
STR	22	192	2
SCL	22	192	2	96	48	7
STR	22	192	7
SI_	22	192	7	96	48	2
TAP	23	0	0
HLD	23	0	1	96
TAP	23	96	3
HLD	23	144	3	96
TAP	23	240	4
HLD	23	288	4	96
TAP	24	0	6
HLD	24	48	6	96
TAP	24	144	7
STR	24	192	0
SI_	24	192	0	96	48	5
STR	24	192	5
SCR	24	192	5	96	48	0
TAP	25	0	2
TAP	25	0	3
TAP	25	96	2
TAP	25	144	3
TAP	25	192	2
TAP	25	288	2
TAP	25	288	4
TAP	26	0	2
TAP	26	48	5
TAP	26	96	2
STR	26	192	2
SUL	26	192	2	96	48	6
STR	26	192	6
SUL	26	192	6	96	48	2
TAP	27	0	0
TAP	27	0	1
TAP	27	96	1
TAP	27	144	0
TAP	27	192	1
TAP	27	288	1
TAP	27	288	7
TAP	28	0	1
TAP	28	48	6
TAP	28	96	1
STR	28	192	1
SUR	28	192	1	96	48	5
STR	28	192	5
SUR	28	192	5	96	48	1
TAP	29	0	6
TAP	29	0	7
TAP	29	96	6
TAP	29	144	7
TAP	29	192	6
TAP	29	288	0
TAP	29	288	6
TAP	30	0	6
TAP	30	48	1
TAP	30	96	6
STR	30	192	2
SUL	30	192	2	96	48	5
STR	30	192	6
SCR	30	192	6	96	48	1
TAP	31	0	3
TAP	31	0	4
TAP	31	96	2
TAP	31	144	2
TAP	31	192	3
TAP	31	192	4
TAP	31	240	5
TAP	31	288	5
TAP	32	0	2
TAP	32	0	3
TAP	32	48	1
TAP	32	96	4
TAP	32	96	5
TAP	32	144	6
TAP	32	192	2
STR	32	192	3
SI_	32	192	3	96	48	7
TAP	32	240	1
TAP	32	288	1
TAP	33	0	1
STR	33	48	1
SLR	33	48	1	96	144	7
TAP	33	96	4
STR	33	144	4
SI_	33	144	4	96	48	6
TAP	33	336	0
TAP	33	336	5
TAP	34	48	1
TAP	34	96	0
TAP	34	144	2
TAP	34	144	7
TAP	34	192	6
TAP	34	240	7
TAP	34	288	0
TAP	34	288	5
TAP	35	0	2
TAP	35	48	3
TAP	35	96	4
TAP	35	144	2
STR	35	144	5
SI_	35	144	5	96	48	1
STR	35	240	2
SI_	35	240	2	96	48	6
TAP	35	336	7
TAP	36	48	5
TAP	36	96	4
TAP	36	144	3
TAP	36	144	6
TAP	36	192	2
TAP	36	240	3
TAP	36	288	1
TAP	36	288	4
TAP	37	0	6
STR	37	48	6
SLL	37	48	6	96	144	0
TAP	37	96	3
STR	37	144	3
SI_	37	144	3	96	48	1
TAP	37	336	2
TAP	37	336	7
TAP	38	48	6
TAP	38	96	7
TAP	38	144	0
TAP	38	144	5
TAP	38	192	1
TAP	38	240	0
TAP	38	288	2
TAP	38	288	7
TAP	39	0	4
TAP	39	0	6
TAP	39	48	5
TAP	39	96	4
TAP	39	144	1
TAP	39	144	3
TAP	39	192	2
TAP	39	240	3
TAP	39	288	4
TAP	39	288	6
TAP	39	336	5
HLD	40	0	4	96
HLD	40	96	3	96
HLD	40	192	2	96
STR	40	288	1
SCL	40	288	1	96	96	6
STR	41	0	6
SXL	41	0	6	96	240	1
TAP	42	192	3
TAP	42	192	4
STR	42	288	6
SCR	42	288	6	96	96	1
STR	43	0	1
SXR	43	0	1	96	240	6
STR	44	0	3
SCL	44	0	3	96	48	0
STR	44	0	7
SCL	44	0	7	96	48	4
STR	44	192	0
SCR	44	192	0	96	48	3
STR	44	192	4
SCR	44	192	4	96	48	7
HLD	45	0	4	96
HLD	45	0	6	96
HLD	45	144	3	96
HLD	45	144	4	96
HLD	45	288	1	96
HLD	45	288	3	96
TAP	46	48	1
STR	46	96	1
SI_	46	96	1	96	48	5
TAP	46	192	0
STR	46	240	0
SI_	46	240	0	96	48	4
TAP	46	336	7
STR	47	0	7
SI_	47	0	7	96	48	3
TAP	47	96	6
STR	47	144	6
SI_	47	144	6	96	48	2
TAP	47	240	0
TAP	47	288	0
TAP	48	0	2
TAP	48	0	5
TAP	48	48	6
TAP	48	96	7
TAP	48	144	0
TAP	48	192	1
TAP	48	240	2
TAP	48	288	3
TAP	48	288	4
TAP	49	0	3
TAP	49	24	4
TAP	49	48	3
TAP	49	72	6
TAP	49	144	4
TAP	49	168	3
TAP	49	192	4
TAP	49	216	1
TAP	50	288	3
TAP	50	288	4
TAP	51	0	2
TAP	51	24	3
TAP	51	48	2
TAP	51	72	7
TAP	51	144	5
TAP	51	168	4
TAP	51	192	5
TAP	51	216	0
HLD	53	0	2	96
HLD	53	0	4	96
HLD	53	144	3	96
HLD	53	144	6	96
HLD	53	288	1	96
HLD	53	288	5	96
HLD	54	48	2	96
HLD	54	48	7	96
STR	54	192	0
SCR	54	192	0	96	48	3
STR	54	192	4
SCR	54	192	4	96	48	7
HLD	55	0	6	144
TAP	55	48	5
TAP	55	96	4
HLD	55	144	3	144
TAP	55	192	6
TAP	55	240	5
HLD	55	288	4	144
TAP	55	336	3
TAP	56	0	2
HLD	56	48	1	144
TAP	56	96	4
TAP	56	144	3
STR	56	192	2
SCR	56	192	2	96	48	5
TAP	56	240	1
TAP	56	288	0
HLD	57	0	3	96
HLD	57	0	5	96
HLD	57	144	1	96
HLD	57	144	4	96
HLD	57	288	2	96
HLD	57	288	6	96
HLD	58	48	0	96
HLD	58	48	5	96
STR	58	192	3
SCL	58	192	3	96	48	0
STR	58	192	7
SCL	58	192	7	96	48	4
HLD	59	0	1	144
TAP	59	48	2
TAP	59	96	3
HLD	59	144	4	144
TAP	59	192	1
TAP	59	240	2
HLD	59	288	3	144
TAP	59	336	4
TAP	60	0	5
HLD	60	48	6	144
TAP	60	96	3
TAP	60	144	4
STR	60	192	5
SCL	60	192	5	96	48	2
TAP	60	240	6
TAP	60	288	7
STR	61	0	0
SI_	61	0	0	96	48	4
STR	61	48	4
SI_	61	48	4	96	48	0
STR	61	240	4
SF_	61	240	4	96	48	0
TAP	62	48	3
TAP	62	48	5
TAP	62	96	4
TAP	62	144	3
STR	62	192	2
SI_	62	192	2	96	48	0
STR	62	192	4
SI_	62	192	4	96	48	6
STR	63	0	7
SI_	63	0	7	96	48	3
STR	63	48	3
SI_	63	48	3	96	48	7
STR	63	240	3
SF_	63	240	3	96	48	7
TAP	64	48	2
TAP	64	48	4
TAP	64	96	3
TAP	64	144	4
STR	64	192	3
SI_	64	192	3	96	48	1
STR	64	192	5
SI_	64	192	5	96	48	7
STR	65	0	0
SI_	65	0	0	96	48	4
STR	65	48	4
SI_	65	48	4	96	48	0
STR	65	240	4
SF_	65	240	4	96	48	0
TAP	66	48	3
TAP	66	48	5
TAP	66	96	4
TAP	66	144	3
STR	66	192	2
SI_	66	192	2	96	48	0
STR	66	192	4
SI_	66	192	4	96	48	6
STR	67	0	7
SI_	67	0	7	96	48	3
STR	67	48	3
SI_	67	48	3	96	48	7
STR	67	192	1
SI_	67	192	1	96	48	5
STR	67	240	5
SI_	67	240	5	96	48	1
STR	68	0	6
SI_	68	0	6	96	48	2
STR	68	48	2
SI_	68	48	2	96	48	6
STR	68	192	0
SI_	68	192	0	96	48	4
STR	68	240	4
SI_	68	240	4	96	48	0
BRK	69	0	7

T_REC_TAP	214
T_REC_BRK	1
T_REC_XTP	0
T_REC_HLD	69
T_REC_XHO	0
T_REC_STR	65
T_REC_BST	0
T_REC_XST	0
T_REC_TTP	0
T_REC_THO	0
T_REC_SLD	65
T_REC_ALL	414
T_NUM_TAP	279
T_NUM_BRK	1
T_NUM_HLD	69
T_NUM_SLD	65
T_NUM_ALL	414
T_JUDGE_TAP	280
T_JUDGE_HLD	148
T_JUDGE_SLD	65
T_JUDGE_ALL	493
TTM_EACHPAIRS	78
TTM_SCR_TAP	139500
TTM_SCR_BRK	2600
TTM_SCR_HLD	69000
TTM_SCR_SLD	97500
TTM_SCR_ALL	308600
TTM_SCR_S	299250
TTM_SCR_SS	308500
TTM_RAT_ACV	10003

