VERSION	0.00.00	1.03.00
FES_MODE	0
BPM_DEF	145.000	145.000	145.000	145.000
MET_DEF	4	4
RESOLUTION	384
CLK_DEF	384
COMPATIBLE_CODE	MA2

BPM	0	0	145.000
MET	0	0	4	4

STR	1	0	3
SXR	1	0	3	96	480	6
HLD	3	0	0	144
HLD	3	0	7	144
STR	5	0	0
SXL	5	0	0	96	480	5
HLD	7	0	3	144
HLD	7	0	4	144
HLD	9	0	2	384
HLD	10	0	1	384
HLD	11	0	0	384
HLD	12	0	7	192
TAP	12	192	0
HLD	13	0	6	384
HLD	14	0	5	384
HLD	15	0	4	384
HLD	16	0	3	192
TAP	16	192	4
TAP	17	0	2
TAP	17	96	2
TAP	17	192	1
TAP	17	192	3
TAP	18	0	5
TAP	18	96	5
TAP	18	192	4
TAP	18	192	6
TAP	19	0	2
TAP	19	96	2
TAP	19	96	3
TAP	19	192	5
TAP	19	288	4
TAP	19	288	5
TAP	20	0	3
TAP	20	0	4
TAP	20	96	3
TAP	20	96	4
TAP	20	192	2
TAP	20	192	5
TAP	21	0	6
TAP	21	96	6
TAP	21	192	5
TAP	21	192	7
TAP	22	0	1
TAP	22	96	1
TAP	22	192	0
TAP	22	192	2
TAP	23	0	6
TAP	23	96	6
TAP	23	96	7
TAP	23	192	1
TAP	23	288	0
TAP	23	288	1
TAP	24	0	0
TAP	24	0	7
TAP	24	96	0
TAP	24	96	7
TAP	24	192	1
TAP	24	192	6
TAP	25	0	3
TAP	25	96	2
TAP	25	192	1
TAP	25	192	4
TAP	26	0	4
TAP	26	96	5
TAP	26	192	3
TAP	26	192	6
TAP	27	0	2
TAP	27	96	2
TAP	27	96	3
TAP	27	192	5
TAP	27	288	4
TAP	27	288	5
TAP	28	0	3
TAP	28	0	4
TAP	28	96	3
TAP	28	96	4
TAP	28	192	2
TAP	28	192	5
TAP	29	0	6
TAP	29	96	7
TAP	29	192	0
TAP	29	192	5
TAP	30	0	1
TAP	30	96	0
TAP	30	192	2
TAP	30	192	7
TAP	31	0	6
TAP	31	96	6
TAP	31	96	7
TAP	31	192	1
TAP	31	288	0
TAP	31	288	1
TAP	32	0	0
TAP	32	0	7
TAP	32	96	0
TAP	32	96	7
TAP	32	192	1
TAP	32	192	6
STR	33	0	2
SI_	33	0	2	96	192	5
TAP	34	0	6
TAP	34	96	7
TAP	34	192	0
TAP	34	192	5
STR	35	0	6
SI_	35	0	6	96	192	1
TAP	36	0	2
TAP	36	96	3
TAP	36	192	1
TAP	36	192	4
STR	37	0	2
SI_	37	0	2	96	192	7
TAP	38	0	6
TAP	38	96	6
TAP	38	192	5
TAP	38	192	7
STR	39	0	6
SI_	39	0	6	96	192	3
TAP	40	0	2
TAP	40	96	2
TAP	40	192	1
TAP	40	192	3
HLD	41	0	5	192
TAP	41	96	4
TAP	41	192	4
HLD	42	0	2	192
TAP	42	96	3
TAP	42	192	3
HLD	43	0	5	96
TAP	43	96	4
HLD	43	192	5	96
TAP	43	288	4
TAP	44	0	2
TAP	44	0	3
TAP	44	96	2
TAP	44	96	3
TAP	44	192	1
TAP	44	192	4
HLD	45	0	1	192
TAP	45	96	0
TAP	45	192	0
HLD	46	0	6	192
TAP	46	96	7
TAP	46	192	7
HLD	47	0	1	96
TAP	47	96	0
HLD	47	192	1	96
TAP	47	288	0
TAP	48	0	6
TAP	48	0	7
TAP	48	96	6
TAP	48	96	7
TAP	48	192	0
TAP	48	192	5
TAP	49	0	0
TAP	49	0	7
TAP	49	144	0
TAP	49	144	7
TAP	51	0	1
TAP	51	0	6
TAP	51	144	1
TAP	51	144	6
TAP	53	0	0
TAP	53	0	7
TAP	53	144	0
TAP	53	144	7
TAP	53	288	0
TAP	53	288	7
HLD	54	48	0	144
HLD	54	48	7	144
TAP	54	288	1
TAP	54	288	6
TAP	55	0	0
TAP	55	0	1
TAP	55	96	0
TAP	55	96	1
TAP	55	192	6
TAP	55	192	7
TAP	55	288	6
TAP	55	288	7
TAP	56	0	4
TAP	56	0	5
TAP	56	96	4
TAP	56	96	5
TAP	56	192	2
TAP	56	192	3
TAP	57	0	3
TAP	57	0	4
TAP	57	144	3
TAP	57	144	4
TAP	57	288	3
TAP	57	288	4
HLD	58	48	3	144
HLD	58	48	4	144
TAP	58	288	2
TAP	58	288	5
TAP	59	0	1
TAP	59	96	0
TAP	59	96	1
TAP	59	192	6
TAP	59	288	6
TAP	59	288	7
TAP	60	0	0
TAP	60	0	7
TAP	60	96	1
TAP	60	96	6
TAP	60	192	2
TAP	60	192	5
TAP	60	288	3
TAP	60	288	4
TAP	61	0	2
TAP	61	96	2
TAP	61	96	3
TAP	61	192	5
TAP	61	288	4
TAP	61	288	5
TAP	62	0	2
TAP	62	0	3
TAP	62	96	1
TAP	62	96	4
TAP	62	192	0
TAP	62	192	5
TAP	63	0	1
TAP	63	96	0
TAP	63	96	1
TAP	63	192	6
TAP	63	288	6
TAP	63	288	7
TAP	64	0	0
TAP	64	0	1
TAP	64	96	2
TAP	64	96	7
TAP	64	192	3
TAP	64	192	6
TAP	65	0	5
TAP	65	96	4
TAP	65	96	5
TAP	65	192	2
TAP	65	288	2
TAP	65	288	3
TAP	66	0	4
TAP	66	0	5
TAP	66	96	3
TAP	66	96	6
TAP	66	192	2
TAP	66	192	7
TAP	67	0	6
TAP	67	96	6
TAP	67	96	7
TAP	67	192	1
TAP	67	288	0
TAP	67	288	1
TAP	68	0	6
TAP	68	0	7
TAP	68	96	0
TAP	68	96	5
TAP	68	192	1
TAP	68	192	4
TAP	68	288	2
TAP	68	288	3
BRK	69	0	2
BRK	69	0	5

T_REC_TAP	224
T_REC_BRK	2
T_REC_XTP	0
T_REC_HLD	24
T_REC_XHO	0
T_REC_STR	6
T_REC_BST	0
T_REC_XST	0
T_REC_TTP	0
T_REC_THO	0
T_REC_SLD	6
T_REC_ALL	262
T_NUM_TAP	230
T_NUM_BRK	2
T_NUM_HLD	24
T_NUM_SLD	6
T_NUM_ALL	262
T_JUDGE_TAP	232
T_JUDGE_HLD	104
T_JUDGE_SLD	6
T_JUDGE_ALL	342
TTM_EACHPAIRS	89
TTM_SCR_TAP	115000
TTM_SCR_BRK	5200
TTM_SCR_HLD	24000
TTM_SCR_SLD	9000
TTM_SCR_ALL	153200
TTM_SCR_S	148450
TTM_SCR_SS	153000
TTM_RAT_ACV	10013

