VERSION	0.00.00	1.03.00
FES_MODE	0
BPM_DEF	145.000	145.000	145.000	145.000
MET_DEF	4	4
RESOLUTION	384
CLK_DEF	384
COMPATIBLE_CODE	MA2

BPM	0	0	145.000
MET	0	0	4	4

HLD	1	0	2	384
HLD	3	0	3	384
HLD	5	0	4	384
HLD	7	0	5	384
TAP	9	0	6
TAP	9	192	6
TAP	10	0	7
TAP	10	192	7
TAP	11	0	0
TAP	11	192	0
TAP	12	0	0
TAP	12	0	1
TAP	13	0	2
TAP	13	192	2
TAP	14	0	3
TAP	14	192	3
TAP	15	0	4
TAP	15	192	4
HLD	16	0	4	192
HLD	16	0	5	192
TAP	17	0	3
TAP	17	96	3
TAP	17	192	3
TAP	18	0	2
TAP	18	96	2
TAP	18	192	2
TAP	19	0	1
TAP	19	96	1
TAP	19	192	1
TAP	20	0	0
TAP	20	0	7
TAP	20	192	0
TAP	20	192	7
TAP	21	0	7
TAP	21	96	7
TAP	21	192	7
TAP	22	0	6
TAP	22	96	6
TAP	22	192	6
TAP	23	0	5
TAP	23	96	5
TAP	23	192	5
TAP	24	0	3
TAP	24	0	4
TAP	24	192	3
TAP	24	192	4
TAP	25	0	4
TAP	25	96	4
TAP	25	192	4
TAP	26	0	5
TAP	26	96	5
TAP	26	192	5
TAP	27	0	6
TAP	27	96	6
TAP	27	192	6
TAP	28	0	0
TAP	28	0	7
TAP	28	192	0
TAP	28	192	7
TAP	29	0	0
TAP	29	96	0
TAP	29	192	0
TAP	30	0	1
TAP	30	96	1
TAP	30	192	1
TAP	31	0	2
TAP	31	96	2
TAP	31	192	2
HLD	32	0	3	96
HLD	32	0	4	96
TAP	32	192	3
TAP	32	192	4
STR	33	0	4
SI_	33	0	4	96	288	7
STR	35	0	0
SI_	35	0	0	96	288	3
STR	37	0	5
SI_	37	0	5	96	288	2
STR	39	0	1
SI_	39	0	1	96	288	6
HLD	41	0	7	192
TAP	42	0	6
TAP	42	96	6
TAP	42	192	6
TAP	42	192	7
HLD	43	0	5	192
TAP	44	0	5
TAP	44	96	5
TAP	44	192	4
TAP	44	192	5
HLD	45	0	3	192
TAP	46	0	2
TAP	46	96	2
TAP	46	192	2
TAP	46	192	3
HLD	47	0	1	192
TAP	48	0	1
TAP	48	96	1
TAP	48	192	0
TAP	48	192	1
HLD	49	0	0	144
HLD	49	0	1	144
HLD	51	0	6	144
HLD	51	0	7	144
STR	53	0	0
SI_	53	0	0	96	288	3
STR	53	0	7
SI_	53	0	7	96	288	4
TAP	54	192	3
TAP	54	192	4
TAP	55	0	2
TAP	55	96	2
TAP	55	192	2
TAP	55	192	3
TAP	56	0	5
TAP	56	96	5
TAP	56	192	4
TAP	56	192	5
TAP	57	0	3
TAP	57	0	4
TAP	57	96	3
TAP	57	96	4
TAP	57	192	3
TAP	57	192	4
TAP	58	0	2
TAP	58	0	5
TAP	58	96	2
TAP	58	96	5
BRK	58	192	2
BRK	58	192	5
TAP	59	0	3
TAP	59	96	3
TAP	59	192	2
TAP	59	288	2
TAP	60	0	1
TAP	60	96	1
TAP	60	192	0
TAP	60	192	7
TAP	61	0	0
TAP	61	96	0
TAP	61	192	1
TAP	61	288	1
TAP	62	0	2
TAP	62	96	2
TAP	62	192	2
TAP	62	192	3
TAP	63	0	4
TAP	63	96	4
TAP	63	192	5
TAP	63	288	5
TAP	64	0	6
TAP	64	96	6
TAP	64	192	6
TAP	64	192	7
TAP	65	0	7
TAP	65	96	7
TAP	65	192	6
TAP	65	288	6
TAP	66	0	5
TAP	66	96	5
TAP	66	192	4
TAP	66	192	5
TAP	67	0	3
TAP	67	96	3
TAP	67	192	2
TAP	67	288	2
TAP	68	0	1
TAP	68	96	1
BRK	68	192	0
BRK	68	192	1
TAP	69	0	0
TAP	69	0	7

T_REC_TAP	140
T_REC_BRK	4
T_REC_XTP	0
T_REC_HLD	16
T_REC_XHO	0
T_REC_STR	6
T_REC_BST	0
T_REC_XST	0
T_REC_TTP	0
T_REC_THO	0
T_REC_SLD	6
T_REC_ALL	172
T_NUM_TAP	146
T_NUM_BRK	4
T_NUM_HLD	16
T_NUM_SLD	6
T_NUM_ALL	172
T_JUDGE_TAP	150
T_JUDGE_HLD	72
T_JUDGE_SLD	6
T_JUDGE_ALL	228
TTM_EACHPAIRS	32
TTM_SCR_TAP	73000
TTM_SCR_BRK	10400
TTM_SCR_HLD	16000
TTM_SCR_SLD	9000
TTM_SCR_ALL	108400
TTM_SCR_S	104800
TTM_SCR_SS	108000
TTM_RAT_ACV	10037

