VERSION	0.00.00	1.03.00
FES_MODE	0
BPM_DEF	257.000	257.000	290.001	257.000
MET_DEF	4	4
RESOLUTION	384
CLK_DEF	384
COMPATIBLE_CODE	MA2

BPM	0	0	257.000
BPM	141	0	265.000
BPM	142	0	270.000
BPM	142	96	275.001
BPM	142	192	280.001
BPM	142	288	285.000
BPM	143	0	290.001
MET	0	0	4	4
MET	90	0	4	2
MET	90	192	4	4
MET	107	192	4	2
MET	108	0	4	4

TAP	2	0	2
TAP	2	0	6
TAP	2	96	2
TAP	2	192	3
TAP	2	288	3
TAP	3	0	1
TAP	3	0	4
HLD	3	96	4	192
TAP	3	288	5
TAP	4	0	1
TAP	4	0	5
TAP	4	96	1
TAP	4	192	2
TAP	4	288	2
TAP	5	0	3
TAP	5	0	6
TAP	5	96	3
TAP	5	192	4
TAP	5	288	4
TAP	6	0	1
TAP	6	0	5
TAP	6	96	5
TAP	6	192	4
TAP	6	288	4
TAP	7	0	3
TAP	7	0	6
HLD	7	96	3	192
TAP	7	288	2
TAP	8	0	2
TAP	8	0	6
TAP	8	96	6
TAP	8	192	5
STR	8	288	1
SSL	8	288	1	96	288	5
STR	8	288	5
SSL	8	288	5	96	288	1
TAP	10	0	2
STR	10	0	6
SCL	10	0	6	96	192	4
TAP	10	96	2
TAP	10	192	3
TAP	10	288	3
STR	11	0	3
SCL	11	0	3	96	192	1
TAP	11	0	4
TAP	11	96	4
TAP	11	288	5
TAP	12	0	1
STR	12	0	5
SCR	12	0	5	96	192	7
TAP	12	96	1
TAP	12	192	0
TAP	12	288	0
STR	13	0	0
SCR	13	0	0	96	192	2
TAP	13	0	7
TAP	13	96	7
TAP	13	192	0
TAP	14	0	3
STR	14	0	4
SCR	14	0	4	96	192	7
TAP	14	96	3
TAP	14	192	2
TAP	14	288	2
TAP	15	0	0
STR	15	0	1
SCR	15	0	1	96	192	4
TAP	15	96	0
TAP	15	192	7
TAP	15	288	7
TAP	16	0	5
STR	16	0	6
SCR	16	0	6	96	192	1
TAP	16	96	4
TAP	16	192	3
TAP	16	288	2
TAP	17	0	1
TAP	17	48	1
TAP	17	96	6
TAP	17	144	6
BRK	17	192	0
TAP	17	208	1
TAP	17	224	2
TAP	17	240	3
TAP	17	256	4
TAP	17	272	5
TAP	17	288	6
TAP	17	304	7
TAP	17	320	0
TAP	17	336	1
TAP	17	352	2
TAP	17	368	3
STR	18	0	6
SI_	18	0	6	96	48	3
TAP	18	48	6
STR	18	96	1
SI_	18	96	1	96	48	4
TAP	18	144	1
STR	18	192	7
SI_	18	192	7	96	48	3
TAP	18	240	7
STR	18	288	0
SI_	18	288	0	96	48	4
TAP	18	336	0
STR	19	0	6
SI_	19	0	6	96	48	2
TAP	19	48	6
STR	19	96	1
SI_	19	96	1	96	48	5
TAP	19	144	1
STR	19	192	7
SCL	19	192	7	96	48	4
TAP	19	288	3
TAP	19	288	7
TAP	19	312	2
TAP	19	336	1
TAP	19	360	0
STR	20	0	7
SI_	20	0	7	96	48	2
TAP	20	48	7
STR	20	96	6
SI_	20	96	6	96	48	3
TAP	20	144	6
STR	20	192	0
SI_	20	192	0	96	48	3
TAP	20	240	0
STR	20	288	7
SI_	20	288	7	96	48	4
TAP	20	336	7
STR	21	0	1
SI_	21	0	1	96	48	4
TAP	21	48	1
STR	21	96	0
SI_	21	96	0	96	48	5
TAP	21	144	0
TAP	21	192	3
TAP	21	240	3
TAP	21	288	2
TAP	21	336	2
STR	22	0	1
SI_	22	0	1	96	48	4
TAP	22	48	1
STR	22	96	6
SI_	22	96	6	96	48	3
TAP	22	144	6
STR	22	192	0
SI_	22	192	0	96	48	4
TAP	22	240	0
STR	22	288	7
SI_	22	288	7	96	48	3
TAP	22	336	7
STR	23	0	1
SI_	23	0	1	96	48	5
TAP	23	48	1
STR	23	96	6
SI_	23	96	6	96	48	2
TAP	23	144	6
STR	23	192	0
SCR	23	192	0	96	48	3
TAP	23	288	0
TAP	23	288	4
TAP	23	312	5
TAP	23	336	6
TAP	23	360	7
STR	24	0	0
SI_	24	0	0	96	48	4
TAP	24	48	0
STR	24	96	1
SI_	24	96	1	96	48	3
TAP	24	144	1
STR	24	192	7
SI_	24	192	7	96	48	5
TAP	24	240	7
STR	24	288	0
SI_	24	288	0	96	48	4
TAP	24	336	0
BST	25	0	6
SCR	25	0	6	96	48	0
BRK	25	96	0
BRK	25	96	6
BST	25	192	3
SF_	25	192	3	96	48	7
STR	26	0	1
SI_	26	0	1	96	48	4
TAP	26	48	1
STR	26	96	6
SI_	26	96	6	96	48	3
TAP	26	144	6
STR	26	192	0
SI_	26	192	0	96	48	4
TAP	26	240	0
STR	26	288	7
SI_	26	288	7	96	48	3
TAP	26	336	7
STR	27	0	1
SI_	27	0	1	96	48	5
TAP	27	48	1
STR	27	96	6
SI_	27	96	6	96	48	2
TAP	27	144	6
STR	27	192	0
SCR	27	192	0	96	48	3
TAP	27	288	0
TAP	27	288	4
TAP	27	312	5
TAP	27	336	6
TAP	27	360	7
STR	28	0	0
SI_	28	0	0	96	48	5
TAP	28	48	0
STR	28	96	1
SI_	28	96	1	96	48	4
TAP	28	144	1
STR	28	192	7
SI_	28	192	7	96	48	4
TAP	28	240	7
STR	28	288	0
SI_	28	288	0	96	48	3
TAP	28	336	0
STR	29	0	6
SI_	29	0	6	96	48	3
TAP	29	48	6
STR	29	96	7
SI_	29	96	7	96	48	2
TAP	29	144	7
TAP	29	192	4
TAP	29	240	4
TAP	29	288	5
TAP	29	336	5
BRK	30	0	6
BRK	30	0	7
TAP	30	48	6
TAP	30	48	7
TAP	30	96	6
TAP	30	96	7
TAP	30	144	6
TAP	30	144	7
BRK	30	192	0
BRK	30	192	5
TAP	30	240	0
TAP	30	240	5
BRK	30	288	0
BRK	30	288	5
BRK	31	0	0
BRK	31	0	1
TAP	31	48	0
TAP	31	48	1
TAP	31	96	0
TAP	31	96	1
TAP	31	144	0
TAP	31	144	1
BST	31	192	2
SI_	31	192	2	96	48	0
BST	31	192	7
SI_	31	192	7	96	48	3
BRK	31	288	2
BRK	31	288	7
TAP	32	0	4
TAP	32	48	4
TAP	32	96	3
TAP	32	96	5
TAP	32	144	3
TAP	32	144	5
TAP	32	192	2
TAP	32	192	6
TAP	32	240	2
TAP	32	240	6
TAP	32	288	1
TAP	32	288	7
TAP	32	336	1
TAP	32	336	7
BST	33	0	0
SI_	33	0	0	96	48	4
BST	33	96	4
SI_	33	96	4	96	48	0
BST	33	192	0
SF_	33	192	0	96	48	4
STR	34	0	2
SI_	34	0	2	96	48	6
TAP	34	0	6
TAP	34	96	4
STR	34	192	3
SI_	34	192	3	96	48	7
TAP	34	192	7
STR	34	288	4
SI_	34	288	4	96	48	0
TAP	34	336	4
STR	35	0	1
SI_	35	0	1	96	48	4
STR	35	96	5
SI_	35	96	5	96	48	1
TAP	35	144	5
TAP	35	192	2
TAP	35	240	2
TAP	35	288	2
TAP	35	288	6
STR	36	0	0
SI_	36	0	0	96	96	6
STR	36	96	6
SI_	36	96	6	96	96	1
STR	36	192	1
SI_	36	192	1	96	96	5
STR	36	288	5
SI_	36	288	5	96	96	2
STR	37	0	2
SLR	37	0	2	96	144	0
HLD	37	96	4	48
BRK	37	288	2
BRK	37	288	6
TAP	38	0	1
STR	38	0	5
SI_	38	0	5	96	48	1
TAP	38	96	3
TAP	38	192	0
STR	38	192	4
SI_	38	192	4	96	48	0
STR	38	288	3
SI_	38	288	3	96	48	7
TAP	38	336	3
STR	39	0	6
SI_	39	0	6	96	48	3
STR	39	96	2
SI_	39	96	2	96	48	6
TAP	39	144	2
TAP	39	240	4
TAP	39	288	0
TAP	39	288	4
STR	40	0	3
SV_	40	0	3	96	48	1
STR	40	0	7
SV_	40	0	7	96	48	5
TAP	40	96	3
TAP	40	96	7
STR	40	192	0
SV_	40	192	0	96	48	2
STR	40	192	4
SV_	40	192	4	96	48	6
TAP	40	288	0
TAP	40	288	4
HLD	41	0	3	96
STR	41	0	7
SI_	41	0	7	96	240	4
TAP	41	96	7
STR	41	192	0
SI_	41	192	0	96	48	3
BRK	41	288	0
HLD	42	0	1	96
BRK	42	0	5
HLD	42	144	0	96
BRK	42	144	4
BRK	42	288	3
HLD	42	288	7	96
BRK	43	48	2
HLD	43	48	6	96
BST	43	192	1
SCR	43	192	1	96	48	4
BST	43	192	7
SCL	43	192	7	96	48	4
STR	44	0	2
SI_	44	0	2	96	48	6
TAP	44	0	6
TAP	44	96	4
STR	44	192	3
SI_	44	192	3	96	48	7
TAP	44	192	7
STR	44	288	4
SI_	44	288	4	96	48	0
STR	45	0	1
SI_	45	0	1	96	48	4
TAP	45	48	1
STR	45	96	5
SI_	45	96	5	96	48	1
TAP	45	144	5
BST	45	192	0
SI_	45	192	0	96	48	5
BRK	45	288	6
STR	46	0	3
SI_	46	0	3	96	48	7
STR	46	0	7
SI_	46	0	7	96	48	3
TAP	46	96	3
TAP	46	96	7
TAP	46	192	1
TAP	46	192	5
TAP	46	288	0
TAP	46	336	0
TAP	47	0	0
TAP	47	48	0
STR	47	96	0
SI_	47	96	0	96	48	2
STR	47	144	0
SI_	47	144	0	96	48	6
STR	47	192	0
SI_	47	192	0	96	48	3
STR	47	240	0
SI_	47	240	0	96	48	5
STR	47	288	0
SI_	47	288	0	96	336	4
TAP	47	336	0
HLD	49	0	2	192
HLD	49	0	6	192
STR	50	0	4
SCL	50	0	4	96	288	2
TAP	51	0	4
STR	52	0	3
SCR	52	0	3	96	288	5
TAP	53	0	3
STR	54	0	5
SCL	54	0	5	96	288	2
TAP	55	0	5
STR	56	0	2
SCR	56	0	2	96	288	5
TAP	57	0	2
TAP	58	0	5
TAP	58	48	4
TAP	58	96	5
TAP	58	144	4
TAP	58	192	5
TAP	58	288	3
TAP	58	288	4
HLD	59	0	2	192
HLD	59	0	3	192
TAP	60	0	2
TAP	60	48	3
TAP	60	96	2
TAP	60	144	3
TAP	60	192	2
TAP	60	288	3
TAP	60	288	4
HLD	61	0	4	192
HLD	61	0	5	192
TAP	62	0	3
TAP	62	0	4
TAP	62	96	2
TAP	62	144	3
STR	62	192	2
SI_	62	192	2	96	48	4
TAP	62	240	3
TAP	62	288	2
TAP	63	0	5
TAP	63	48	4
STR	63	96	5
SI_	63	96	5	96	48	3
TAP	63	144	4
TAP	63	192	5
TAP	63	288	1
TAP	63	288	6
TAP	64	96	0
TAP	64	96	7
TAP	64	144	0
TAP	64	144	7
STR	64	192	1
SI_	64	192	1	96	48	4
STR	64	192	6
SI_	64	192	6	96	48	3
TAP	64	288	1
TAP	64	288	6
TAP	65	0	0
TAP	65	0	2
TAP	65	96	5
TAP	65	96	7
TAP	65	144	5
TAP	65	144	7
TAP	65	240	1
TAP	65	240	6
BRK	65	288	1
BRK	65	288	6
STR	66	0	6
SI_	66	0	6	96	48	2
TAP	66	96	6
TAP	66	96	7
STR	66	144	0
SI_	66	144	0	96	48	4
TAP	66	240	0
TAP	66	288	7
TAP	67	0	0
STR	67	0	1
SI_	67	0	1	96	48	4
TAP	67	48	1
STR	67	96	6
SXL	67	96	6	96	144	3
TAP	67	144	6
TAP	67	192	2
TAP	67	288	2
STR	68	0	1
SI_	68	0	1	96	48	5
TAP	68	96	0
TAP	68	96	1
STR	68	144	7
SI_	68	144	7	96	48	3
TAP	68	240	7
TAP	68	288	0
STR	69	0	6
SI_	69	0	6	96	48	3
TAP	69	0	7
TAP	69	48	6
STR	69	96	1
SXR	69	96	1	96	144	4
TAP	69	144	1
TAP	69	192	5
TAP	69	288	5
STR	70	0	6
SI_	70	0	6	96	48	2
TAP	70	96	6
TAP	70	96	7
STR	70	144	0
SI_	70	144	0	96	48	4
TAP	70	240	0
TAP	70	288	7
TAP	71	0	0
STR	71	0	1
SI_	71	0	1	96	48	4
TAP	71	48	1
STR	71	96	5
SXR	71	96	5	96	144	0
TAP	71	144	5
TAP	71	192	1
TAP	71	288	1
STR	72	0	1
SI_	72	0	1	96	48	5
TAP	72	96	0
TAP	72	96	1
STR	72	144	7
SI_	72	144	7	96	48	3
TAP	72	240	7
TAP	72	288	0
BRK	73	0	7
STR	74	0	5
SI_	74	0	5	96	48	1
TAP	74	96	4
TAP	74	96	5
STR	74	144	3
SI_	74	144	3	96	48	7
TAP	74	240	3
TAP	74	288	4
STR	75	0	2
SI_	75	0	2	96	48	7
TAP	75	0	3
TAP	75	48	2
STR	75	96	5
SXR	75	96	5	96	144	0
TAP	75	144	5
TAP	75	192	1
TAP	75	288	1
STR	76	0	2
SI_	76	0	2	96	48	6
TAP	76	96	2
TAP	76	96	3
STR	76	144	4
SI_	76	144	4	96	48	0
TAP	76	240	4
TAP	76	288	3
TAP	77	0	4
STR	77	0	5
SI_	77	0	5	96	48	0
TAP	77	48	5
STR	77	96	2
SXL	77	96	2	96	144	7
TAP	77	144	2
TAP	77	192	6
TAP	77	288	6
STR	78	0	5
SI_	78	0	5	96	48	1
TAP	78	96	4
TAP	78	96	5
STR	78	144	3
SI_	78	144	3	96	48	7
TAP	78	240	3
HLD	78	288	4	24
STR	79	0	2
SI_	79	0	2	96	48	7
TAP	79	0	3
TAP	79	48	2
TAP	79	96	5
HLD	79	144	5	24
STR	79	240	5
SV_	79	240	5	96	48	6
HLD	79	288	5	24
HLD	79	336	1	24
STR	80	24	1
SV_	80	24	1	96	48	2
HLD	80	96	1	24
TAP	80	192	7
BRK	80	240	7
TAP	80	288	7
TAP	80	336	6
TAP	81	0	5
TAP	81	48	4
TAP	81	96	3
TAP	81	144	2
TAP	81	192	1
TAP	81	224	0
TAP	81	256	7
TAP	81	288	6
TAP	81	320	5
TAP	81	352	4
TAP	82	0	3
TAP	82	24	2
TAP	82	48	1
TAP	82	72	0
TAP	82	96	7
TAP	82	120	6
TAP	82	144	5
TAP	82	168	4
TAP	82	192	3
TAP	82	208	2
TAP	82	224	1
TAP	82	240	0
TAP	82	256	7
TAP	82	272	6
TAP	82	288	5
TAP	82	304	4
TAP	82	320	3
TAP	82	336	2
TAP	82	352	1
TAP	82	368	0
TAP	83	0	7
TAP	83	12	6
TAP	83	24	5
TAP	83	36	4
TAP	83	48	3
TAP	83	60	2
TAP	83	72	1
TAP	83	84	0
TAP	83	96	7
TAP	83	108	6
TAP	83	120	5
TAP	83	132	4
TAP	83	144	3
TAP	83	156	2
TAP	83	168	1
TAP	83	180	0
BST	83	192	7
SI_	83	192	7	3072	48	3
BRK	86	96	4
BRK	91	0	6
BRK	91	0	7
BRK	91	96	0
BRK	91	96	1
BRK	91	192	0
BRK	91	192	7
TAP	93	192	1
STR	93	192	6
SUL	93	192	6	96	288	4
TAP	95	0	0
TAP	95	48	7
TAP	95	96	0
TAP	95	144	7
TAP	95	192	1
STR	95	192	6
SUL	95	192	6	96	288	4
TAP	97	0	3
TAP	97	48	4
TAP	97	96	2
TAP	97	144	5
TAP	97	192	1
STR	97	192	6
SUL	97	192	6	96	288	4
TAP	99	0	4
STR	99	96	3
SXR	99	96	3	96	384	0
TAP	99	192	3
BRK	99	192	4
TAP	99	288	4
TAP	100	0	4
TAP	100	96	4
TAP	100	192	4
TAP	100	288	4
TAP	101	0	4
STR	101	96	4
SXL	101	96	4	96	384	7
BRK	101	192	3
TAP	101	192	4
TAP	101	288	3
TAP	102	0	3
TAP	102	96	3
TAP	102	192	3
TAP	102	288	3
TAP	103	0	3
STR	103	96	3
SUL	103	96	3	96	288	0
TAP	103	192	3
BRK	103	192	4
TAP	103	288	4
BRK	104	0	4
STR	104	96	4
SUR	104	96	4	96	288	7
BRK	104	192	3
TAP	104	192	4
TAP	104	288	3
BRK	105	0	3
STR	105	96	3
SI_	105	96	3	96	48	0
TAP	105	192	3
BRK	105	192	4
TAP	105	288	4
TAP	106	0	3
TAP	106	0	4
TAP	106	24	5
TAP	106	48	6
TAP	106	72	7
TAP	106	96	0
TAP	106	120	1
TAP	106	144	2
TAP	106	168	3
BRK	106	192	0
BRK	106	192	4
BST	106	288	2
SI_	106	288	2	96	48	5
BST	106	288	6
SI_	106	288	6	96	48	1
BRK	108	0	0
BRK	108	0	1
BRK	108	96	6
BRK	108	96	7
BST	108	192	3
SI_	108	192	3	96	48	0
BST	108	192	4
SI_	108	192	4	96	48	7
BRK	108	288	3
BRK	108	288	4
STR	109	0	1
SI_	109	0	1	96	48	3
STR	109	96	0
SI_	109	96	0	96	48	4
STR	109	192	7
SI_	109	192	7	96	48	3
STR	109	288	6
SI_	109	288	6	96	48	4
STR	110	0	7
SI_	110	0	7	96	48	3
STR	110	96	0
SI_	110	96	0	96	48	4
STR	110	192	1
SI_	110	192	1	96	48	3
TAP	110	288	6
TAP	110	336	6
STR	111	0	0
SI_	111	0	0	96	48	2
STR	111	0	7
SI_	111	0	7	96	48	3
TAP	111	96	0
TAP	111	96	7
STR	111	192	0
SI_	111	192	0	96	48	4
STR	111	192	7
SI_	111	192	7	96	48	5
TAP	111	288	0
TAP	111	288	7
STR	112	0	0
SCR	112	0	0	96	48	3
TAP	112	0	7
TAP	112	96	0
TAP	112	96	4
TAP	112	120	5
TAP	112	144	6
TAP	112	168	7
TAP	112	192	0
TAP	112	240	0
BRK	112	288	1
BRK	112	288	7
STR	113	0	3
SI_	113	0	3	96	48	5
TAP	113	96	3
STR	113	96	7
SI_	113	96	7	96	48	3
STR	113	192	1
SI_	113	192	1	96	48	7
TAP	113	192	7
TAP	113	288	1
TAP	113	288	5
TAP	113	336	5
STR	114	48	6
SI_	114	48	6	96	48	3
STR	114	96	7
SI_	114	96	7	96	48	2
TAP	114	144	6
TAP	114	192	7
TAP	114	288	1
TAP	114	288	5
TAP	115	0	3
TAP	115	0	7
STR	115	96	1
SCR	115	96	1	96	48	4
TAP	115	144	0
TAP	115	192	1
STR	115	192	7
SCL	115	192	7	96	48	4
STR	115	288	7
SI_	115	288	7	96	48	3
STR	116	0	7
SCR	116	0	7	96	48	2
STR	116	96	7
SI_	116	96	7	96	48	3
BRK	116	192	7
BRK	116	288	1
BRK	116	288	5
STR	117	0	6
SI_	117	0	6	96	48	4
STR	117	96	7
SI_	117	96	7	96	48	3
STR	117	192	0
SI_	117	192	0	96	48	4
STR	117	288	1
SI_	117	288	1	96	48	3
STR	118	0	0
SI_	118	0	0	96	48	4
STR	118	96	7
SI_	118	96	7	96	48	3
STR	118	192	6
SI_	118	192	6	96	48	4
TAP	118	288	1
TAP	118	336	1
STR	119	0	0
SI_	119	0	0	96	48	4
STR	119	0	7
SI_	119	0	7	96	48	5
TAP	119	96	0
TAP	119	96	7
STR	119	192	0
SI_	119	192	0	96	48	2
STR	119	192	7
SI_	119	192	7	96	48	3
TAP	119	288	0
TAP	119	288	7
TAP	120	0	0
STR	120	0	7
SCL	120	0	7	96	48	4
TAP	120	96	3
TAP	120	96	7
TAP	120	120	2
TAP	120	144	1
TAP	120	168	0
TAP	120	192	7
TAP	120	240	7
BRK	120	288	0
BRK	120	288	6
STR	121	0	4
SI_	121	0	4	96	48	2
STR	121	96	0
SI_	121	96	0	96	48	4
TAP	121	96	4
TAP	121	192	0
STR	121	192	6
SI_	121	192	6	96	48	0
TAP	121	288	2
TAP	121	288	6
TAP	121	336	2
TAP	122	48	4
TAP	122	96	3
TAP	122	144	4
STR	122	192	1
SI_	122	192	1	96	48	4
STR	122	240	0
SI_	122	240	0	96	48	5
TAP	122	288	1
TAP	122	336	0
TAP	123	48	3
TAP	123	96	4
TAP	123	144	3
TAP	123	192	2
TAP	123	192	5
TAP	123	240	1
TAP	123	240	6
STR	123	288	0
SXL	123	288	0	96	240	3
STR	123	288	7
SXR	123	288	7	96	240	4
TAP	123	336	0
TAP	123	336	7
BRK	124	0	0
BRK	124	0	7
BRK	124	288	1
BRK	124	288	6
STR	125	0	0
SI_	125	0	0	96	48	4
TAP	125	0	7
TAP	125	48	0
STR	125	96	5
SI_	125	96	5	96	48	0
TAP	125	144	5
TAP	125	192	3
TAP	125	240	3
TAP	125	288	3
TAP	125	288	7
TAP	125	312	2
TAP	125	312	6
TAP	125	336	1
TAP	125	336	5
TAP	125	360	0
TAP	125	360	4
STR	126	0	3
SI_	126	0	3	96	48	7
TAP	126	0	7
STR	126	96	1
SI_	126	96	1	96	48	4
TAP	126	96	3
TAP	126	192	1
STR	126	192	5
SCR	126	192	5	96	48	0
TAP	126	288	0
TAP	126	288	5
TAP	126	312	1
TAP	126	336	2
TAP	126	360	3
STR	127	0	7
SI_	127	0	7	96	48	3
TAP	127	48	7
STR	127	96	2
SI_	127	96	2	96	48	7
TAP	127	144	2
TAP	127	192	4
TAP	127	240	4
TAP	127	288	0
TAP	127	288	4
TAP	127	312	1
TAP	127	312	5
TAP	127	336	2
TAP	127	336	6
TAP	127	360	3
TAP	127	360	7
TAP	128	0	0
STR	128	0	4
SI_	128	0	4	96	48	0
TAP	128	96	4
STR	128	96	6
SI_	128	96	6	96	48	3
STR	128	192	2
SCL	128	192	2	96	48	7
TAP	128	192	6
TAP	128	288	2
TAP	128	288	7
TAP	128	312	6
TAP	128	336	5
TAP	128	360	4
STR	129	0	0
SI_	129	0	0	96	48	4
TAP	129	48	0
STR	129	96	7
SI_	129	96	7	96	48	5
TAP	129	144	7
STR	129	192	1
SI_	129	192	1	96	48	3
TAP	129	240	1
STR	129	288	0
SI_	129	288	0	96	48	4
TAP	129	336	0
TAP	130	48	2
TAP	130	96	1
TAP	130	96	3
TAP	130	144	0
TAP	130	144	4
BST	130	192	7
SI_	130	192	7	96	48	3
BRK	130	288	7
TAP	131	0	1
TAP	131	0	5
TAP	131	96	2
STR	131	96	6
SI_	131	96	6	96	48	3
TAP	131	144	2
TAP	131	144	6
STR	131	192	2
SI_	131	192	2	96	48	7
BRK	131	192	6
BRK	131	288	2
TAP	132	0	4
TAP	132	16	5
TAP	132	32	6
TAP	132	48	7
TAP	132	64	0
TAP	132	80	1
TAP	132	96	2
TAP	132	112	3
TAP	132	128	4
TAP	132	144	5
TAP	132	160	6
TAP	132	176	7
TAP	132	192	0
TAP	132	208	1
TAP	132	224	2
TAP	132	240	3
TAP	132	256	4
TAP	132	272	5
BRK	132	288	1
BRK	132	288	6
TAP	133	0	0
STR	133	0	7
SI_	133	0	7	96	48	3
TAP	133	48	7
STR	133	96	2
SI_	133	96	2	96	48	7
TAP	133	96	7
TAP	133	144	2
TAP	133	192	2
TAP	133	192	4
TAP	133	240	4
TAP	133	288	0
TAP	133	288	4
TAP	133	312	1
TAP	133	312	5
TAP	133	336	2
TAP	133	336	6
TAP	133	360	3
TAP	133	360	7
TAP	134	0	0
STR	134	0	4
SI_	134	0	4	96	48	0
TAP	134	96	4
STR	134	96	6
SI_	134	96	6	96	48	3
STR	134	192	2
SCL	134	192	2	96	48	7
TAP	134	192	6
TAP	134	288	2
TAP	134	288	7
TAP	134	312	6
TAP	134	336	5
TAP	134	360	4
STR	135	0	0
SI_	135	0	0	96	48	4
TAP	135	48	0
TAP	135	96	0
STR	135	96	5
SI_	135	96	5	96	48	0
TAP	135	144	5
TAP	135	192	3
TAP	135	192	5
TAP	135	240	3
TAP	135	288	3
TAP	135	288	7
TAP	135	312	2
TAP	135	312	6
TAP	135	336	1
TAP	135	336	5
TAP	135	360	0
TAP	135	360	4
STR	136	0	3
SI_	136	0	3	96	48	7
TAP	136	0	7
STR	136	96	1
SI_	136	96	1	96	48	4
TAP	136	96	3
TAP	136	192	1
STR	136	192	5
SCR	136	192	5	96	48	0
TAP	136	288	0
TAP	136	288	5
TAP	136	312	1
TAP	136	336	2
TAP	136	360	3
STR	137	0	7
SI_	137	0	7	96	48	3
TAP	137	48	7
STR	137	96	0
SI_	137	96	0	96	48	2
TAP	137	144	0
STR	137	192	6
SI_	137	192	6	96	48	4
TAP	137	240	6
STR	137	288	7
SI_	137	288	7	96	48	3
TAP	137	336	7
TAP	138	48	5
TAP	138	96	4
TAP	138	96	6
TAP	138	144	3
TAP	138	144	7
BST	138	192	0
SF_	138	192	0	96	48	4
BRK	138	288	0
TAP	139	0	2
TAP	139	0	6
TAP	139	48	2
TAP	139	48	6
TAP	139	96	1
TAP	139	96	5
TAP	139	144	1
TAP	139	144	5
TAP	139	192	0
TAP	139	192	4
TAP	139	240	0
TAP	139	240	4
TAP	139	288	3
TAP	139	288	7
TAP	139	336	3
TAP	139	336	7
TAP	140	0	2
TAP	140	0	6
TAP	140	24	7
TAP	140	48	0
TAP	140	72	1
TAP	140	96	2
TAP	140	120	1
TAP	140	144	0
TAP	140	168	7
TAP	140	192	0
TAP	140	204	1
TAP	140	216	2
TAP	140	228	3
TAP	140	240	4
TAP	140	252	5
TAP	140	264	6
TAP	140	276	7
TAP	140	288	0
TAP	140	300	1
TAP	140	312	2
TAP	140	324	3
TAP	140	336	4
TAP	140	348	5
TAP	140	360	6
TAP	140	372	7
TAP	140	378	0
TAP	141	0	1
TAP	141	24	0
TAP	141	48	1
TAP	141	72	0
TAP	141	96	1
TAP	141	120	0
TAP	141	144	1
TAP	141	168	0
TAP	141	192	2
TAP	141	216	7
TAP	141	240	2
TAP	141	264	7
TAP	141	288	2
TAP	141	312	7
TAP	141	336	2
TAP	141	360	7
TAP	142	0	3
TAP	142	24	6
TAP	142	48	3
TAP	142	72	6
TAP	142	96	3
TAP	142	120	6
TAP	142	144	3
TAP	142	168	6
TAP	142	192	4
TAP	142	216	5
TAP	142	240	4
TAP	142	264	5
TAP	142	288	4
TAP	142	312	5
TAP	142	336	4
TAP	142	360	5
TAP	143	0	4
TAP	143	24	5
TAP	143	48	4
TAP	143	72	5
TAP	143	96	4
TAP	143	120	5
TAP	143	144	4
TAP	143	168	5
TAP	143	192	4
TAP	143	216	5
TAP	143	240	4
TAP	143	264	5
BRK	143	288	3
TAP	143	300	2
TAP	143	312	1
TAP	143	324	0
TAP	143	336	7
TAP	143	348	6
TAP	143	360	5
TAP	143	372	4
BRK	144	0	3
TAP	144	12	2
TAP	144	24	1
TAP	144	36	0
TAP	144	48	7
TAP	144	60	6
TAP	144	72	5
TAP	144	84	4
BRK	144	96	3
BRK	144	144	7
BRK	144	192	2
BRK	144	240	6
BRK	144	288	1
BRK	144	336	5
BST	145	0	0
SF_	145	0	0	1152	96	4

T_REC_TAP	668
T_REC_BRK	72
T_REC_XTP	0
T_REC_HLD	19
T_REC_XHO	0
T_REC_STR	193
T_REC_BST	18
T_REC_XST	0
T_REC_TTP	0
T_REC_THO	0
T_REC_SLD	211
T_REC_ALL	1181
T_NUM_TAP	861
T_NUM_BRK	90
T_NUM_HLD	19
T_NUM_SLD	211
T_NUM_ALL	1181
T_JUDGE_TAP	951
T_JUDGE_HLD	27
T_JUDGE_SLD	211
T_JUDGE_ALL	1189
TTM_EACHPAIRS	193
TTM_SCR_TAP	430500
TTM_SCR_BRK	234000
TTM_SCR_HLD	19000
TTM_SCR_SLD	316500
TTM_SCR_ALL	1000000
TTM_SCR_S	961300
TTM_SCR_SS	991000
TTM_RAT_ACV	10090

