VERSION	0.00.00	1.03.00
FES_MODE	0
BPM_DEF	257.000	257.000	290.001	257.000
MET_DEF	4	4
RESOLUTION	384
CLK_DEF	384
COMPATIBLE_CODE	MA2

BPM	0	0	257.000
BPM	141	0	265.000
BPM	142	0	270.000
BPM	142	96	275.001
BPM	142	192	280.001
BPM	142	288	285.000
BPM	143	0	290.001
MET	0	0	4	4
MET	90	0	4	2
MET	90	192	4	4
MET	107	192	4	2
MET	108	0	4	4

TAP	2	0	0
TAP	2	0	4
TAP	2	96	1
TAP	2	192	2
TAP	2	288	3
TAP	3	0	0
TAP	3	0	4
TAP	3	96	7
TAP	3	192	6
TAP	3	288	5
TAP	4	0	0
TAP	4	0	4
TAP	4	96	1
TAP	4	192	2
TAP	4	288	3
TAP	5	0	0
TAP	5	0	4
TAP	5	96	7
TAP	5	192	6
TAP	5	288	6
TAP	6	0	3
TAP	6	0	7
TAP	6	96	6
TAP	6	192	5
TAP	6	288	4
TAP	7	0	3
TAP	7	0	7
TAP	7	96	0
TAP	7	192	1
TAP	7	288	2
TAP	8	0	3
TAP	8	0	7
TAP	8	96	6
TAP	8	192	5
STR	8	288	0
SSR	8	288	0	96	192	4
STR	8	288	4
SSR	8	288	4	96	192	0
TAP	10	0	0
STR	10	0	4
SI_	10	0	4	96	192	7
TAP	10	96	1
TAP	10	192	2
TAP	10	288	3
TAP	11	0	0
STR	11	0	4
SI_	11	0	4	96	192	1
TAP	11	96	7
TAP	11	192	6
TAP	11	288	5
TAP	12	0	0
STR	12	0	4
SI_	12	0	4	96	192	7
TAP	12	96	1
TAP	12	192	2
TAP	12	288	3
TAP	13	0	0
STR	13	0	4
SI_	13	0	4	96	192	1
TAP	13	96	7
TAP	13	192	6
STR	14	0	3
SI_	14	0	3	96	192	0
TAP	14	0	7
TAP	14	96	6
TAP	14	192	5
TAP	14	288	4
STR	15	0	3
SI_	15	0	3	96	192	6
TAP	15	0	7
TAP	15	96	0
TAP	15	192	1
TAP	15	288	2
STR	16	0	3
SI_	16	0	3	96	192	0
TAP	16	0	7
TAP	16	96	6
TAP	16	192	5
TAP	16	288	4
TAP	17	0	6
TAP	17	48	6
TAP	17	96	1
TAP	17	144	1
TAP	17	192	7
TAP	17	216	6
TAP	17	240	5
TAP	17	264	4
TAP	17	288	0
TAP	17	312	1
TAP	17	336	2
TAP	17	360	3
TAP	18	0	6
TAP	18	48	6
TAP	18	96	0
TAP	18	144	0
TAP	18	192	7
TAP	18	240	7
TAP	18	288	1
TAP	18	336	1
STR	19	0	7
SI_	19	0	7	96	48	3
TAP	19	48	7
STR	19	96	1
SI_	19	96	1	96	48	5
TAP	19	144	1
STR	19	192	0
SCL	19	192	0	96	48	4
TAP	19	288	0
TAP	19	288	4
TAP	19	312	3
TAP	19	336	2
TAP	19	360	1
TAP	20	0	0
TAP	20	48	0
TAP	20	96	6
TAP	20	144	6
TAP	20	192	1
TAP	20	240	1
STR	20	288	7
SI_	20	288	7	96	48	2
TAP	20	336	7
STR	21	0	0
SI_	21	0	0	96	48	4
TAP	21	48	0
STR	21	96	6
SI_	21	96	6	96	48	2
TAP	21	144	6
STR	21	192	1
SI_	21	192	1	96	48	4
TAP	21	240	1
TAP	21	288	7
TAP	21	336	7
TAP	22	0	1
TAP	22	48	1
TAP	22	96	7
TAP	22	144	7
TAP	22	192	0
TAP	22	240	0
TAP	22	288	6
TAP	22	336	6
STR	23	0	0
SI_	23	0	0	96	48	4
TAP	23	48	0
STR	23	96	6
SI_	23	96	6	96	48	2
TAP	23	144	6
STR	23	192	7
SCR	23	192	7	96	48	3
TAP	23	288	3
TAP	23	288	7
TAP	23	312	4
TAP	23	336	5
TAP	23	360	6
TAP	24	0	7
TAP	24	48	7
TAP	24	96	1
TAP	24	144	1
TAP	24	192	6
TAP	24	240	6
TAP	24	288	3
TAP	24	312	2
TAP	24	336	1
TAP	24	360	0
STR	25	0	7
SF_	25	0	7	96	48	3
TAP	25	96	7
STR	25	192	0
SF_	25	192	0	96	48	4
BRK	25	288	0
TAP	26	0	1
TAP	26	48	1
TAP	26	96	7
TAP	26	144	7
TAP	26	192	0
TAP	26	240	0
TAP	26	288	6
TAP	26	336	6
STR	27	0	0
SI_	27	0	0	96	48	4
TAP	27	48	0
STR	27	96	6
SI_	27	96	6	96	48	2
TAP	27	144	6
STR	27	192	7
SCR	27	192	7	96	48	3
TAP	27	288	3
TAP	27	288	7
TAP	27	312	4
TAP	27	336	5
TAP	27	360	6
TAP	28	0	7
TAP	28	48	7
TAP	28	96	1
TAP	28	144	1
TAP	28	192	6
TAP	28	240	6
STR	28	288	0
SI_	28	288	0	96	48	5
TAP	28	336	0
STR	29	0	7
SI_	29	0	7	96	48	3
TAP	29	48	7
STR	29	96	1
SI_	29	96	1	96	48	5
TAP	29	144	1
STR	29	192	6
SI_	29	192	6	96	48	3
TAP	29	240	6
TAP	29	288	0
TAP	29	336	0
TAP	30	0	6
TAP	30	48	6
TAP	30	96	0
TAP	30	144	0
STR	30	192	7
SI_	30	192	7	96	48	4
TAP	30	240	7
BRK	30	288	7
TAP	31	0	2
TAP	31	48	2
STR	31	96	7
SI_	31	96	7	96	48	4
TAP	31	144	7
BST	31	192	7
SI_	31	192	7	96	48	2
BRK	31	288	7
TAP	32	0	3
TAP	32	0	7
TAP	32	48	3
TAP	32	48	7
TAP	32	96	2
TAP	32	96	6
TAP	32	144	2
TAP	32	144	6
TAP	32	192	1
TAP	32	192	5
TAP	32	240	1
TAP	32	240	5
TAP	32	288	0
TAP	32	288	4
TAP	32	336	0
TAP	32	336	4
HLD	33	0	3	96
HLD	33	0	7	96
TAP	33	192	1
TAP	33	192	6
BRK	33	288	0
BRK	33	288	7
STR	34	0	6
SI_	34	0	6	96	48	3
TAP	34	96	1
TAP	34	96	6
STR	34	192	0
SI_	34	192	0	96	48	4
TAP	34	288	0
TAP	34	288	5
STR	35	0	7
SI_	35	0	7	96	48	3
TAP	35	96	2
TAP	35	96	7
STR	35	192	1
SI_	35	192	1	96	48	4
TAP	35	288	1
TAP	35	288	6
STR	36	0	3
SV_	36	0	3	96	48	1
STR	36	0	7
SV_	36	0	7	96	48	5
TAP	36	96	3
TAP	36	96	7
STR	36	192	0
SV_	36	192	0	96	48	2
STR	36	192	4
SV_	36	192	4	96	48	6
TAP	36	288	0
TAP	36	288	4
STR	37	0	3
SCL	37	0	3	96	96	7
TAP	37	96	3
TAP	37	96	7
TAP	37	120	6
TAP	37	144	5
TAP	37	168	4
TAP	37	192	3
BRK	37	288	1
BRK	37	288	5
STR	38	0	7
SI_	38	0	7	96	48	3
TAP	38	96	2
TAP	38	96	7
STR	38	192	1
SI_	38	192	1	96	48	4
TAP	38	288	1
TAP	38	288	6
STR	39	0	6
SI_	39	0	6	96	48	3
STR	39	96	0
SI_	39	96	0	96	48	5
TAP	39	96	6
TAP	39	192	0
STR	39	192	7
SI_	39	192	7	96	48	3
TAP	39	288	1
TAP	39	288	7
STR	40	0	0
SV_	40	0	0	96	48	2
STR	40	0	4
SV_	40	0	4	96	48	6
TAP	40	96	0
TAP	40	96	4
STR	40	192	3
SV_	40	192	3	96	48	1
STR	40	192	7
SV_	40	192	7	96	48	5
TAP	40	288	3
TAP	40	288	7
HLD	41	0	0	96
HLD	41	96	1	96
HLD	41	192	2	96
BRK	41	288	7
TAP	42	0	2
TAP	42	0	6
TAP	42	144	1
TAP	42	144	5
TAP	42	288	0
TAP	42	288	4
TAP	43	48	1
TAP	43	48	5
STR	43	192	1
SCR	43	192	1	96	48	4
STR	43	192	7
SCL	43	192	7	96	48	4
STR	44	0	2
SI_	44	0	2	96	48	7
TAP	44	96	2
TAP	44	96	5
STR	44	192	4
SI_	44	192	4	96	48	0
TAP	44	288	1
TAP	44	288	4
STR	45	0	3
SI_	45	0	3	96	48	7
TAP	45	96	3
TAP	45	96	6
STR	45	192	5
SI_	45	192	5	96	48	0
TAP	45	288	2
TAP	45	288	5
STR	46	0	1
SI_	46	0	1	96	48	5
STR	46	0	7
SV_	46	0	7	96	48	5
TAP	46	96	1
TAP	46	96	7
STR	46	192	0
SV_	46	192	0	96	48	2
STR	46	192	6
SI_	46	192	6	96	48	2
TAP	46	288	0
TAP	46	288	6
TAP	47	0	0
TAP	47	48	7
STR	47	96	0
SI_	47	96	0	96	48	2
STR	47	144	7
SI_	47	144	7	96	48	5
STR	47	192	0
SI_	47	192	0	96	48	3
STR	47	240	7
SI_	47	240	7	96	48	4
TAP	47	288	0
TAP	47	336	7
HLD	48	0	0	192
HLD	49	0	1	192
HLD	49	0	5	192
STR	50	0	6
SUR	50	0	6	96	288	5
TAP	51	96	0
TAP	51	192	1
TAP	51	288	2
STR	52	0	1
SUL	52	0	1	96	288	2
TAP	53	96	4
TAP	53	192	5
TAP	53	288	6
STR	54	0	1
SUR	54	0	1	96	288	0
TAP	55	96	6
TAP	55	192	5
TAP	55	288	4
STR	56	0	6
SUL	56	0	6	96	288	7
TAP	57	96	1
TAP	57	192	0
TAP	57	288	1
TAP	58	0	0
TAP	58	0	4
TAP	58	144	1
TAP	58	144	5
STR	58	288	2
SLL	58	288	2	96	192	5
STR	58	288	6
SLL	58	288	6	96	192	1
TAP	60	0	3
TAP	60	0	7
TAP	60	144	2
TAP	60	144	6
STR	60	288	1
SLR	60	288	1	96	192	6
STR	60	288	5
SLR	60	288	5	96	192	2
TAP	62	0	7
STR	62	96	3
SCL	62	96	3	96	96	7
TAP	62	192	3
TAP	62	192	7
TAP	62	216	6
TAP	62	240	5
TAP	62	264	4
TAP	62	288	3
TAP	62	312	2
TAP	62	336	1
TAP	62	360	0
TAP	63	0	7
STR	63	96	4
SCR	63	96	4	96	96	0
TAP	63	192	0
TAP	63	192	4
TAP	63	216	1
TAP	63	240	2
TAP	63	264	3
TAP	63	288	4
TAP	63	312	5
TAP	63	336	6
TAP	63	360	7
STR	64	0	0
SF_	64	0	0	96	48	4
BRK	64	96	0
STR	64	192	7
SF_	64	192	7	96	48	3
BRK	64	288	7
BRK	65	0	0
STR	66	0	6
SI_	66	0	6	96	48	2
TAP	66	96	6
TAP	66	96	7
STR	66	144	0
SI_	66	144	0	96	48	4
TAP	66	240	0
TAP	66	288	7
TAP	67	0	0
STR	67	0	1
SI_	67	0	1	96	48	4
TAP	67	48	1
STR	67	96	6
SXL	67	96	6	96	144	3
TAP	67	144	6
TAP	67	192	2
TAP	67	288	2
STR	68	0	1
SI_	68	0	1	96	48	5
TAP	68	96	0
TAP	68	96	1
STR	68	144	7
SI_	68	144	7	96	48	3
TAP	68	240	7
TAP	68	288	0
STR	69	0	6
SI_	69	0	6	96	48	3
TAP	69	0	7
TAP	69	48	6
STR	69	96	1
SXR	69	96	1	96	144	4
TAP	69	144	1
TAP	69	192	5
TAP	69	288	5
STR	70	0	6
SI_	70	0	6	96	48	2
TAP	70	96	6
TAP	70	96	7
STR	70	144	0
SI_	70	144	0	96	48	4
TAP	70	240	0
TAP	70	288	7
TAP	71	0	0
STR	71	0	1
SI_	71	0	1	96	48	4
TAP	71	48	1
STR	71	96	5
SXR	71	96	5	96	144	0
TAP	71	144	5
TAP	71	192	1
TAP	71	288	1
STR	72	0	1
SI_	72	0	1	96	48	5
TAP	72	96	0
TAP	72	96	1
STR	72	144	7
SI_	72	144	7	96	48	3
TAP	72	240	7
TAP	72	288	0
BRK	73	0	7
STR	74	0	5
SI_	74	0	5	96	48	1
TAP	74	96	4
TAP	74	96	5
STR	74	144	3
SI_	74	144	3	96	48	7
TAP	74	240	3
TAP	74	288	4
STR	75	0	2
SI_	75	0	2	96	48	7
TAP	75	0	3
TAP	75	48	2
STR	75	96	5
SXR	75	96	5	96	144	0
TAP	75	144	5
TAP	75	192	1
TAP	75	288	1
STR	76	0	2
SI_	76	0	2	96	48	6
TAP	76	96	2
TAP	76	96	3
STR	76	144	4
SI_	76	144	4	96	48	0
TAP	76	240	4
TAP	76	288	3
TAP	77	0	4
STR	77	0	5
SI_	77	0	5	96	48	0
TAP	77	48	5
STR	77	96	2
SXL	77	96	2	96	144	7
TAP	77	144	2
TAP	77	192	6
TAP	77	288	6
STR	78	0	5
SI_	78	0	5	96	48	1
TAP	78	96	4
TAP	78	96	5
STR	78	144	3
SI_	78	144	3	96	48	7
TAP	78	240	3
TAP	78	288	4
STR	79	0	2
SI_	79	0	2	96	48	7
TAP	79	0	3
TAP	79	48	2
TAP	79	96	5
TAP	79	144	5
TAP	79	288	5
TAP	79	336	1
TAP	80	24	1
TAP	80	96	1
TAP	80	192	7
TAP	80	216	6
TAP	80	240	5
TAP	80	264	4
TAP	80	288	3
TAP	80	312	2
TAP	80	336	1
TAP	80	360	0
TAP	81	0	7
TAP	81	24	6
TAP	81	48	5
TAP	81	72	4
TAP	81	96	3
TAP	81	120	2
TAP	81	144	1
TAP	81	168	0
TAP	81	192	7
TAP	81	216	6
TAP	81	240	5
TAP	81	264	4
TAP	81	288	3
TAP	81	312	2
TAP	81	336	1
TAP	81	360	0
TAP	82	0	7
TAP	82	24	6
TAP	82	48	5
TAP	82	72	4
TAP	82	96	3
TAP	82	120	2
TAP	82	144	1
TAP	82	168	0
TAP	82	192	7
TAP	82	216	6
TAP	82	240	5
TAP	82	264	4
TAP	82	288	3
TAP	82	312	2
TAP	82	336	1
TAP	82	360	0
TAP	83	0	7
TAP	83	24	6
TAP	83	48	5
TAP	83	72	4
TAP	83	96	3
TAP	83	120	2
TAP	83	144	1
TAP	83	168	0
BRK	86	96	4
BRK	91	0	0
BRK	91	0	1
BRK	91	96	6
BST	91	96	7
SI_	91	96	7	96	48	3
BRK	91	192	0
BRK	91	192	7
TAP	91	288	2
TAP	92	0	3
TAP	92	96	4
TAP	92	144	4
TAP	92	240	3
TAP	92	336	3
STR	93	0	4
SI_	93	0	4	96	48	6
TAP	93	96	4
TAP	93	192	1
TAP	93	288	1
TAP	94	0	0
TAP	94	96	7
TAP	94	144	7
TAP	94	240	0
TAP	94	336	0
STR	95	0	7
SI_	95	0	7	96	48	5
TAP	95	96	7
TAP	95	192	2
TAP	95	288	2
TAP	96	0	3
TAP	96	96	4
TAP	96	144	4
TAP	96	240	3
STR	96	288	3
SI_	96	288	3	96	96	7
TAP	96	336	7
STR	97	0	7
SI_	97	0	7	96	96	2
TAP	97	96	6
TAP	97	192	6
TAP	97	288	7
TAP	97	336	7
HLD	98	0	0	96
HLD	98	96	7	288
TAP	99	0	0
TAP	99	96	6
TAP	99	96	7
BST	99	192	0
SI_	99	192	0	96	288	5
BRK	99	192	1
TAP	99	288	2
TAP	100	0	3
TAP	100	96	4
TAP	100	144	4
TAP	100	240	3
TAP	100	336	3
STR	101	0	4
SI_	101	0	4	96	48	6
TAP	101	96	4
BRK	101	192	1
BST	101	192	7
SI_	101	192	7	96	288	4
TAP	101	288	1
TAP	102	0	0
TAP	102	96	7
TAP	102	144	7
TAP	102	240	0
TAP	102	336	0
HLD	103	0	7	96
BST	103	192	3
SI_	103	192	3	96	48	1
TAP	103	192	4
TAP	103	288	7
TAP	104	0	3
BST	104	0	4
SI_	104	0	4	96	48	6
TAP	104	96	0
BST	104	192	3
SI_	104	192	3	96	48	0
TAP	104	192	4
TAP	104	288	7
TAP	105	0	3
BST	105	0	4
SI_	105	0	4	96	48	7
TAP	105	96	0
BRK	105	192	0
TAP	105	240	7
BRK	105	288	0
TAP	105	336	7
BRK	106	0	0
TAP	106	24	7
TAP	106	48	6
TAP	106	72	5
TAP	106	96	4
TAP	106	120	3
TAP	106	144	2
TAP	106	168	1
BRK	106	192	0
BRK	106	192	7
BST	106	288	6
SI_	106	288	6	96	24	3
BST	106	288	7
SI_	106	288	7	96	24	2
BRK	107	0	6
BRK	107	0	7
BRK	108	0	2
BRK	108	0	6
BRK	108	96	1
BRK	108	96	5
BRK	108	192	3
BRK	108	192	4
BRK	108	288	0
BST	108	288	7
SI_	108	288	7	96	48	3
STR	109	0	2
SI_	109	0	2	96	48	7
BRK	109	0	7
STR	109	96	5
SI_	109	96	5	96	48	2
STR	109	192	1
SI_	109	192	1	96	48	5
STR	109	288	4
SI_	109	288	4	96	48	1
STR	110	0	0
SI_	110	0	0	96	48	4
STR	110	96	5
SI_	110	96	5	96	48	0
STR	110	192	2
SI_	110	192	2	96	48	5
STR	110	288	7
SI_	110	288	7	96	48	2
STR	111	0	3
SI_	111	0	3	96	48	7
STR	111	96	6
SI_	111	96	6	96	48	3
STR	111	192	2
SI_	111	192	2	96	48	6
STR	111	288	5
SI_	111	288	5	96	48	2
STR	112	0	0
SI_	112	0	0	96	48	5
STR	112	96	4
SI_	112	96	4	96	48	0
STR	112	192	1
SI_	112	192	1	96	48	4
TAP	112	288	7
TAP	113	0	6
STR	113	96	1
SI_	113	96	1	96	48	5
TAP	113	192	7
STR	113	288	0
SI_	113	288	0	96	48	5
TAP	113	336	1
TAP	114	48	2
STR	114	96	2
SI_	114	96	2	96	48	6
TAP	114	144	4
TAP	114	192	4
STR	114	288	3
SI_	114	288	3	96	48	6
TAP	115	0	2
TAP	115	96	1
TAP	115	144	0
TAP	115	192	1
TAP	115	288	3
TAP	115	288	7
STR	116	0	3
SCL	116	0	3	96	48	0
STR	116	0	7
SCL	116	0	7	96	48	4
STR	116	96	3
SI_	116	96	3	96	48	7
STR	116	96	7
SI_	116	96	7	96	48	3
BST	116	288	0
SI_	116	288	0	96	48	4
BRK	117	0	0
STR	117	0	5
SI_	117	0	5	96	48	0
STR	117	96	2
SI_	117	96	2	96	48	5
STR	117	192	6
SI_	117	192	6	96	48	2
STR	117	288	3
SI_	117	288	3	96	48	6
STR	118	0	7
SI_	118	0	7	96	48	3
STR	118	96	2
SI_	118	96	2	96	48	7
STR	118	192	5
SI_	118	192	5	96	48	2
STR	118	288	0
SI_	118	288	0	96	48	5
STR	119	0	4
SI_	119	0	4	96	48	0
STR	119	96	1
SI_	119	96	1	96	48	4
STR	119	192	5
SI_	119	192	5	96	48	1
STR	119	288	2
SI_	119	288	2	96	48	5
STR	120	0	7
SI_	120	0	7	96	48	2
STR	120	96	3
SI_	120	96	3	96	48	7
STR	120	192	6
SI_	120	192	6	96	48	3
TAP	120	288	0
TAP	121	0	1
STR	121	96	6
SI_	121	96	6	96	48	2
TAP	121	192	0
STR	121	288	7
SI_	121	288	7	96	48	2
TAP	121	336	6
TAP	122	48	5
TAP	122	96	5
TAP	122	144	5
TAP	122	192	2
TAP	122	240	2
TAP	122	288	6
TAP	122	336	6
TAP	123	0	3
TAP	123	0	7
TAP	123	48	3
TAP	123	48	7
TAP	123	96	2
TAP	123	96	6
TAP	123	144	2
TAP	123	144	6
TAP	123	192	1
TAP	123	192	5
TAP	123	240	1
TAP	123	240	5
TAP	123	288	0
TAP	123	288	4
TAP	123	336	0
TAP	123	336	4
STR	124	0	0
SCR	124	0	0	96	48	3
STR	124	0	4
SCR	124	0	4	96	48	7
STR	124	96	0
SI_	124	96	0	96	48	4
STR	124	96	4
SI_	124	96	4	96	48	0
BRK	124	288	2
BRK	124	288	6
STR	125	0	6
SI_	125	0	6	96	48	3
TAP	125	48	6
STR	125	96	0
SI_	125	96	0	96	48	5
TAP	125	144	0
STR	125	192	7
SI_	125	192	7	96	48	3
TAP	125	240	7
TAP	125	288	3
TAP	125	312	2
TAP	125	336	1
TAP	125	360	0
TAP	126	0	7
TAP	126	48	7
STR	126	96	4
SCR	126	96	4	96	96	0
TAP	126	144	4
TAP	126	192	0
TAP	126	216	1
TAP	126	240	2
TAP	126	264	3
BRK	126	288	4
STR	127	0	1
SI_	127	0	1	96	48	4
TAP	127	48	1
STR	127	96	7
SI_	127	96	7	96	48	2
TAP	127	144	7
STR	127	192	0
SI_	127	192	0	96	48	4
TAP	127	240	0
TAP	127	288	4
TAP	127	312	5
TAP	127	336	6
TAP	127	360	7
TAP	128	0	0
TAP	128	48	0
STR	128	96	3
SCL	128	96	3	96	96	7
TAP	128	144	3
TAP	128	192	7
TAP	128	216	6
TAP	128	240	5
TAP	128	264	4
BRK	128	288	3
STR	129	0	6
SI_	129	0	6	96	48	3
TAP	129	48	6
STR	129	96	0
SI_	129	96	0	96	48	5
TAP	129	144	0
STR	129	192	7
SI_	129	192	7	96	48	3
TAP	129	240	7
TAP	129	288	3
TAP	129	312	2
TAP	129	336	1
TAP	129	360	0
TAP	130	0	7
TAP	130	48	7
STR	130	96	4
SCR	130	96	4	96	96	0
TAP	130	144	4
TAP	130	192	0
TAP	130	216	1
TAP	130	240	2
TAP	130	264	3
BRK	130	288	4
STR	131	0	1
SI_	131	0	1	96	48	4
TAP	131	48	1
STR	131	96	7
SI_	131	96	7	96	48	2
TAP	131	144	7
STR	131	192	0
SI_	131	192	0	96	48	4
TAP	131	240	0
TAP	131	288	7
TAP	131	336	7
TAP	132	0	7
TAP	132	24	6
TAP	132	48	5
TAP	132	72	4
STR	132	96	7
SF_	132	96	7	96	48	3
TAP	132	120	0
TAP	132	144	1
TAP	132	168	2
BRK	132	192	7
STR	133	0	6
SI_	133	0	6	96	48	3
TAP	133	48	6
STR	133	96	0
SI_	133	96	0	96	48	5
TAP	133	144	0
STR	133	192	7
SI_	133	192	7	96	48	3
TAP	133	240	7
STR	133	288	3
SI_	133	288	3	96	48	6
TAP	133	312	2
TAP	133	336	1
TAP	133	360	0
TAP	134	0	7
TAP	134	48	7
STR	134	96	0
SCR	134	96	0	96	96	4
TAP	134	144	0
TAP	134	192	4
TAP	134	216	5
TAP	134	240	6
TAP	134	264	7
BRK	134	288	0
STR	135	0	1
SI_	135	0	1	96	48	4
TAP	135	48	1
STR	135	96	7
SI_	135	96	7	96	48	2
TAP	135	144	7
STR	135	192	0
SI_	135	192	0	96	48	4
TAP	135	240	0
STR	135	288	4
SI_	135	288	4	96	48	1
TAP	135	312	5
TAP	135	336	6
TAP	135	360	7
TAP	136	0	0
TAP	136	48	0
STR	136	96	7
SCL	136	96	7	96	96	3
TAP	136	144	7
TAP	136	192	3
TAP	136	216	2
TAP	136	240	1
TAP	136	264	0
BRK	136	288	7
STR	137	0	6
SI_	137	0	6	96	48	3
TAP	137	48	6
STR	137	96	0
SI_	137	96	0	96	48	5
TAP	137	144	0
STR	137	192	7
SI_	137	192	7	96	48	3
TAP	137	240	7
STR	137	288	3
SI_	137	288	3	96	48	6
TAP	137	312	2
TAP	137	336	1
TAP	137	360	0
TAP	138	0	7
TAP	138	48	7
STR	138	96	0
SCR	138	96	0	96	96	4
TAP	138	144	0
TAP	138	192	4
TAP	138	216	5
TAP	138	240	6
TAP	138	264	7
BRK	138	288	0
TAP	139	0	3
TAP	139	0	7
TAP	139	48	3
TAP	139	48	7
TAP	139	96	2
TAP	139	96	6
TAP	139	144	2
TAP	139	144	6
TAP	139	192	1
TAP	139	192	5
TAP	139	240	1
TAP	139	240	5
TAP	139	288	0
TAP	139	288	4
TAP	139	336	0
TAP	139	336	4
BRK	140	0	0
BRK	140	0	4
BRK	140	96	0
BRK	140	96	7
TAP	140	192	0
TAP	140	216	1
TAP	140	240	2
TAP	140	264	3
TAP	140	288	0
TAP	140	312	7
TAP	140	336	6
TAP	140	360	5
BRK	141	0	2
TAP	141	24	3
TAP	141	48	2
TAP	141	72	3
TAP	141	96	2
TAP	141	120	3
TAP	141	144	2
TAP	141	168	3
TAP	141	192	1
TAP	141	216	4
TAP	141	240	1
TAP	141	264	4
TAP	141	288	1
TAP	141	312	4
TAP	141	336	1
TAP	141	360	4
BRK	142	0	0
TAP	142	24	5
TAP	142	48	0
TAP	142	72	5
TAP	142	96	0
TAP	142	120	5
TAP	142	144	0
TAP	142	168	5
TAP	142	192	7
TAP	142	216	6
TAP	142	240	7
TAP	142	264	6
TAP	142	288	7
TAP	142	312	6
TAP	142	336	7
TAP	142	360	6
BRK	143	0	0
TAP	143	16	1
TAP	143	32	2
TAP	143	48	3
TAP	143	64	4
TAP	143	80	5
TAP	143	96	6
TAP	143	112	7
TAP	143	128	0
TAP	143	144	1
TAP	143	160	2
TAP	143	176	3
TAP	143	192	4
TAP	143	208	5
TAP	143	224	6
TAP	143	240	7
TAP	143	256	0
TAP	143	272	1
TAP	143	288	2
TAP	143	304	3
TAP	143	320	4
TAP	143	336	5
TAP	143	352	6
TAP	143	368	7
TAP	144	0	0
TAP	144	48	4
TAP	144	96	0
TAP	144	144	4
TAP	144	192	7
TAP	144	240	3
TAP	144	288	6
TAP	144	336	2
HLD	145	0	0	1152

T_REC_TAP	659
T_REC_BRK	52
T_REC_XTP	0
T_REC_HLD	12
T_REC_XHO	0
T_REC_STR	179
T_REC_BST	12
T_REC_XST	0
T_REC_TTP	0
T_REC_THO	0
T_REC_SLD	191
T_REC_ALL	1105
T_NUM_TAP	838
T_NUM_BRK	64
T_NUM_HLD	12
T_NUM_SLD	191
T_NUM_ALL	1105
T_JUDGE_TAP	902
T_JUDGE_HLD	28
T_JUDGE_SLD	191
T_JUDGE_ALL	1121
TTM_EACHPAIRS	126
TTM_SCR_TAP	419000
TTM_SCR_BRK	166400
TTM_SCR_HLD	12000
TTM_SCR_SLD	286500
TTM_SCR_ALL	883900
TTM_SCR_S	851200
TTM_SCR_SS	877500
TTM_RAT_ACV	10072

