VERSION	0.00.00	1.03.00
FES_MODE	0
BPM_DEF	257.000	257.000	290.001	257.000
MET_DEF	4	4
RESOLUTION	384
CLK_DEF	384
COMPATIBLE_CODE	MA2

BPM	0	0	257.000
BPM	141	0	265.000
BPM	142	0	270.000
BPM	142	96	275.001
BPM	142	192	280.001
BPM	142	288	285.000
BPM	143	0	290.001
MET	0	0	4	4
MET	90	0	4	2
MET	90	192	4	4
MET	107	192	4	2
MET	108	0	4	4

HLD	2	0	1	384
HLD	3	0	3	384
HLD	4	0	4	384
HLD	5	0	6	384
HLD	6	0	0	384
HLD	7	0	2	384
HLD	8	0	7	288
STR	8	288	5
SUL	8	288	5	96	288	4
TAP	10	0	2
TAP	10	96	3
TAP	10	192	4
TAP	10	288	5
TAP	11	0	6
HLD	11	96	6	192
TAP	11	288	7
TAP	12	0	0
TAP	12	96	0
TAP	12	192	1
TAP	12	288	1
TAP	13	0	2
TAP	13	96	3
TAP	13	192	7
TAP	14	0	5
TAP	14	96	4
TAP	14	192	3
TAP	14	288	2
TAP	15	0	2
TAP	15	96	3
TAP	15	192	4
TAP	15	288	5
TAP	16	0	6
TAP	16	96	7
TAP	16	192	0
TAP	16	288	1
STR	17	0	2
SI_	17	0	2	96	96	7
STR	17	0	5
SI_	17	0	5	96	96	0
BRK	17	288	1
BRK	17	288	6
TAP	18	0	2
TAP	18	48	5
TAP	18	96	3
TAP	18	144	4
TAP	18	192	2
TAP	18	240	5
TAP	18	288	3
TAP	18	336	4
TAP	19	0	2
TAP	19	48	5
TAP	19	96	3
TAP	19	144	4
TAP	19	192	3
TAP	19	288	0
TAP	19	288	1
TAP	20	0	1
TAP	20	48	4
TAP	20	96	2
TAP	20	144	3
TAP	20	192	1
TAP	20	240	4
TAP	20	288	2
TAP	20	336	3
TAP	21	0	1
TAP	21	48	4
TAP	21	96	2
TAP	21	144	3
TAP	21	192	2
TAP	21	288	3
TAP	21	288	4
TAP	22	0	5
TAP	22	48	2
TAP	22	96	4
TAP	22	144	3
TAP	22	192	5
TAP	22	240	2
TAP	22	288	4
TAP	22	336	3
TAP	23	0	5
TAP	23	48	2
TAP	23	96	4
TAP	23	144	3
TAP	23	192	4
TAP	23	288	6
TAP	23	288	7
TAP	24	0	6
TAP	24	48	3
TAP	24	96	5
TAP	24	144	4
TAP	24	192	6
TAP	24	240	3
TAP	24	288	5
TAP	24	336	4
STR	25	0	6
SCR	25	0	6	96	192	4
SUR	25	0	6	96	192	4
TAP	26	0	1
TAP	26	48	6
TAP	26	96	0
TAP	26	144	7
TAP	26	192	1
TAP	26	240	6
TAP	26	288	0
TAP	26	336	7
TAP	27	0	1
TAP	27	48	6
TAP	27	96	0
TAP	27	144	7
TAP	27	192	0
TAP	27	288	2
TAP	27	288	3
TAP	28	0	2
TAP	28	48	7
TAP	28	96	1
TAP	28	144	0
TAP	28	192	2
TAP	28	240	7
TAP	28	288	1
TAP	28	336	0
TAP	29	0	2
TAP	29	48	7
TAP	29	96	1
TAP	29	144	0
TAP	29	192	1
TAP	29	288	0
TAP	29	288	7
TAP	30	0	5
TAP	30	48	0
TAP	30	96	6
TAP	30	144	7
HLD	30	192	5	96
BRK	30	288	4
TAP	31	0	2
TAP	31	48	7
TAP	31	96	1
TAP	31	144	0
HLD	31	192	2	96
BRK	31	288	3
TAP	32	0	4
TAP	32	48	3
TAP	32	96	5
TAP	32	144	2
TAP	32	192	6
TAP	32	240	1
TAP	32	288	7
TAP	32	336	0
HLD	33	0	1	192
HLD	33	0	6	192
BRK	33	288	0
BRK	33	288	7
TAP	34	0	2
TAP	34	0	3
TAP	34	96	2
TAP	34	96	3
TAP	34	192	0
TAP	34	192	1
TAP	34	288	0
TAP	34	288	1
TAP	35	0	6
TAP	35	0	7
TAP	35	96	6
TAP	35	96	7
TAP	35	192	4
TAP	35	192	5
TAP	35	288	4
TAP	35	288	5
TAP	36	0	2
TAP	36	0	3
TAP	36	96	4
TAP	36	96	6
TAP	36	192	2
TAP	36	192	3
TAP	36	288	4
TAP	36	288	6
STR	37	0	1
SCL	37	0	1	96	96	6
STR	37	0	3
SI_	37	0	3	96	96	6
TAP	38	0	4
TAP	38	0	5
TAP	38	96	4
TAP	38	96	5
TAP	38	192	6
TAP	38	192	7
TAP	38	288	6
TAP	38	288	7
TAP	39	0	0
TAP	39	0	1
TAP	39	96	0
TAP	39	96	1
TAP	39	192	2
TAP	39	192	3
TAP	39	288	2
TAP	39	288	3
TAP	40	0	4
TAP	40	0	5
TAP	40	96	1
TAP	40	96	3
TAP	40	192	4
TAP	40	192	5
TAP	40	288	1
TAP	40	288	3
STR	41	0	5
SCL	41	0	5	96	96	2
STR	41	0	7
SCR	41	0	7	96	96	2
HLD	42	0	0	144
TAP	42	0	7
HLD	42	144	2	144
HLD	42	288	4	144
HLD	43	48	6	144
TAP	43	192	7
TAP	44	0	4
TAP	44	0	5
TAP	44	96	1
TAP	44	96	3
TAP	44	192	4
TAP	44	192	5
TAP	44	288	0
TAP	44	288	2
STR	45	0	4
SCL	45	0	4	96	96	0
STR	45	0	5
SUL	45	0	5	96	96	0
TAP	46	0	2
TAP	46	0	3
TAP	46	96	4
TAP	46	96	6
TAP	46	192	2
TAP	46	192	3
TAP	46	288	5
TAP	46	288	7
TAP	47	0	1
TAP	47	48	1
TAP	47	96	6
TAP	47	144	6
TAP	47	192	0
TAP	47	240	0
TAP	47	288	7
TAP	47	336	7
STR	48	0	0
SF_	48	0	0	96	288	4
BRK	49	192	4
HLD	50	0	2	144
HLD	50	144	3	144
HLD	50	288	4	192
TAP	51	96	5
TAP	51	192	5
TAP	51	288	5
HLD	52	0	5	144
HLD	52	144	4	144
HLD	52	288	3	192
TAP	53	96	2
TAP	53	192	2
TAP	53	288	2
HLD	54	0	1	144
HLD	54	144	2	144
HLD	54	288	3	192
TAP	55	96	4
TAP	55	192	4
TAP	55	288	4
HLD	56	0	4	144
HLD	56	144	5	144
HLD	56	288	6	192
TAP	57	96	7
TAP	57	192	0
TAP	57	288	1
HLD	58	0	2	96
HLD	58	0	7	96
HLD	58	144	2	96
HLD	58	144	7	96
STR	58	288	2
SLR	58	288	2	96	192	1
STR	58	288	7
SLL	58	288	7	96	192	0
HLD	60	0	0	96
HLD	60	0	5	96
HLD	60	144	0	96
HLD	60	144	5	96
STR	60	288	0
SLR	60	288	0	96	192	7
STR	60	288	5
SLL	60	288	5	96	192	6
HLD	62	0	1	96
HLD	62	0	7	96
HLD	62	144	2	96
HLD	62	144	3	96
TAP	62	288	3
TAP	62	288	4
HLD	63	0	0	96
HLD	63	0	6	96
HLD	63	144	4	96
HLD	63	144	5	96
TAP	63	288	3
TAP	63	288	4
TAP	64	0	2
TAP	64	0	3
TAP	64	96	0
TAP	64	192	4
TAP	64	192	5
TAP	64	288	7
STR	65	0	1
SLR	65	0	1	96	192	0
STR	65	0	6
SLL	65	0	6	96	192	7
TAP	66	0	2
TAP	66	0	3
TAP	66	96	6
TAP	66	144	6
TAP	66	144	7
TAP	66	240	0
TAP	66	288	0
TAP	66	288	7
TAP	67	0	1
TAP	67	48	0
TAP	67	96	1
TAP	67	144	0
STR	67	192	1
SI_	67	192	1	96	48	4
TAP	67	288	7
TAP	68	0	5
TAP	68	96	1
TAP	68	144	0
TAP	68	144	1
TAP	68	240	7
TAP	68	288	0
TAP	68	288	7
TAP	69	0	6
TAP	69	48	7
TAP	69	96	6
TAP	69	144	7
STR	69	192	6
SI_	69	192	6	96	48	3
TAP	69	288	0
TAP	70	0	2
TAP	70	96	6
TAP	70	144	6
TAP	70	144	7
TAP	70	240	0
TAP	70	288	0
TAP	70	288	7
TAP	71	0	1
TAP	71	48	0
TAP	71	96	1
TAP	71	144	7
STR	71	192	1
SI_	71	192	1	96	48	5
TAP	71	288	6
TAP	72	0	7
TAP	72	96	5
TAP	72	144	4
TAP	72	144	5
TAP	72	240	2
TAP	72	288	2
TAP	72	288	3
STR	73	0	0
SI_	73	0	0	96	96	4
STR	73	0	7
SI_	73	0	7	96	96	3
BRK	73	288	2
BRK	73	288	5
TAP	74	0	0
TAP	74	0	1
TAP	74	96	5
TAP	74	144	4
TAP	74	144	5
TAP	74	240	3
TAP	74	288	3
TAP	74	288	4
TAP	75	0	2
TAP	75	48	3
TAP	75	96	2
TAP	75	144	3
STR	75	192	2
SI_	75	192	2	96	48	7
TAP	75	288	4
TAP	76	0	6
TAP	76	96	2
TAP	76	144	2
TAP	76	144	3
TAP	76	240	4
TAP	76	288	3
TAP	76	288	4
TAP	77	0	5
TAP	77	48	4
TAP	77	96	5
TAP	77	144	4
STR	77	192	5
SI_	77	192	5	96	48	0
TAP	77	288	3
TAP	78	0	1
TAP	78	96	5
TAP	78	144	4
TAP	78	144	5
TAP	78	240	3
TAP	78	288	3
TAP	79	0	0
TAP	79	48	0
TAP	79	96	0
TAP	79	144	0
TAP	79	336	1
TAP	79	336	6
TAP	80	24	1
TAP	80	24	6
TAP	80	96	1
TAP	80	96	6
STR	80	240	0
SCL	80	240	0	96	1008	0
HLD	80	240	7	1104
BRK	86	96	4
TAP	91	0	0
TAP	91	96	1
STR	91	192	2
SUR	91	192	2	96	288	4
TAP	91	192	3
TAP	93	0	7
TAP	93	96	6
TAP	93	192	4
STR	93	192	5
SUL	93	192	5	96	288	3
TAP	95	0	0
TAP	95	0	7
STR	95	192	1
SUR	95	192	1	96	288	3
TAP	95	192	2
TAP	97	0	3
TAP	97	0	4
TAP	97	192	5
STR	97	192	6
SUL	97	192	6	96	288	4
TAP	99	0	0
TAP	99	96	1
BRK	99	192	2
STR	99	192	7
SI_	99	192	7	96	288	3
TAP	99	288	2
TAP	100	0	2
TAP	100	96	2
TAP	100	192	2
TAP	100	288	2
TAP	101	0	2
TAP	101	96	2
STR	101	192	0
SI_	101	192	0	96	288	4
BRK	101	192	2
TAP	101	288	2
TAP	102	0	2
TAP	102	96	2
TAP	102	192	2
TAP	102	288	2
TAP	103	0	2
TAP	103	96	2
STR	103	192	0
SI_	103	192	0	96	96	4
BRK	103	192	5
TAP	103	288	5
TAP	104	0	5
TAP	104	96	5
BRK	104	192	5
STR	104	192	7
SI_	104	192	7	96	96	3
TAP	104	288	5
TAP	105	0	5
TAP	105	96	5
BRK	105	192	4
BRK	105	192	5
TAP	105	288	4
TAP	105	288	6
BRK	106	0	2
BRK	106	0	3
TAP	106	96	1
TAP	106	96	3
BRK	106	192	0
BRK	106	192	7
BST	106	288	2
SI_	106	288	2	96	48	5
BST	106	288	6
SI_	106	288	6	96	48	1
STR	109	0	1
SI_	109	0	1	96	48	3
STR	109	96	7
SI_	109	96	7	96	48	5
STR	109	192	0
SI_	109	192	0	96	48	4
STR	110	0	6
SI_	110	0	6	96	48	4
STR	110	96	0
SI_	110	96	0	96	48	2
STR	110	192	7
SI_	110	192	7	96	48	3
TAP	111	0	1
STR	111	96	1
SI_	111	96	1	96	48	4
TAP	111	192	0
STR	111	288	0
SI_	111	288	0	96	48	5
TAP	112	0	2
STR	112	96	2
SI_	112	96	2	96	48	7
BRK	112	192	6
TAP	113	0	4
HLD	113	0	5	96
HLD	113	96	6	96
HLD	113	192	7	96
TAP	113	288	0
TAP	113	336	0
TAP	114	48	2
TAP	114	96	3
TAP	114	144	2
TAP	114	192	3
TAP	114	288	0
HLD	114	288	1	96
HLD	115	0	2	96
HLD	115	96	3	96
HLD	115	192	4	96
STR	115	288	5
SUR	115	288	5	96	192	0
STR	117	0	6
SI_	117	0	6	96	48	4
STR	117	96	0
SI_	117	96	0	96	48	2
STR	117	192	7
SI_	117	192	7	96	48	3
STR	118	0	1
SI_	118	0	1	96	48	3
STR	118	96	7
SI_	118	96	7	96	48	5
STR	118	192	0
SI_	118	192	0	96	48	4
TAP	119	0	6
STR	119	96	6
SI_	119	96	6	96	48	3
TAP	119	192	7
STR	119	288	7
SI_	119	288	7	96	48	2
TAP	120	0	5
STR	120	96	5
SI_	120	96	5	96	48	0
BRK	120	192	1
HLD	121	0	2	96
TAP	121	0	3
HLD	121	96	1	96
HLD	121	192	0	96
TAP	121	288	7
TAP	121	336	7
TAP	122	48	3
TAP	122	96	3
TAP	122	144	3
TAP	122	192	5
TAP	122	240	4
TAP	122	288	5
TAP	122	336	4
TAP	123	48	7
TAP	123	96	7
TAP	123	144	7
TAP	123	192	0
TAP	123	240	1
TAP	123	288	6
TAP	123	336	7
STR	124	0	0
SF_	124	0	0	96	96	4
BRK	124	288	2
BRK	124	288	6
TAP	125	0	0
TAP	125	48	0
TAP	125	96	1
TAP	125	144	1
TAP	125	192	2
TAP	125	240	2
TAP	125	288	3
TAP	125	336	3
TAP	126	0	4
TAP	126	48	4
TAP	126	96	5
TAP	126	144	5
STR	126	192	4
SI_	126	192	4	96	48	0
STR	126	192	5
SI_	126	192	5	96	48	0
TAP	127	0	7
TAP	127	48	7
TAP	127	96	6
TAP	127	144	6
TAP	127	192	5
TAP	127	240	5
TAP	127	288	4
TAP	127	336	4
TAP	128	0	3
TAP	128	48	3
TAP	128	96	2
TAP	128	144	2
STR	128	192	2
SI_	128	192	2	96	48	7
STR	128	192	3
SI_	128	192	3	96	48	7
TAP	129	0	1
TAP	129	48	1
TAP	129	96	1
TAP	129	192	6
TAP	129	240	6
TAP	129	288	6
TAP	130	0	0
TAP	130	0	2
TAP	130	48	0
TAP	130	48	2
TAP	130	96	0
TAP	130	96	2
TAP	130	192	5
TAP	130	192	7
TAP	130	240	5
TAP	130	240	7
TAP	130	288	5
TAP	130	288	7
TAP	131	0	3
TAP	131	48	3
TAP	131	96	4
TAP	131	144	4
STR	131	192	2
SCL	131	192	2	96	288	4
STR	131	192	5
SCR	131	192	5	96	288	3
BRK	132	288	0
BRK	132	288	7
TAP	133	0	1
TAP	133	48	1
TAP	133	96	1
TAP	133	144	1
TAP	133	192	2
TAP	133	240	2
TAP	133	288	2
TAP	133	336	2
TAP	134	0	3
TAP	134	48	3
TAP	134	96	3
TAP	134	144	3
TAP	134	192	3
TAP	134	192	7
TAP	134	240	3
TAP	134	240	7
TAP	134	288	3
TAP	134	288	7
TAP	135	0	6
TAP	135	48	6
TAP	135	96	6
TAP	135	144	6
TAP	135	192	5
TAP	135	240	5
TAP	135	288	5
TAP	135	336	5
TAP	136	0	4
TAP	136	48	4
TAP	136	96	4
TAP	136	144	4
TAP	136	192	0
TAP	136	192	4
TAP	136	240	0
TAP	136	240	4
TAP	136	288	0
TAP	136	288	4
TAP	137	0	0
TAP	137	48	0
TAP	137	96	1
TAP	137	144	1
TAP	137	192	2
TAP	137	240	2
TAP	137	288	3
TAP	137	336	3
TAP	138	0	4
TAP	138	48	4
TAP	138	96	5
TAP	138	144	5
TAP	138	192	6
TAP	138	240	6
TAP	138	288	7
TAP	138	336	7
TAP	139	0	0
TAP	139	48	0
TAP	139	96	2
TAP	139	144	2
TAP	139	192	4
TAP	139	240	4
TAP	139	288	6
TAP	139	336	6
STR	140	0	0
SCR	140	0	0	96	192	7
TAP	141	0	2
TAP	141	0	3
TAP	141	48	2
TAP	141	48	3
TAP	141	96	2
TAP	141	96	3
TAP	141	144	2
TAP	141	144	3
TAP	141	192	2
TAP	141	192	3
TAP	141	288	0
TAP	141	288	7
TAP	142	0	4
TAP	142	0	5
TAP	142	48	4
TAP	142	48	5
TAP	142	96	4
TAP	142	96	5
TAP	142	144	4
TAP	142	144	5
TAP	142	192	4
TAP	142	192	5
TAP	142	288	0
TAP	142	288	7
TAP	143	0	0
TAP	143	24	1
TAP	143	48	2
TAP	143	72	3
TAP	143	96	4
TAP	143	120	5
TAP	143	144	6
TAP	143	168	7
TAP	143	192	0
TAP	143	216	1
TAP	143	240	2
TAP	143	264	3
TAP	143	288	4
TAP	143	312	5
TAP	143	336	6
TAP	143	360	7
BRK	144	0	0
BST	145	0	3
SCL	145	0	3	96	1056	4
BRK	145	0	7
BRK	148	0	3

T_REC_TAP	520
T_REC_BRK	29
T_REC_XTP	0
T_REC_HLD	55
T_REC_XHO	0
T_REC_STR	60
T_REC_BST	3
T_REC_XST	0
T_REC_TTP	0
T_REC_THO	0
T_REC_SLD	64
T_REC_ALL	731
T_NUM_TAP	580
T_NUM_BRK	32
T_NUM_HLD	55
T_NUM_SLD	64
T_NUM_ALL	731
T_JUDGE_TAP	612
T_JUDGE_HLD	105
T_JUDGE_SLD	64
T_JUDGE_ALL	781
TTM_EACHPAIRS	130
TTM_SCR_TAP	290000
TTM_SCR_BRK	83200
TTM_SCR_HLD	55000
TTM_SCR_SLD	96000
TTM_SCR_ALL	524200
TTM_SCR_S	505400
TTM_SCR_SS	521000
TTM_RAT_ACV	10061

