VERSION	0.00.00	1.03.00
FES_MODE	0
BPM_DEF	257.000	257.000	290.001	257.000
MET_DEF	4	4
RESOLUTION	384
CLK_DEF	384
COMPATIBLE_CODE	MA2

BPM	0	0	257.000
BPM	141	0	265.000
BPM	142	0	270.000
BPM	142	96	275.001
BPM	142	192	280.001
BPM	142	288	285.000
BPM	143	0	290.001
MET	0	0	4	4
MET	90	0	4	2
MET	90	192	4	4
MET	107	192	4	2
MET	108	0	4	4

STR	2	0	5
SUL	2	0	5	96	480	4
STR	4	0	2
SUR	4	0	2	96	480	3
STR	6	0	6
SUL	6	0	6	96	480	4
STR	8	0	1
SXR	8	0	1	96	528	4
HLD	10	0	5	768
TAP	11	0	4
HLD	12	0	2	768
TAP	13	0	3
STR	14	0	5
SCR	14	0	5	96	672	2
TAP	17	0	3
TAP	17	0	4
TAP	17	96	2
TAP	17	96	5
BRK	17	192	0
BRK	17	192	7
TAP	18	0	0
TAP	18	0	7
TAP	18	96	0
TAP	18	96	7
TAP	18	192	0
TAP	18	192	1
TAP	18	288	0
TAP	18	288	1
TAP	19	0	0
TAP	19	0	7
TAP	19	96	0
TAP	19	96	1
TAP	19	192	0
BRK	19	192	7
TAP	20	0	0
TAP	20	0	7
TAP	20	96	0
TAP	20	96	7
TAP	20	192	6
TAP	20	192	7
TAP	20	288	6
TAP	20	288	7
TAP	21	0	0
TAP	21	0	7
TAP	21	96	6
TAP	21	96	7
BRK	21	192	0
TAP	21	192	7
TAP	22	0	0
TAP	22	0	7
TAP	22	96	0
TAP	22	96	7
TAP	22	192	0
TAP	22	192	1
TAP	22	288	0
TAP	22	288	1
TAP	23	0	0
TAP	23	0	7
TAP	23	96	6
TAP	23	96	7
BRK	23	192	0
TAP	23	192	7
TAP	24	0	2
TAP	24	0	3
TAP	24	96	1
TAP	24	192	2
TAP	24	192	3
STR	24	288	4
SF_	24	288	4	96	192	0
TAP	26	0	0
TAP	26	0	7
TAP	26	96	0
TAP	26	96	7
TAP	26	192	6
TAP	26	192	7
TAP	26	288	6
TAP	26	288	7
TAP	27	0	5
TAP	27	0	6
TAP	27	96	4
TAP	27	96	5
BRK	27	192	3
TAP	27	192	4
TAP	28	0	0
TAP	28	0	7
TAP	28	96	0
TAP	28	96	7
TAP	28	192	0
TAP	28	192	1
TAP	28	288	0
TAP	28	288	1
TAP	29	0	1
TAP	29	0	2
TAP	29	96	2
TAP	29	96	3
TAP	29	192	3
BRK	29	192	4
TAP	30	0	4
TAP	30	0	6
TAP	30	96	4
TAP	30	96	6
BRK	30	192	4
BRK	30	192	6
TAP	31	0	1
TAP	31	0	3
TAP	31	96	1
TAP	31	96	3
BRK	31	192	1
BRK	31	192	3
TAP	32	0	3
TAP	32	0	4
TAP	32	96	2
TAP	32	96	5
TAP	32	192	1
TAP	32	192	6
TAP	32	288	0
TAP	32	288	7
BRK	33	0	1
BRK	33	0	6
TAP	34	0	7
TAP	34	96	6
TAP	34	192	4
TAP	34	192	5
TAP	34	288	4
TAP	34	288	5
TAP	35	0	3
TAP	35	96	2
TAP	35	192	0
TAP	35	192	1
TAP	35	288	0
TAP	35	288	1
TAP	36	0	7
TAP	36	96	0
TAP	36	96	1
TAP	36	192	2
STR	36	288	0
SI_	36	288	0	96	192	5
STR	36	288	1
SI_	36	288	1	96	192	4
TAP	38	0	0
TAP	38	96	1
TAP	38	192	2
TAP	38	192	3
TAP	38	288	2
TAP	38	288	3
TAP	39	0	4
TAP	39	96	5
TAP	39	192	6
TAP	39	192	7
TAP	39	288	6
TAP	39	288	7
TAP	40	0	5
TAP	40	96	6
TAP	40	96	7
TAP	40	192	0
TAP	40	288	6
TAP	40	288	7
HLD	41	0	0	96
HLD	41	0	5	96
BRK	41	192	0
BRK	41	192	5
STR	42	0	0
SUL	42	0	0	96	288	3
STR	42	0	7
SCL	42	0	7	96	288	4
BRK	43	192	0
BRK	43	192	1
TAP	44	0	2
TAP	44	0	3
TAP	44	96	1
TAP	44	192	2
TAP	44	192	3
TAP	44	288	4
TAP	45	0	2
TAP	45	0	3
TAP	45	96	1
TAP	45	96	4
TAP	45	192	0
TAP	45	192	5
TAP	46	0	5
TAP	46	96	4
TAP	46	192	2
TAP	46	192	3
TAP	46	288	2
TAP	46	288	3
TAP	47	0	1
TAP	47	0	4
TAP	47	96	5
TAP	47	192	3
TAP	47	192	6
STR	47	288	7
SF_	47	288	7	96	384	3
HLD	50	0	5	384
TAP	51	0	4
HLD	52	0	1	384
TAP	53	0	3
HLD	54	0	5	384
TAP	55	0	6
HLD	56	0	2	384
TAP	57	0	1
TAP	58	0	0
TAP	58	0	1
TAP	58	96	2
TAP	58	192	3
STR	58	288	4
SCR	58	288	4	96	192	7
TAP	60	0	0
TAP	60	0	1
TAP	60	96	2
TAP	60	192	3
TAP	60	192	4
STR	60	288	5
SCR	60	288	5	96	192	0
HLD	62	0	1	96
HLD	62	0	3	96
TAP	62	192	1
TAP	62	192	3
TAP	62	288	2
HLD	63	0	3	96
HLD	63	0	4	96
TAP	63	192	3
TAP	63	192	4
TAP	63	288	5
HLD	64	0	4	96
HLD	64	0	6	96
TAP	64	192	4
TAP	64	192	6
STR	64	288	7
SSR	64	288	7	96	288	3
TAP	66	0	2
TAP	66	96	2
TAP	66	192	1
TAP	66	192	3
TAP	66	288	0
TAP	67	0	7
TAP	67	96	6
TAP	67	192	4
TAP	67	192	5
TAP	67	288	4
TAP	67	288	5
TAP	68	0	3
TAP	68	96	2
TAP	68	192	1
TAP	68	192	4
TAP	68	288	1
TAP	68	288	4
TAP	69	0	5
TAP	69	96	4
TAP	69	192	3
TAP	69	192	6
TAP	70	0	5
TAP	70	96	5
TAP	70	192	4
TAP	70	192	6
TAP	70	288	7
TAP	71	0	0
TAP	71	96	1
TAP	71	192	2
TAP	71	192	3
TAP	71	288	2
TAP	71	288	3
TAP	72	0	1
TAP	72	0	4
TAP	72	96	2
TAP	72	96	5
TAP	72	192	3
TAP	72	192	6
STR	72	288	7
SSR	72	288	7	96	288	3
TAP	74	0	1
TAP	74	96	1
TAP	74	192	2
TAP	74	192	3
TAP	74	288	3
TAP	74	288	4
TAP	75	0	6
TAP	75	96	6
TAP	75	192	4
TAP	75	192	5
TAP	75	288	3
TAP	75	288	4
TAP	76	0	2
TAP	76	96	2
TAP	76	192	0
TAP	76	192	1
TAP	76	288	0
TAP	76	288	7
TAP	77	0	6
TAP	77	0	7
TAP	77	96	6
TAP	77	96	7
TAP	77	192	0
TAP	77	192	5
TAP	78	0	3
TAP	78	96	4
TAP	78	192	2
TAP	78	192	5
TAP	78	288	3
TAP	78	288	4
STR	79	0	3
SCL	79	0	3	96	1632	4
TAP	79	0	4
BRK	86	96	4
STR	91	192	5
SUL	91	192	5	96	480	4
STR	93	192	2
SUR	93	192	2	96	480	3
STR	95	192	6
SUL	95	192	6	96	480	4
STR	97	192	1
SXR	97	192	1	96	528	4
BRK	99	192	5
TAP	99	288	5
TAP	100	0	5
TAP	100	96	5
TAP	100	192	5
TAP	100	288	5
TAP	101	0	4
TAP	101	0	5
TAP	101	96	3
TAP	101	96	4
BRK	101	192	2
TAP	101	288	2
TAP	102	0	2
TAP	102	96	2
TAP	102	192	2
TAP	102	288	1
TAP	102	288	3
TAP	103	0	0
TAP	103	0	4
HLD	103	192	4	96
HLD	103	192	6	96
HLD	104	0	3	96
HLD	104	0	4	96
HLD	104	192	1	96
HLD	104	192	3	96
HLD	105	0	3	96
HLD	105	0	4	96
TAP	105	192	3
TAP	105	192	4
TAP	105	288	4
TAP	105	288	6
TAP	106	0	3
TAP	106	0	4
TAP	106	96	1
TAP	106	96	3
TAP	106	192	3
TAP	106	192	4
TAP	106	288	2
TAP	106	288	5
BST	107	0	0
SUL	107	0	0	96	480	4
BST	107	0	7
SUR	107	0	7	96	480	3
TAP	109	0	1
TAP	109	0	3
TAP	109	96	1
TAP	109	96	3
TAP	109	192	2
TAP	109	288	3
TAP	110	0	4
TAP	110	0	6
TAP	110	96	4
TAP	110	96	6
TAP	110	192	5
TAP	110	288	4
TAP	111	0	2
TAP	111	48	2
TAP	111	96	3
TAP	111	192	5
TAP	111	240	5
TAP	111	288	4
TAP	112	0	1
TAP	112	0	3
TAP	112	96	4
TAP	112	96	6
TAP	112	192	2
TAP	112	192	5
TAP	113	0	6
TAP	113	0	7
TAP	113	96	6
TAP	113	96	7
TAP	113	192	4
TAP	113	192	5
TAP	113	288	2
TAP	113	288	3
TAP	114	0	0
TAP	114	0	1
TAP	114	96	0
TAP	114	96	1
TAP	114	192	2
TAP	114	192	3
TAP	114	288	4
TAP	114	288	5
TAP	115	0	6
TAP	115	0	7
TAP	115	96	0
TAP	115	96	5
TAP	115	192	1
TAP	115	192	6
STR	115	288	2
SLR	115	288	2	96	288	0
TAP	117	0	1
TAP	117	96	2
TAP	117	96	3
TAP	117	192	4
TAP	117	192	5
TAP	117	288	6
TAP	117	288	7
TAP	118	0	4
TAP	118	0	5
TAP	118	96	2
TAP	118	96	3
TAP	118	192	0
TAP	118	192	1
TAP	118	288	0
TAP	118	288	1
TAP	119	0	6
TAP	119	48	6
TAP	119	96	7
TAP	119	192	1
TAP	119	240	1
TAP	119	288	0
TAP	120	0	6
TAP	120	0	7
TAP	120	96	0
TAP	120	96	1
BRK	120	192	2
BRK	120	192	7
TAP	121	0	2
TAP	121	0	3
TAP	121	96	3
TAP	121	96	4
TAP	121	192	4
TAP	121	192	5
TAP	121	288	3
TAP	121	288	4
TAP	122	0	1
TAP	122	0	3
TAP	122	96	3
TAP	122	96	4
TAP	122	192	4
TAP	122	192	6
TAP	122	288	3
TAP	122	288	4
TAP	123	0	0
TAP	123	0	2
TAP	123	96	3
TAP	123	96	4
TAP	123	192	5
TAP	123	192	7
STR	123	288	0
SLR	123	288	0	96	288	4
TAP	125	0	5
TAP	125	48	5
TAP	125	96	4
TAP	125	192	2
TAP	125	240	2
TAP	125	288	3
TAP	126	0	5
TAP	126	48	5
TAP	126	96	3
TAP	126	192	2
TAP	126	240	2
TAP	126	288	4
TAP	127	0	5
TAP	127	48	5
TAP	127	96	0
TAP	127	192	2
TAP	127	240	2
TAP	127	288	7
TAP	128	0	0
TAP	128	0	1
TAP	128	96	2
TAP	128	96	7
TAP	128	192	3
TAP	128	192	6
TAP	129	0	6
TAP	129	48	6
TAP	129	96	7
TAP	129	192	1
TAP	129	240	1
TAP	129	288	0
TAP	130	0	6
TAP	130	48	6
TAP	130	96	0
TAP	130	192	1
TAP	130	240	1
TAP	130	288	7
TAP	131	0	6
TAP	131	48	6
TAP	131	96	3
TAP	131	192	1
TAP	131	240	1
TAP	131	288	4
TAP	132	0	2
TAP	132	0	3
TAP	132	96	4
TAP	132	96	5
BRK	132	192	1
BRK	132	192	6
TAP	133	0	2
TAP	133	48	2
TAP	133	96	4
TAP	133	144	4
TAP	133	192	3
TAP	133	240	3
TAP	133	288	5
TAP	133	336	5
TAP	134	0	7
TAP	134	48	7
TAP	134	96	6
TAP	134	96	7
TAP	134	192	0
TAP	134	192	1
TAP	134	288	2
TAP	134	288	7
TAP	135	0	6
TAP	135	48	6
TAP	135	96	0
TAP	135	144	0
TAP	135	192	7
TAP	135	240	7
TAP	135	288	1
TAP	135	336	1
TAP	136	0	3
TAP	136	48	3
TAP	136	96	2
TAP	136	96	3
BRK	136	192	1
BRK	136	192	4
TAP	137	0	2
TAP	137	0	3
TAP	137	48	2
TAP	137	48	3
TAP	137	96	2
TAP	137	96	3
TAP	137	192	4
TAP	137	192	5
TAP	137	240	4
TAP	137	240	5
TAP	137	288	4
TAP	137	288	5
TAP	138	0	1
TAP	138	0	3
TAP	138	48	1
TAP	138	48	3
TAP	138	96	1
TAP	138	96	3
TAP	138	192	4
TAP	138	192	6
TAP	138	240	4
TAP	138	240	6
TAP	138	288	4
TAP	138	288	6
TAP	139	0	0
TAP	139	0	5
TAP	139	48	0
TAP	139	48	5
TAP	139	96	0
TAP	139	96	5
TAP	139	192	2
TAP	139	192	7
TAP	139	240	2
TAP	139	240	7
TAP	139	288	2
TAP	139	288	7
BRK	140	0	1
BRK	140	0	6
BRK	140	96	3
BRK	140	96	4
BRK	140	192	0
BRK	140	192	7
TAP	141	0	0
TAP	141	48	0
TAP	141	96	7
TAP	141	144	7
TAP	141	192	1
TAP	141	240	1
TAP	141	288	6
TAP	141	336	6
TAP	142	0	1
TAP	142	48	2
TAP	142	96	3
TAP	142	144	4
TAP	142	192	5
TAP	142	240	6
TAP	142	288	7
TAP	142	336	0
HLD	143	0	1	576
HLD	143	0	6	384
BRK	145	0	1
BRK	145	0	6

T_REC_TAP	487
T_REC_BRK	34
T_REC_XTP	0
T_REC_HLD	24
T_REC_XHO	0
T_REC_STR	22
T_REC_BST	2
T_REC_XST	0
T_REC_TTP	0
T_REC_THO	0
T_REC_SLD	24
T_REC_ALL	593
T_NUM_TAP	509
T_NUM_BRK	36
T_NUM_HLD	24
T_NUM_SLD	24
T_NUM_ALL	593
T_JUDGE_TAP	545
T_JUDGE_HLD	58
T_JUDGE_SLD	24
T_JUDGE_ALL	627
TTM_EACHPAIRS	197
TTM_SCR_TAP	254500
TTM_SCR_BRK	93600
TTM_SCR_HLD	24000
TTM_SCR_SLD	36000
TTM_SCR_ALL	408100
TTM_SCR_S	392400
TTM_SCR_SS	404500
TTM_RAT_ACV	10088

