VERSION	0.00.00	1.03.00
FES_MODE	0
BPM_DEF	257.000	257.000	290.001	257.000
MET_DEF	4	4
RESOLUTION	384
CLK_DEF	384
COMPATIBLE_CODE	MA2

BPM	0	0	257.000
BPM	141	0	265.000
BPM	142	0	270.000
BPM	142	96	275.001
BPM	142	192	280.001
BPM	142	288	285.000
BPM	143	0	290.001
MET	0	0	4	4
MET	90	0	4	2
MET	90	192	4	4
MET	107	192	4	2
MET	108	0	4	4

STR	10	0	0
SI_	10	0	0	96	288	3
STR	12	0	7
SI_	12	0	7	96	288	4
STR	14	0	0
SI_	14	0	0	96	288	3
STR	16	0	7
SI_	16	0	7	96	288	4
TAP	18	0	1
TAP	18	192	1
TAP	19	0	1
TAP	19	96	1
TAP	19	192	1
TAP	20	0	2
TAP	20	192	2
TAP	21	0	2
TAP	21	96	2
TAP	21	192	2
TAP	22	0	3
TAP	22	192	3
TAP	23	0	3
TAP	23	96	3
TAP	23	192	3
TAP	24	0	4
TAP	24	96	4
TAP	24	192	4
TAP	24	288	4
BRK	25	0	4
TAP	26	0	5
TAP	26	192	5
TAP	27	0	5
TAP	27	96	5
TAP	27	192	5
TAP	28	0	6
TAP	28	192	6
TAP	29	0	6
TAP	29	96	6
TAP	29	192	6
TAP	30	0	7
TAP	30	96	7
BRK	30	192	7
TAP	31	0	0
TAP	31	96	0
BRK	31	192	0
TAP	32	0	7
TAP	32	96	7
TAP	32	192	7
TAP	32	288	7
TAP	33	0	0
TAP	33	0	7
TAP	34	0	7
TAP	34	192	7
TAP	35	0	6
TAP	35	0	7
TAP	35	192	6
TAP	35	192	7
TAP	36	0	5
TAP	36	192	5
TAP	37	0	4
TAP	37	0	5
TAP	37	192	4
TAP	37	192	5
TAP	38	0	3
TAP	38	192	3
TAP	39	0	3
TAP	39	0	4
TAP	39	192	3
TAP	39	192	4
TAP	40	0	2
TAP	40	192	2
TAP	41	0	1
TAP	41	0	3
HLD	42	0	1	576
HLD	44	0	0	576
HLD	46	0	7	576
BRK	48	0	0
STR	50	0	0
SI_	50	0	0	96	288	4
TAP	52	0	5
TAP	53	0	5
STR	54	0	7
SI_	54	0	7	96	288	2
TAP	56	0	0
TAP	57	0	0
TAP	58	0	0
TAP	58	0	1
TAP	58	192	0
TAP	58	192	1
TAP	59	0	2
TAP	59	0	7
TAP	60	0	6
TAP	60	0	7
TAP	60	192	6
TAP	60	192	7
TAP	61	0	0
TAP	61	0	5
HLD	62	0	4	192
HLD	62	0	5	192
HLD	63	0	2	192
HLD	63	0	3	192
HLD	64	0	4	96
HLD	64	0	5	96
HLD	64	192	2	96
HLD	64	192	3	96
TAP	65	0	4
TAP	65	0	5
TAP	66	0	6
TAP	66	96	6
TAP	66	192	6
TAP	66	288	6
TAP	67	0	6
TAP	67	96	6
TAP	67	192	6
TAP	68	0	7
TAP	68	96	7
TAP	68	192	7
TAP	68	288	7
TAP	69	0	7
TAP	69	96	7
TAP	69	192	7
TAP	70	0	0
TAP	70	96	0
TAP	70	192	0
TAP	70	288	0
TAP	71	0	0
TAP	71	96	0
TAP	71	192	0
TAP	72	0	1
TAP	72	96	1
TAP	72	192	1
TAP	72	288	1
BRK	73	0	1
TAP	74	0	2
TAP	74	96	2
TAP	74	192	2
TAP	74	288	2
TAP	75	0	2
TAP	75	96	2
TAP	75	192	2
TAP	76	0	3
TAP	76	96	3
TAP	76	192	3
TAP	76	288	3
TAP	77	0	3
TAP	77	96	3
TAP	77	192	3
TAP	78	0	4
TAP	78	96	4
TAP	78	192	4
TAP	78	288	4
TAP	79	0	4
TAP	79	96	4
TAP	79	192	4
STR	80	0	5
SI_	80	0	5	96	288	0
BRK	86	96	4
STR	91	192	0
SI_	91	192	0	96	288	3
STR	93	192	7
SI_	93	192	7	96	288	4
STR	95	192	0
SI_	95	192	0	96	288	3
STR	97	192	7
SI_	97	192	7	96	288	4
TAP	99	192	0
TAP	99	192	1
TAP	100	192	0
TAP	100	192	1
TAP	101	192	6
TAP	101	192	7
TAP	102	192	6
TAP	102	192	7
TAP	103	192	0
TAP	103	192	1
TAP	104	0	0
TAP	104	0	1
TAP	104	192	6
TAP	104	192	7
TAP	105	0	6
TAP	105	0	7
TAP	105	192	0
TAP	105	192	7
TAP	106	0	1
TAP	106	0	6
BRK	106	192	2
BRK	106	192	5
TAP	109	0	0
TAP	109	96	0
TAP	109	192	0
TAP	109	288	0
TAP	110	0	1
TAP	110	96	1
TAP	110	192	1
TAP	111	0	2
TAP	111	96	2
TAP	111	192	2
TAP	111	288	2
TAP	112	0	3
TAP	112	96	3
TAP	112	192	3
TAP	113	0	4
TAP	113	96	4
TAP	113	192	4
TAP	113	288	4
TAP	114	0	5
TAP	114	96	5
TAP	114	192	5
TAP	115	0	6
TAP	115	96	6
TAP	115	192	6
TAP	115	288	6
BRK	116	0	7
TAP	117	0	7
TAP	117	96	7
TAP	117	192	7
TAP	117	288	7
TAP	118	0	6
TAP	118	96	6
TAP	118	192	6
TAP	119	0	5
TAP	119	96	5
TAP	119	192	5
TAP	119	288	5
TAP	120	0	4
TAP	120	96	4
TAP	120	192	4
TAP	121	0	3
TAP	121	96	3
TAP	121	192	3
TAP	121	288	3
TAP	122	0	2
TAP	122	96	2
TAP	122	192	2
TAP	123	0	1
TAP	123	96	1
TAP	123	192	1
TAP	123	288	1
BRK	124	0	0
TAP	125	0	0
TAP	125	96	0
TAP	125	192	0
TAP	125	288	0
TAP	126	0	1
TAP	126	96	1
TAP	126	192	1
TAP	126	288	1
TAP	127	0	2
TAP	127	96	2
TAP	127	192	2
TAP	127	288	2
TAP	128	0	3
TAP	128	96	3
TAP	128	192	3
TAP	128	288	3
TAP	129	0	4
TAP	129	96	4
TAP	129	192	4
TAP	129	288	4
TAP	130	0	5
TAP	130	96	5
TAP	130	192	5
TAP	130	288	5
TAP	131	0	6
TAP	131	96	6
TAP	131	192	6
TAP	131	288	6
BRK	132	0	7
TAP	133	0	7
TAP	133	96	7
TAP	133	192	6
TAP	133	288	6
TAP	134	0	5
TAP	134	96	5
TAP	134	192	4
TAP	134	288	4
TAP	135	0	3
TAP	135	96	3
TAP	135	192	2
TAP	135	288	2
TAP	136	0	1
TAP	136	96	1
TAP	136	192	0
TAP	136	288	0
TAP	137	0	7
TAP	137	96	7
TAP	137	192	6
TAP	137	288	6
TAP	138	0	5
TAP	138	96	5
TAP	138	192	4
TAP	138	288	4
TAP	139	0	3
TAP	139	96	3
TAP	139	192	2
TAP	139	288	2
BRK	140	0	1
TAP	141	0	0
TAP	141	96	7
TAP	141	192	0
TAP	141	288	7
TAP	142	0	0
TAP	142	96	7
TAP	142	192	0
TAP	142	288	7
HLD	143	0	0	768
BRK	145	0	7

T_REC_TAP	259
T_REC_BRK	13
T_REC_XTP	0
T_REC_HLD	12
T_REC_XHO	0
T_REC_STR	11
T_REC_BST	0
T_REC_XST	0
T_REC_TTP	0
T_REC_THO	0
T_REC_SLD	11
T_REC_ALL	306
T_NUM_TAP	270
T_NUM_BRK	13
T_NUM_HLD	12
T_NUM_SLD	11
T_NUM_ALL	306
T_JUDGE_TAP	283
T_JUDGE_HLD	38
T_JUDGE_SLD	11
T_JUDGE_ALL	332
TTM_EACHPAIRS	30
TTM_SCR_TAP	135000
TTM_SCR_BRK	33800
TTM_SCR_HLD	12000
TTM_SCR_SLD	16500
TTM_SCR_ALL	197300
TTM_SCR_S	190150
TTM_SCR_SS	196000
TTM_RAT_ACV	10066

