VERSION	0.00.00	1.03.00
FES_MODE	0
BPM_DEF	186.000	186.000	186.000	186.000
MET_DEF	4	4
RESOLUTION	384
CLK_DEF	384
COMPATIBLE_CODE	MA2

BPM	0	0	186.000

TAP	1	0	0
TAP	1	0	7
TAP	1	48	0
TAP	1	48	7
TAP	1	96	1
HLD	1	144	2	96
TAP	1	240	3
STR	1	336	0
SI_	1	336	0	96	48	3
STR	1	336	7
SI_	1	336	7	96	48	4
TAP	2	48	0
TAP	2	48	7
HLD	2	144	5	96
TAP	2	240	4
TAP	2	288	5
TAP	2	336	6
TAP	3	0	0
TAP	3	0	7
TAP	3	48	0
TAP	3	48	7
TAP	3	144	5
TAP	3	160	4
TAP	3	176	3
TAP	3	192	2
TAP	3	336	0
TAP	3	336	7
TAP	4	48	0
TAP	4	48	7
TAP	4	96	1
TAP	4	144	0
TAP	4	144	7
TAP	4	192	6
TAP	4	240	0
TAP	4	240	7
TAP	4	288	1
TAP	4	336	2
TAP	5	0	3
TAP	5	0	4
TAP	5	48	3
TAP	5	48	4
TAP	5	96	5
HLD	5	144	6	96
TAP	5	240	7
STR	5	336	3
SI_	5	336	3	96	48	0
STR	5	336	4
SI_	5	336	4	96	48	7
TAP	6	48	3
TAP	6	48	4
HLD	6	144	1	96
TAP	6	240	0
TAP	6	288	1
TAP	6	336	2
HLD	7	0	3	144
TAP	7	0	4
TAP	7	48	6
TAP	7	96	6
HLD	7	144	4	192
TAP	7	240	1
TAP	7	288	1
HLD	7	336	3	96
TAP	8	48	4
TAP	8	96	3
TAP	8	144	2
TAP	8	192	1
TAP	8	240	0
TAP	8	288	7
TAP	8	336	6
STR	9	0	4
SCL	9	0	4	96	144	0
TAP	9	0	5
TAP	9	48	6
TAP	9	96	7
STR	9	144	0
SCL	9	144	0	96	96	5
STR	9	240	5
SUL	9	240	5	96	96	1
STR	9	336	1
SUL	9	336	1	96	96	5
STR	10	48	5
SCL	10	48	5	96	96	2
STR	10	144	2
SCL	10	144	2	96	96	5
SUL	10	144	2	96	96	5
TAP	11	0	3
TAP	11	0	4
TAP	11	48	2
TAP	11	72	3
TAP	11	96	2
HLD	11	144	1	96
TAP	11	144	4
TAP	11	240	0
TAP	11	288	7
TAP	11	336	3
HLD	11	336	6	96
TAP	12	48	7
TAP	12	96	0
STR	12	144	1
SLR	12	144	1	96	96	0
STR	12	144	6
SLL	12	144	6	96	96	7
TAP	13	0	1
TAP	13	0	6
STR	13	48	5
SCR	13	48	5	96	48	0
TAP	13	96	4
TAP	13	144	5
STR	13	240	2
SCL	13	240	2	96	48	7
TAP	13	288	3
TAP	13	336	2
STR	14	48	5
SCR	14	48	5	96	48	0
TAP	14	96	4
TAP	14	144	5
TAP	14	240	1
STR	14	288	2
SCL	14	288	2	96	96	7
TAP	14	336	3
STR	15	0	7
SCL	15	0	7	96	96	4
STR	15	96	4
SCL	15	96	4	96	96	1
TAP	15	192	1
TAP	15	288	0
STR	15	336	0
SI_	15	336	0	96	48	5
SI_	15	336	0	96	48	6
STR	16	48	0
SI_	16	48	0	96	48	2
SI_	16	48	0	96	48	3
STR	16	144	0
SI_	16	144	0	96	48	4
BRK	16	240	0
TAP	17	0	2
HLD	17	0	6	96
TAP	17	96	4
HLD	17	144	4	96
STR	17	240	6
SI_	17	240	6	96	48	2
TAP	17	288	4
TAP	17	336	6
STR	18	48	2
SI_	18	48	2	96	48	6
TAP	18	96	0
TAP	18	144	2
TAP	18	240	6
TAP	18	288	7
TAP	18	336	0
HLD	19	0	1	96
TAP	19	0	5
TAP	19	96	3
HLD	19	144	3	96
STR	19	240	1
SI_	19	240	1	96	48	5
TAP	19	288	3
TAP	19	336	1
STR	20	48	5
SI_	20	48	5	96	48	1
TAP	20	96	7
TAP	20	144	5
TAP	20	240	1
TAP	20	288	0
TAP	20	288	2
TAP	21	0	4
TAP	21	0	6
STR	21	48	5
SCL	21	48	5	96	48	2
TAP	21	96	7
TAP	21	144	5
STR	21	240	1
SUR	21	240	1	96	48	5
TAP	21	288	0
TAP	21	336	1
STR	22	48	6
SCR	22	48	6	96	48	1
TAP	22	96	5
TAP	22	144	6
TAP	22	240	3
TAP	22	240	4
TAP	22	336	7
TAP	22	360	7
TAP	23	0	0
TAP	23	0	6
TAP	23	96	2
TAP	23	96	3
TAP	23	144	1
TAP	23	144	4
TAP	23	240	6
TAP	23	288	7
STR	23	336	0
SXL	23	336	0	96	192	3
TAP	23	336	5
TAP	24	48	4
TAP	24	96	5
TAP	24	144	6
TAP	24	192	7
TAP	24	240	0
TAP	24	288	1
TAP	24	336	2
TAP	24	336	5
TAP	25	0	2
HLD	25	0	5	96
TAP	25	96	7
HLD	25	144	7	96
STR	25	240	5
SI_	25	240	5	96	48	1
TAP	25	288	7
TAP	25	336	5
STR	26	48	1
SI_	26	48	1	96	48	5
TAP	26	96	3
TAP	26	144	1
TAP	26	240	5
TAP	26	288	4
TAP	26	336	3
HLD	27	0	2	96
TAP	27	0	6
TAP	27	96	0
HLD	27	144	0	96
STR	27	240	2
SI_	27	240	2	96	48	6
TAP	27	288	0
TAP	27	336	2
TAP	28	48	5
STR	28	96	4
SI_	28	96	4	96	48	0
TAP	28	96	6
TAP	28	192	4
STR	28	192	7
SI_	28	192	7	96	48	3
TAP	28	288	0
TAP	28	288	7
TAP	29	0	1
TAP	29	0	3
STR	29	48	2
SCR	29	48	2	96	48	5
TAP	29	96	0
TAP	29	144	2
STR	29	240	6
SUL	29	240	6	96	48	2
TAP	29	288	7
TAP	29	336	6
STR	30	48	1
SCL	30	48	1	96	48	6
TAP	30	96	2
TAP	30	144	1
TAP	30	240	3
TAP	30	240	4
TAP	30	336	0
TAP	30	360	0
TAP	31	0	1
TAP	31	0	7
TAP	31	96	4
TAP	31	96	5
TAP	31	144	3
TAP	31	144	6
TAP	31	240	1
TAP	31	288	0
TAP	31	336	2
STR	31	336	7
SXR	31	336	7	96	192	4
TAP	32	48	3
TAP	32	96	2
TAP	32	144	1
TAP	32	192	0
TAP	32	240	7
TAP	32	288	1
TAP	32	288	6
TAP	33	0	3
TAP	33	0	4
TAP	33	48	2
TAP	33	96	0
TAP	33	96	1
TAP	33	144	6
TAP	33	144	7
TAP	33	192	5
TAP	33	240	3
TAP	33	240	4
TAP	33	288	2
TAP	33	336	0
TAP	33	336	1
TAP	34	0	2
TAP	34	48	3
TAP	34	96	4
TAP	34	96	5
TAP	34	144	6
TAP	34	192	0
TAP	34	192	7
TAP	34	240	1
TAP	34	288	2
TAP	34	288	3
TAP	35	0	0
TAP	35	0	7
TAP	35	48	6
TAP	35	96	4
TAP	35	96	5
TAP	35	144	2
TAP	35	144	3
TAP	35	192	1
TAP	35	240	0
TAP	35	240	7
TAP	35	288	6
TAP	35	336	4
TAP	35	336	5
TAP	36	48	1
TAP	36	96	0
TAP	36	144	2
TAP	36	144	7
TAP	36	192	6
TAP	36	240	7
STR	36	288	0
SI_	36	288	0	96	48	4
TAP	36	288	5
BRK	37	0	0
STR	37	48	7
SI_	37	48	7	96	48	3
BRK	37	144	7
STR	37	240	1
SI_	37	240	1	96	48	3
STR	37	240	4
SI_	37	240	4	96	48	0
BRK	37	336	1
BRK	37	336	4
STR	38	48	3
SI_	38	48	3	96	48	7
STR	38	48	6
SI_	38	48	6	96	48	4
BRK	38	144	3
BRK	38	144	6
TAP	38	240	0
TAP	38	240	4
TAP	38	288	1
TAP	38	288	5
TAP	38	336	2
TAP	38	336	6
STR	39	0	3
SI_	39	0	3	96	48	0
STR	39	0	7
SI_	39	0	7	96	48	4
TAP	39	96	3
TAP	39	96	7
TAP	39	192	1
TAP	39	192	5
STR	39	240	0
SCR	39	240	0	96	48	3
TAP	39	288	7
TAP	39	336	0
STR	40	48	7
SCL	40	48	7	96	48	4
TAP	40	96	0
TAP	40	144	7
TAP	40	240	0
TAP	40	264	7
STR	40	288	0
SI_	40	288	0	96	48	4
TAP	40	312	7
TAP	40	336	0
TAP	40	360	7
STR	41	0	0
SI_	41	0	0	96	48	5
STR	41	96	0
SI_	41	96	0	96	48	3
STR	41	192	0
SCL	41	192	0	96	48	5
STR	41	288	0
SCR	41	288	0	96	48	3
STR	42	0	0
SI_	42	0	0	96	48	5
SI_	42	0	0	96	48	6
STR	42	96	0
SI_	42	96	0	96	48	2
SI_	42	96	0	96	48	3
STR	42	192	0
SF_	42	192	0	96	48	4
BRK	42	288	0
TAP	43	0	2
TAP	43	0	6
TAP	43	48	7
TAP	43	96	0
TAP	43	144	1
STR	43	144	5
SCR	43	144	5	96	96	0
STR	43	240	0
SCR	43	240	0	96	96	3
STR	43	336	3
SCR	43	336	3	96	96	6
STR	44	96	7
SF_	44	96	7	96	48	3
TAP	44	192	7
TAP	44	288	1
TAP	44	288	5
TAP	44	336	1
TAP	44	336	5
STR	45	48	3
SCL	45	48	3	96	48	0
TAP	45	96	4
TAP	45	144	3
STR	45	240	5
SI_	45	240	5	96	48	0
STR	45	240	7
SI_	45	240	7	96	48	3
TAP	45	336	5
TAP	45	336	7
STR	46	48	2
SCR	46	48	2	96	48	5
TAP	46	96	0
TAP	46	144	2
TAP	46	240	6
TAP	46	240	7
TAP	46	288	0
TAP	46	288	5
TAP	47	0	2
TAP	47	0	7
TAP	47	48	6
TAP	47	96	0
TAP	47	96	5
STR	47	144	1
SCL	47	144	1	96	48	6
STR	47	240	5
SCR	47	240	5	96	96	2
TAP	47	336	2
STR	48	96	3
SI_	48	96	3	96	48	7
STR	48	96	4
SI_	48	96	4	96	48	0
TAP	48	192	3
TAP	48	192	4
TAP	48	288	1
TAP	48	288	6
TAP	48	336	4
TAP	49	0	3
TAP	49	0	5
TAP	49	48	2
TAP	49	96	1
TAP	49	96	4
TAP	49	144	5
TAP	49	192	2
TAP	49	192	6
TAP	49	240	1
TAP	49	288	0
TAP	49	288	5
TAP	49	336	6
TAP	50	0	1
TAP	50	0	7
TAP	50	48	2
TAP	50	48	3
TAP	50	96	4
TAP	50	96	5
STR	50	144	0
SCL	50	144	0	96	48	5
STR	50	144	6
SI_	50	144	6	96	48	2
BRK	50	240	0
BRK	50	240	6
TAP	51	0	1
TAP	51	0	5
TAP	51	48	0
TAP	51	96	7
STR	51	144	2
SCL	51	144	2	96	96	7
TAP	51	144	6
STR	51	240	7
SCL	51	240	7	96	96	4
STR	51	336	4
SCL	51	336	4	96	96	1
STR	52	96	0
SF_	52	96	0	96	48	4
TAP	52	192	0
TAP	52	288	2
TAP	52	288	6
TAP	52	336	2
TAP	52	336	6
STR	53	48	4
SCR	53	48	4	96	48	7
TAP	53	96	3
TAP	53	144	4
STR	53	240	0
SI_	53	240	0	96	48	4
STR	53	240	2
SI_	53	240	2	96	48	7
TAP	53	336	0
TAP	53	336	2
STR	54	48	5
SCL	54	48	5	96	48	2
TAP	54	96	7
TAP	54	144	5
TAP	54	240	0
TAP	54	240	1
TAP	54	288	2
TAP	54	288	7
STR	55	0	1
SI_	55	0	1	96	48	5
STR	55	48	6
SI_	55	48	6	96	48	2
TAP	55	96	1
TAP	55	144	6
STR	55	240	0
SI_	55	240	0	96	48	2
STR	55	240	7
SI_	55	240	7	96	48	5
STR	55	336	0
SI_	55	336	0	96	48	4
STR	55	336	7
SI_	55	336	7	96	48	3
STR	56	48	0
SCL	56	48	0	96	48	5
STR	56	48	7
SCR	56	48	7	96	48	2
TAP	56	144	0
TAP	56	144	7
BRK	56	288	1
BRK	56	288	6
TAP	57	0	2
TAP	57	0	4
TAP	57	48	2
TAP	57	48	4
TAP	57	96	3
TAP	57	96	5
TAP	57	144	3
TAP	57	144	5
TAP	57	192	0
TAP	57	216	7
TAP	57	240	0
TAP	57	264	7
TAP	57	288	0
TAP	57	336	3
TAP	57	336	4
TAP	58	48	1
TAP	58	48	6
TAP	58	96	1
TAP	58	96	6
STR	58	192	0
SI_	58	192	0	96	48	4
TAP	58	204	1
TAP	58	216	2
TAP	58	228	3
TAP	58	240	4
TAP	58	252	5
TAP	58	264	6
TAP	58	276	7
TAP	59	0	3
TAP	59	24	5
TAP	59	48	3
TAP	59	72	5
TAP	59	96	2
TAP	59	120	6
TAP	59	144	2
TAP	59	168	6
TAP	59	192	1
TAP	59	216	7
TAP	59	240	1
TAP	59	264	7
TAP	59	288	0
HLD	59	336	0	96
TAP	60	48	7
HLD	60	96	6	96
TAP	60	144	0
TAP	60	192	1
TAP	60	264	2
TAP	60	264	3
TAP	60	336	4
TAP	60	336	5
STR	61	0	4
SCL	61	0	4	96	48	1
TAP	61	0	5
TAP	61	192	7
TAP	61	216	0
TAP	61	240	7
TAP	61	264	0
TAP	61	288	7
TAP	61	336	2
TAP	61	336	5
TAP	62	48	2
STR	62	48	3
SCR	62	48	3	96	48	6
TAP	62	96	1
HLD	62	144	0	144
TAP	62	288	7
TAP	63	0	2
TAP	63	24	3
TAP	63	48	2
TAP	63	72	1
TAP	63	96	2
TAP	63	120	3
TAP	63	144	2
TAP	63	168	1
TAP	63	192	2
TAP	63	216	3
TAP	63	240	2
TAP	63	264	1
TAP	63	288	2
TAP	63	312	3
TAP	63	336	2
TAP	63	360	1
TAP	64	0	2
TAP	64	24	5
TAP	64	48	6
TAP	64	72	5
TAP	64	96	4
TAP	64	120	5
TAP	64	144	6
TAP	64	168	5
TAP	64	192	4
TAP	64	216	5
TAP	64	240	6
TAP	64	264	5
TAP	64	288	4
TAP	64	312	5
TAP	64	336	6
TAP	64	360	5
HLD	65	0	4	72
HLD	65	72	5	72
TAP	65	144	6
HLD	65	192	3	72
HLD	65	264	2	72
TAP	65	336	1
TAP	66	0	0
TAP	66	0	7
TAP	66	48	1
TAP	66	48	6
TAP	66	96	2
TAP	66	96	5
STR	66	144	3
SCL	66	144	3	96	48	0
STR	66	144	4
SCR	66	144	4	96	48	7
STR	67	0	1
SI_	67	0	1	96	48	4
TAP	67	0	4
TAP	67	48	5
TAP	67	96	6
TAP	67	144	7
STR	67	192	0
SI_	67	192	0	96	48	5
TAP	67	240	1
TAP	67	288	2
TAP	67	336	3
HLD	68	0	4	96
TAP	68	48	5
HLD	68	96	6	96
TAP	68	144	4
HLD	68	192	3	96
TAP	68	240	4
TAP	68	288	5
TAP	68	336	4
TAP	69	0	3
STR	69	0	6
SI_	69	0	6	96	48	3
TAP	69	48	2
TAP	69	96	1
TAP	69	144	0
STR	69	192	7
SI_	69	192	7	96	48	2
TAP	69	240	6
TAP	69	288	5
HLD	69	336	4	96
TAP	70	48	0
TAP	70	96	1
TAP	70	96	5
STR	70	144	2
SI_	70	144	2	96	48	5
STR	70	144	6
SI_	70	144	6	96	48	1
TAP	71	0	3
TAP	71	0	7
TAP	71	48	2
TAP	71	48	6
TAP	71	96	1
TAP	71	96	5
STR	71	144	0
SI_	71	144	0	96	48	4
STR	71	144	4
SI_	71	144	4	96	48	6
TAP	71	240	0
TAP	71	240	4
STR	71	336	3
SI_	71	336	3	96	48	1
STR	71	336	7
SI_	71	336	7	96	48	3
TAP	72	48	3
TAP	72	48	7
STR	72	144	0
SCR	72	144	0	96	48	3
STR	72	144	4
SCR	72	144	4	96	48	7
TAP	72	240	0
TAP	72	240	4
TAP	72	336	3
TAP	72	336	7
TAP	73	0	1
TAP	73	0	5
TAP	73	48	3
TAP	73	48	6
TAP	73	96	2
TAP	73	96	4
TAP	73	144	3
TAP	73	144	5
TAP	73	192	1
TAP	73	192	4
TAP	73	240	2
TAP	73	240	6
TAP	73	288	0
TAP	73	288	5
STR	73	336	3
SCL	73	336	3	96	48	0
STR	73	336	7
SCL	73	336	7	96	48	4
STR	74	48	3
SXL	74	48	3	96	336	6
STR	74	48	7
SXL	74	48	7	96	336	2
TAP	74	144	3
TAP	74	144	7
TAP	75	192	2
TAP	75	224	1
TAP	75	256	0
TAP	75	288	7
TAP	75	320	6
TAP	75	352	5
TAP	76	0	3
TAP	76	0	4
TAP	76	96	2
TAP	76	144	2
TAP	76	192	2
TAP	76	240	2
TAP	76	288	2
TAP	76	336	3
TAP	76	336	4
TAP	77	96	6
TAP	77	144	6
TAP	77	192	6
TAP	77	240	6
TAP	77	288	6
TAP	77	336	6
TAP	78	0	3
TAP	78	0	4
TAP	78	96	0
TAP	78	144	0
TAP	78	192	0
TAP	78	240	0
TAP	78	288	0
STR	78	336	3
SCL	78	336	3	96	48	0
STR	78	336	4
SCR	78	336	4	96	48	7
BRK	79	144	1
BRK	79	144	6
STR	80	0	2
SCR	80	0	2	96	192	5
TAP	80	96	6
TAP	80	192	6
TAP	80	288	6
STR	81	0	6
SUL	81	0	6	96	192	2
TAP	81	96	1
TAP	81	192	1
TAP	81	288	1
STR	82	0	1
SCL	82	0	1	96	192	6
TAP	82	96	5
TAP	82	192	5
TAP	82	288	5
TAP	83	0	6
TAP	83	0	7
TAP	83	48	4
TAP	83	48	5
TAP	83	96	2
TAP	83	96	3
STR	83	144	1
SI_	83	144	1	96	48	4
STR	83	144	5
SI_	83	144	5	96	48	0
BRK	83	240	1
BRK	83	240	5
TAP	84	0	0
TAP	84	0	1
TAP	84	48	2
TAP	84	48	3
TAP	84	96	4
TAP	84	96	5
STR	84	144	2
SI_	84	144	2	96	48	7
STR	84	144	6
SI_	84	144	6	96	48	3
BRK	84	240	2
BRK	84	240	6
TAP	85	0	0
TAP	85	0	4
TAP	85	48	1
TAP	85	48	5
TAP	85	96	2
TAP	85	96	6
STR	85	144	3
SCL	85	144	3	96	48	0
STR	85	144	7
SCL	85	144	7	96	48	4
TAP	85	240	3
TAP	85	240	7
HLD	85	336	1	144
TAP	86	0	0
TAP	86	48	7
HLD	86	96	6	96
TAP	86	144	4
HLD	86	192	1	96
TAP	86	240	3
TAP	86	288	6
BRK	86	336	0
BRK	86	336	7
STR	87	48	1
SCR	87	48	1	96	48	4
TAP	87	48	6
TAP	87	96	0
TAP	87	96	7
BRK	87	144	1
STR	87	144	6
SCL	87	144	6	96	48	3
STR	87	240	0
SI_	87	240	0	96	48	3
SI_	87	240	0	96	48	5
BRK	87	240	6
BRK	87	336	0
STR	88	48	4
SI_	88	48	4	96	48	1
SI_	88	48	4	96	48	7
TAP	88	96	3
TAP	88	96	5
BRK	88	144	4
TAP	88	240	0
TAP	88	240	7
TAP	88	288	1
TAP	88	288	6
STR	89	0	2
SI_	89	0	2	96	48	6
STR	89	48	5
SI_	89	48	5	96	48	1
TAP	89	96	2
TAP	89	144	5
STR	89	240	0
SI_	89	240	0	96	48	4
STR	89	240	7
SI_	89	240	7	96	48	3
BST	89	336	0
SCL	89	336	0	96	48	5
BST	89	336	7
SCR	89	336	7	96	48	2
BST	90	48	0
SXL	90	48	0	96	144	3
BST	90	48	7
SXR	90	48	7	96	144	4
BRK	90	144	0
BRK	90	144	7
TAP	90	336	0
TAP	90	360	7
TAP	91	0	1
TAP	91	0	6
TAP	91	48	1
TAP	91	48	6
TAP	91	96	2
TAP	91	96	5
TAP	91	144	2
TAP	91	144	5
TAP	91	192	0
TAP	91	216	7
TAP	91	240	0
TAP	91	264	7
TAP	91	288	0
TAP	91	336	3
TAP	91	336	4
TAP	92	48	1
TAP	92	48	6
TAP	92	96	1
TAP	92	96	6
STR	92	192	7
SI_	92	192	7	96	48	3
TAP	92	204	6
TAP	92	216	5
TAP	92	228	4
TAP	92	240	3
TAP	92	252	2
TAP	92	264	1
TAP	92	276	0
TAP	93	0	2
BST	93	0	4
SCR	93	0	4	96	144	7
TAP	93	48	1
TAP	93	96	0
STR	93	144	7
SCR	93	144	7	96	96	2
STR	93	240	2
SUR	93	240	2	96	96	6
STR	93	336	6
SUR	93	336	6	96	96	2
STR	94	48	2
SCR	94	48	2	96	96	5
STR	94	144	5
SCR	94	144	5	96	96	2
SUR	94	144	5	96	96	2
TAP	95	0	3
TAP	95	0	4
TAP	95	48	5
TAP	95	72	4
TAP	95	96	5
TAP	95	144	3
HLD	95	144	6	96
TAP	95	240	7
TAP	95	288	0
HLD	95	336	1	96
TAP	95	336	4
TAP	96	48	0
TAP	96	96	7
STR	96	144	1
SLR	96	144	1	96	96	0
STR	96	144	6
SLL	96	144	6	96	96	7
TAP	97	0	1
TAP	97	0	6
STR	97	48	2
SCL	97	48	2	96	48	7
TAP	97	96	3
TAP	97	144	2
STR	97	240	6
SI_	97	240	6	96	48	2
TAP	97	288	5
TAP	97	288	7
TAP	97	336	6
STR	98	48	1
SI_	98	48	1	96	48	5
TAP	98	96	0
TAP	98	96	2
TAP	98	144	1
TAP	98	240	6
STR	98	288	5
SCR	98	288	5	96	96	0
TAP	98	336	4
STR	99	0	0
SCR	99	0	0	96	96	3
STR	99	96	3
SCR	99	96	3	96	96	6
TAP	99	192	6
TAP	99	288	7
STR	99	336	7
SI_	99	336	7	96	48	1
SI_	99	336	7	96	48	2
STR	100	48	7
SI_	100	48	7	96	48	4
SI_	100	48	7	96	48	5
STR	100	144	7
SI_	100	144	7	96	48	3
BRK	100	240	7
TAP	101	0	3
TAP	101	0	4
STR	101	48	0
SI_	101	48	0	96	48	4
STR	101	48	7
SI_	101	48	7	96	48	3
TAP	101	64	1
TAP	101	64	6
TAP	101	80	2
TAP	101	80	5
TAP	101	96	3
TAP	101	96	4
TAP	101	144	0
TAP	101	144	7
TAP	101	240	2
TAP	101	240	5
TAP	101	288	3
TAP	101	288	4
BRK	101	336	0
BRK	101	336	7

T_REC_TAP	599
T_REC_BRK	29
T_REC_XTP	0
T_REC_HLD	33
T_REC_XHO	0
T_REC_STR	145
T_REC_BST	5
T_REC_XST	0
T_REC_TTP	0
T_REC_THO	0
T_REC_SLD	160
T_REC_ALL	971
T_NUM_TAP	744
T_NUM_BRK	34
T_NUM_HLD	33
T_NUM_SLD	160
T_NUM_ALL	971
T_JUDGE_TAP	778
T_JUDGE_HLD	71
T_JUDGE_SLD	160
T_JUDGE_ALL	1009
TTM_EACHPAIRS	199
TTM_SCR_TAP	372000
TTM_SCR_BRK	88400
TTM_SCR_HLD	33000
TTM_SCR_SLD	240000
TTM_SCR_ALL	733400
TTM_SCR_S	708100
TTM_SCR_SS	730000
TTM_RAT_ACV	10046

