VERSION	0.00.00	1.03.00
FES_MODE	0
BPM_DEF	186.000	186.000	186.000	186.000
MET_DEF	4	4
RESOLUTION	384
CLK_DEF	384
COMPATIBLE_CODE	MA2

BPM	0	0	186.000

TAP	1	0	1
TAP	1	0	6
TAP	1	48	1
TAP	1	48	6
TAP	1	336	3
TAP	1	336	4
TAP	2	48	3
TAP	2	48	4
TAP	3	0	4
TAP	3	0	6
TAP	3	48	4
TAP	3	48	6
TAP	3	336	1
TAP	3	336	3
TAP	4	48	1
TAP	4	48	3
TAP	4	144	0
TAP	4	144	7
TAP	4	240	0
TAP	4	240	7
TAP	5	0	1
TAP	5	0	6
TAP	5	48	1
TAP	5	48	6
TAP	5	336	3
TAP	5	336	4
TAP	6	48	3
TAP	6	48	4
TAP	7	0	6
STR	7	48	6
SI_	7	48	6	96	48	3
TAP	7	144	7
STR	7	240	1
SI_	7	240	1	96	48	4
TAP	7	336	0
TAP	8	48	7
STR	8	96	7
SI_	8	96	7	96	48	2
SI_	8	96	7	96	48	4
TAP	8	288	1
TAP	8	288	6
TAP	9	0	0
TAP	9	96	6
HLD	9	144	6	96
TAP	9	240	4
STR	9	336	5
SI_	9	336	5	96	48	0
TAP	10	48	4
STR	10	144	2
SI_	10	144	2	96	48	7
TAP	10	240	3
TAP	11	0	7
TAP	11	48	7
TAP	11	96	1
HLD	11	144	1	96
TAP	11	240	3
TAP	11	336	5
TAP	12	48	0
TAP	12	48	7
TAP	12	96	0
TAP	12	96	7
STR	12	144	0
SI_	12	144	0	96	48	3
STR	12	144	7
SI_	12	144	7	96	48	4
TAP	13	0	0
STR	13	48	0
SI_	13	48	0	96	48	4
TAP	13	144	6
STR	13	240	5
SI_	13	240	5	96	48	1
TAP	13	336	2
STR	14	48	3
SI_	14	48	3	96	48	0
TAP	14	144	6
TAP	14	240	7
STR	14	288	7
SCL	14	288	7	96	192	1
BRK	15	336	1
BRK	15	336	3
BRK	16	48	4
BRK	16	48	6
BRK	16	144	2
BRK	16	144	5
BRK	16	240	0
BRK	16	240	7
HLD	17	0	5	96
TAP	17	96	4
TAP	17	192	6
TAP	17	240	6
TAP	17	288	4
HLD	18	0	2	96
TAP	18	96	3
TAP	18	192	1
TAP	18	240	1
TAP	18	288	3
HLD	19	0	5	96
TAP	19	96	4
TAP	19	192	6
TAP	19	240	6
STR	19	288	4
SCR	19	288	4	96	192	1
TAP	20	288	1
TAP	20	288	6
HLD	21	0	2	96
TAP	21	96	3
TAP	21	192	1
TAP	21	240	1
TAP	21	288	3
HLD	22	0	5	96
TAP	22	96	4
TAP	22	192	6
TAP	22	240	6
TAP	22	288	4
TAP	23	0	1
TAP	23	0	4
TAP	23	96	3
TAP	23	96	6
TAP	23	144	3
TAP	23	144	6
TAP	23	240	1
TAP	23	240	3
HLD	23	336	6	96
TAP	24	96	4
TAP	24	96	6
STR	24	192	0
SI_	24	192	0	96	48	3
STR	24	192	7
SI_	24	192	7	96	48	4
HLD	25	0	1	96
TAP	25	96	3
TAP	25	192	0
TAP	25	240	0
TAP	25	288	4
HLD	26	0	6	96
TAP	26	96	4
TAP	26	192	7
TAP	26	240	7
TAP	26	288	3
HLD	27	0	1	96
TAP	27	96	3
TAP	27	192	0
TAP	27	240	0
STR	27	288	4
SCL	27	288	4	96	192	7
TAP	28	288	1
TAP	28	288	6
HLD	29	0	6	96
TAP	29	96	4
TAP	29	192	7
TAP	29	240	7
TAP	29	288	3
HLD	30	0	1	96
TAP	30	96	3
TAP	30	192	0
TAP	30	240	0
TAP	30	288	4
TAP	31	0	2
TAP	31	0	6
TAP	31	96	0
TAP	31	96	4
TAP	31	144	0
TAP	31	144	4
TAP	31	240	3
STR	31	240	7
SCL	31	240	7	96	240	0
TAP	32	288	1
TAP	32	288	6
HLD	33	0	5	96
TAP	33	96	6
HLD	33	144	6	96
HLD	33	240	7	96
STR	33	336	0
SI_	33	336	0	96	48	3
TAP	34	192	3
TAP	34	192	6
TAP	34	288	1
TAP	34	288	4
HLD	35	0	2	96
TAP	35	96	1
HLD	35	144	1	96
HLD	35	240	0	96
STR	35	336	7
SI_	35	336	7	96	48	4
TAP	36	192	0
TAP	36	192	7
TAP	36	288	3
TAP	36	288	4
TAP	37	0	0
TAP	37	0	1
TAP	37	48	0
STR	37	48	1
SI_	37	48	1	96	48	4
TAP	37	144	5
STR	37	240	6
SI_	37	240	6	96	48	3
TAP	37	240	7
TAP	37	336	2
STR	38	48	0
SI_	38	48	0	96	48	4
TAP	38	48	7
TAP	38	144	5
TAP	38	240	2
TAP	38	240	6
TAP	38	288	2
TAP	38	288	6
STR	39	0	1
SI_	39	0	1	96	48	5
STR	39	96	0
SI_	39	96	0	96	48	4
STR	39	192	7
SI_	39	192	7	96	48	3
STR	39	288	6
SCL	39	288	6	96	288	0
BRK	42	288	1
BRK	42	288	6
TAP	43	0	3
TAP	43	0	4
TAP	43	96	6
TAP	43	96	7
STR	43	144	6
SI_	43	144	6	96	48	3
STR	43	144	7
SI_	43	144	7	96	48	2
HLD	43	336	1	336
TAP	44	96	2
TAP	44	192	5
TAP	44	288	6
TAP	44	336	1
TAP	44	336	6
TAP	45	48	0
TAP	45	48	3
TAP	45	96	0
TAP	45	96	3
TAP	45	144	0
STR	45	144	3
SI_	45	144	3	96	48	7
STR	45	336	0
SI_	45	336	0	96	48	5
STR	45	336	1
SI_	45	336	1	96	48	4
BRK	46	144	3
BRK	46	144	6
TAP	46	240	3
TAP	46	240	4
TAP	46	288	3
TAP	46	288	4
TAP	47	0	2
TAP	47	48	2
TAP	47	96	3
TAP	47	144	2
TAP	47	192	5
TAP	47	240	5
TAP	47	288	4
TAP	47	336	5
TAP	48	0	1
TAP	48	48	1
TAP	48	96	0
TAP	48	144	1
TAP	48	192	6
TAP	48	240	6
TAP	48	288	7
TAP	48	336	6
TAP	49	0	0
TAP	49	48	0
TAP	49	96	4
TAP	49	144	4
TAP	49	192	7
TAP	49	240	7
TAP	49	288	3
TAP	50	0	0
TAP	50	0	7
TAP	50	48	0
TAP	50	48	7
TAP	50	96	0
TAP	50	96	7
BST	50	144	1
SI_	50	144	1	96	48	4
BST	50	144	6
SI_	50	144	6	96	48	3
TAP	51	0	3
TAP	51	0	4
TAP	51	96	0
TAP	51	96	1
STR	51	144	0
SI_	51	144	0	96	48	5
STR	51	144	1
SI_	51	144	1	96	48	4
HLD	51	336	6	336
TAP	52	96	5
TAP	52	192	2
TAP	52	288	1
TAP	52	336	1
TAP	52	336	6
TAP	53	48	4
TAP	53	48	7
TAP	53	96	4
TAP	53	96	7
STR	53	144	4
SI_	53	144	4	96	48	0
TAP	53	144	7
STR	53	336	6
SI_	53	336	6	96	48	3
STR	53	336	7
SI_	53	336	7	96	48	2
BRK	54	144	1
BRK	54	144	4
TAP	54	240	3
TAP	54	240	4
TAP	54	288	3
TAP	54	288	4
STR	55	0	7
SI_	55	0	7	96	48	3
TAP	55	96	1
STR	55	144	1
SI_	55	144	1	96	48	5
BRK	55	336	7
BRK	56	48	0
BRK	56	48	6
BST	56	144	1
SCR	56	144	1	96	48	4
BST	56	144	5
SCR	56	144	5	96	48	0
TAP	57	0	2
TAP	57	48	2
TAP	57	96	6
TAP	57	144	6
TAP	57	192	3
TAP	57	240	3
TAP	57	336	0
TAP	57	336	7
TAP	58	48	0
TAP	58	48	7
BRK	58	96	0
BRK	58	96	7
HLD	59	0	3	96
TAP	59	0	4
HLD	59	96	1	96
TAP	59	192	0
TAP	59	288	1
TAP	59	288	7
TAP	60	0	3
HLD	60	0	4	96
HLD	60	96	6	96
TAP	60	192	7
TAP	60	288	0
TAP	60	288	6
HLD	61	0	2	96
TAP	61	0	3
HLD	61	96	0	96
TAP	61	192	7
TAP	61	288	0
STR	61	288	6
SCL	61	288	6	96	192	0
TAP	62	288	3
TAP	62	288	4
STR	63	0	0
SI_	63	0	0	96	48	4
STR	63	96	6
SI_	63	96	6	96	48	2
STR	63	192	1
SI_	63	192	1	96	48	5
STR	63	288	7
SI_	63	288	7	96	48	3
STR	64	0	2
SI_	64	0	2	96	48	6
STR	64	96	4
SI_	64	96	4	96	48	0
STR	64	192	3
SI_	64	192	3	96	48	7
TAP	64	288	6
STR	65	0	0
SI_	65	0	0	96	48	5
STR	65	0	1
SI_	65	0	1	96	48	4
STR	65	192	6
SI_	65	192	6	96	48	3
STR	65	192	7
SI_	65	192	7	96	48	2
BST	66	0	1
SXR	66	0	1	96	192	4
BST	66	0	6
SXL	66	0	6	96	192	3
TAP	67	0	1
TAP	67	48	1
TAP	67	96	3
TAP	67	192	6
TAP	67	240	6
TAP	67	288	4
HLD	68	0	1	96
TAP	68	96	2
HLD	68	192	6	96
TAP	68	288	5
TAP	69	0	2
TAP	69	48	2
TAP	69	96	0
TAP	69	192	5
TAP	69	240	5
TAP	69	288	7
HLD	70	0	2	96
TAP	70	96	1
HLD	70	192	5	96
TAP	70	288	6
TAP	71	0	6
TAP	71	0	7
STR	71	48	6
SI_	71	48	6	96	48	3
TAP	71	48	7
TAP	71	144	2
TAP	71	240	0
STR	71	240	1
SI_	71	240	1	96	48	4
TAP	71	336	5
TAP	72	48	0
STR	72	48	7
SI_	72	48	7	96	48	3
TAP	72	144	2
TAP	72	240	1
TAP	72	240	5
TAP	72	288	1
TAP	72	288	5
STR	73	0	6
SI_	73	0	6	96	48	2
STR	73	96	7
SI_	73	96	7	96	48	3
STR	73	192	0
SI_	73	192	0	96	48	4
STR	73	288	1
SCR	73	288	1	96	288	7
BRK	76	0	3
BRK	76	0	4
TAP	76	336	4
TAP	76	336	5
TAP	78	0	2
TAP	78	0	3
STR	78	336	3
SI_	78	336	3	96	48	0
STR	78	336	4
SI_	78	336	4	96	48	7
TAP	79	144	1
TAP	79	144	6
TAP	79	288	2
TAP	79	288	5
STR	80	0	0
SI_	80	0	0	96	48	4
TAP	80	0	1
TAP	80	192	6
STR	80	192	7
SI_	80	192	7	96	48	3
STR	81	0	0
SI_	81	0	0	96	48	5
TAP	81	0	1
TAP	81	192	6
STR	81	192	7
SI_	81	192	7	96	48	2
STR	82	0	0
SCR	82	0	0	96	192	7
TAP	83	0	0
TAP	83	0	4
TAP	83	48	0
TAP	83	48	4
TAP	83	96	0
TAP	83	96	4
STR	83	144	0
SCR	83	144	0	96	48	3
STR	83	144	4
SCR	83	144	4	96	48	7
TAP	84	0	3
TAP	84	0	7
TAP	84	48	3
TAP	84	48	7
TAP	84	96	3
TAP	84	96	7
STR	84	144	3
SCL	84	144	3	96	48	0
STR	84	144	7
SCL	84	144	7	96	48	4
TAP	85	0	3
TAP	85	0	4
TAP	85	96	1
TAP	85	96	5
STR	85	144	1
SI_	85	144	1	96	48	4
STR	85	144	5
SI_	85	144	5	96	48	0
HLD	85	336	6	336
TAP	86	96	5
TAP	86	192	2
TAP	86	288	1
TAP	86	336	1
TAP	86	336	6
TAP	87	48	0
TAP	87	48	4
TAP	87	96	0
TAP	87	96	4
STR	87	144	0
SI_	87	144	0	96	48	3
STR	87	144	4
SI_	87	144	4	96	48	7
STR	87	336	2
SI_	87	336	2	96	48	7
STR	87	336	6
SI_	87	336	6	96	48	3
BRK	88	144	0
BRK	88	144	4
TAP	88	240	3
TAP	88	240	4
TAP	88	288	3
TAP	88	288	4
STR	89	0	7
SI_	89	0	7	96	48	3
TAP	89	96	1
STR	89	144	1
SI_	89	144	1	96	48	5
BRK	89	336	7
BRK	90	48	0
BRK	90	48	6
BST	90	144	1
SCR	90	144	1	96	48	4
BST	90	144	5
SCR	90	144	5	96	48	0
TAP	91	0	3
TAP	91	0	4
TAP	91	48	3
TAP	91	48	4
TAP	91	96	2
TAP	91	96	5
TAP	91	144	2
TAP	91	144	5
TAP	91	192	1
TAP	91	192	6
TAP	91	240	1
TAP	91	240	6
BRK	91	336	0
BRK	91	336	7
BRK	92	48	0
BRK	92	48	7
BRK	92	96	0
BRK	92	96	7
TAP	93	0	7
TAP	93	96	1
HLD	93	144	1	96
TAP	93	240	3
STR	93	336	2
SI_	93	336	2	96	48	7
TAP	94	48	6
STR	94	144	5
SI_	94	144	5	96	48	0
TAP	94	240	1
TAP	95	0	0
TAP	95	48	0
TAP	95	96	6
HLD	95	144	6	96
TAP	95	240	4
TAP	95	336	2
TAP	96	48	0
TAP	96	48	7
TAP	96	96	0
TAP	96	96	7
STR	96	144	0
SI_	96	144	0	96	48	3
STR	96	144	7
SI_	96	144	7	96	48	4
TAP	97	0	7
STR	97	48	7
SI_	97	48	7	96	48	3
TAP	97	144	1
STR	97	240	2
SI_	97	240	2	96	48	6
TAP	97	336	5
STR	98	48	4
SI_	98	48	4	96	48	7
TAP	98	144	1
TAP	98	240	0
STR	98	288	0
SCR	98	288	0	96	192	6
BRK	99	336	4
BRK	99	336	6
BRK	100	48	1
BRK	100	48	3
BRK	100	144	2
BRK	100	144	5
BRK	100	240	0
BRK	100	240	7
TAP	101	0	1
TAP	101	48	3
TAP	101	96	4
TAP	101	144	6
TAP	101	240	0
TAP	101	240	7
TAP	101	288	0
TAP	101	288	7
BRK	101	336	1
BRK	101	336	6

T_REC_TAP	335
T_REC_BRK	42
T_REC_XTP	0
T_REC_HLD	34
T_REC_XHO	0
T_REC_STR	83
T_REC_BST	8
T_REC_XST	0
T_REC_TTP	0
T_REC_THO	0
T_REC_SLD	92
T_REC_ALL	594
T_NUM_TAP	418
T_NUM_BRK	50
T_NUM_HLD	34
T_NUM_SLD	92
T_NUM_ALL	594
T_JUDGE_TAP	468
T_JUDGE_HLD	83
T_JUDGE_SLD	92
T_JUDGE_ALL	643
TTM_EACHPAIRS	143
TTM_SCR_TAP	209000
TTM_SCR_BRK	130000
TTM_SCR_HLD	34000
TTM_SCR_SLD	138000
TTM_SCR_ALL	511000
TTM_SCR_S	490850
TTM_SCR_SS	506000
TTM_RAT_ACV	10098

