VERSION	0.00.00	1.03.00
FES_MODE	0
BPM_DEF	186.000	186.000	186.000	186.000
MET_DEF	4	4
RESOLUTION	384
CLK_DEF	384
COMPATIBLE_CODE	MA2

BPM	0	0	186.000

TAP	1	0	5
TAP	1	96	5
TAP	1	192	4
TAP	1	288	4
TAP	2	0	3
TAP	2	96	3
TAP	2	192	3
TAP	2	192	4
TAP	3	0	2
TAP	3	96	2
TAP	3	192	3
TAP	3	288	3
TAP	4	0	4
TAP	4	96	4
TAP	4	192	3
TAP	4	192	5
TAP	5	0	6
TAP	5	96	6
TAP	5	192	5
TAP	5	288	5
TAP	6	0	3
TAP	6	0	4
TAP	6	96	3
TAP	6	96	4
TAP	6	192	2
TAP	6	192	5
STR	7	0	4
SI_	7	0	4	96	192	7
STR	8	0	0
SI_	8	0	0	96	192	3
TAP	9	0	6
TAP	9	96	5
TAP	9	192	4
TAP	9	288	3
TAP	10	0	2
TAP	10	96	2
TAP	10	192	1
TAP	10	192	3
TAP	11	0	1
TAP	11	96	2
TAP	11	192	3
TAP	11	288	4
TAP	12	0	5
TAP	12	96	5
TAP	12	192	4
TAP	12	192	6
STR	13	0	7
SCL	13	0	7	96	144	4
STR	14	0	3
SCL	14	0	3	96	144	0
TAP	15	0	6
TAP	15	96	6
TAP	15	96	7
TAP	15	192	0
TAP	15	240	0
BRK	15	336	1
BRK	15	336	7
BRK	16	48	1
BRK	16	48	7
BRK	16	144	0
BRK	16	144	6
BRK	16	240	0
BRK	16	240	6
TAP	17	0	2
TAP	17	96	2
TAP	17	96	3
TAP	17	192	5
TAP	17	288	4
TAP	17	288	5
TAP	18	0	2
TAP	18	96	2
TAP	18	96	3
TAP	18	192	1
TAP	18	192	4
TAP	19	0	5
TAP	19	96	4
TAP	19	96	5
TAP	19	192	2
TAP	19	288	2
TAP	19	288	3
TAP	20	0	5
TAP	20	96	4
TAP	20	96	5
TAP	20	192	3
TAP	20	192	6
TAP	21	0	1
TAP	21	96	0
TAP	21	96	1
TAP	21	192	2
TAP	21	192	7
TAP	22	0	6
TAP	22	96	6
TAP	22	96	7
TAP	22	192	0
TAP	22	192	5
TAP	23	0	3
TAP	23	96	3
TAP	23	192	4
STR	23	288	4
SCR	23	288	4	96	192	7
TAP	25	0	2
TAP	25	96	3
TAP	25	192	1
TAP	25	192	4
TAP	25	288	1
TAP	25	288	4
TAP	26	0	5
TAP	26	96	4
TAP	26	192	3
TAP	26	192	6
TAP	27	0	5
TAP	27	96	4
TAP	27	192	3
TAP	27	192	6
TAP	27	288	3
TAP	27	288	6
TAP	28	0	2
TAP	28	96	3
TAP	28	192	1
TAP	28	192	4
TAP	29	0	1
TAP	29	96	1
TAP	29	192	2
TAP	29	288	2
TAP	29	288	3
TAP	30	0	4
TAP	30	96	5
TAP	30	192	3
TAP	30	192	6
TAP	31	0	3
TAP	31	0	4
TAP	31	96	2
TAP	31	144	2
STR	31	240	1
SCR	31	240	1	96	240	5
TAP	33	0	4
TAP	33	0	6
TAP	33	96	5
TAP	33	192	2
TAP	33	192	4
TAP	33	288	3
TAP	34	0	4
TAP	34	0	6
TAP	34	96	5
TAP	34	192	3
TAP	34	192	4
TAP	35	0	1
TAP	35	0	3
TAP	35	96	2
TAP	35	192	3
TAP	35	192	5
TAP	35	288	4
TAP	36	0	3
TAP	36	96	2
TAP	36	96	4
TAP	36	192	1
TAP	36	192	5
HLD	37	0	4	192
HLD	37	0	5	192
TAP	37	288	3
TAP	37	288	6
HLD	38	0	2	192
HLD	38	0	3	192
TAP	38	288	1
TAP	38	288	4
HLD	39	0	0	192
HLD	39	0	7	192
TAP	39	288	0
TAP	39	288	7
STR	40	0	0
SCR	40	0	0	96	144	3
STR	40	0	7
SCL	40	0	7	96	144	4
HLD	41	0	2	96
HLD	41	0	5	96
HLD	41	192	1	96
HLD	41	192	6	96
HLD	42	0	0	96
HLD	42	0	7	96
BRK	42	192	1
BRK	42	192	6
TAP	43	0	2
TAP	43	96	1
TAP	43	96	3
TAP	43	192	0
TAP	43	240	0
TAP	43	288	7
TAP	44	0	5
TAP	44	96	4
TAP	44	96	6
TAP	44	192	7
TAP	44	240	7
TAP	44	288	0
TAP	45	0	1
TAP	45	0	6
TAP	45	96	1
TAP	45	96	6
TAP	45	192	3
TAP	45	240	3
TAP	45	336	2
TAP	45	336	4
TAP	46	48	3
TAP	46	48	5
BRK	46	144	2
BRK	46	144	6
TAP	47	0	4
TAP	47	0	5
TAP	47	96	6
TAP	47	192	0
TAP	47	192	7
TAP	47	288	1
TAP	47	288	6
TAP	48	0	2
TAP	48	0	3
TAP	48	96	1
TAP	48	192	0
TAP	48	192	7
TAP	48	288	1
TAP	48	288	6
TAP	49	0	5
TAP	49	96	3
TAP	49	96	4
TAP	49	192	2
TAP	49	288	1
TAP	49	288	3
TAP	50	0	0
TAP	50	48	0
BRK	50	144	1
BRK	50	144	7
TAP	51	0	5
TAP	51	96	4
TAP	51	96	6
TAP	51	192	7
TAP	51	240	7
TAP	51	288	0
TAP	52	0	2
TAP	52	96	1
TAP	52	96	3
TAP	52	192	0
TAP	52	240	0
TAP	52	288	7
TAP	53	0	1
TAP	53	0	6
TAP	53	96	2
TAP	53	96	5
TAP	53	192	3
TAP	53	192	4
TAP	53	240	3
TAP	53	240	4
TAP	53	336	4
TAP	53	336	5
TAP	54	48	2
TAP	54	48	3
BRK	54	144	1
BRK	54	144	4
TAP	55	0	1
TAP	55	48	1
TAP	55	144	2
TAP	55	240	3
TAP	55	240	4
BRK	55	336	2
BRK	55	336	5
BRK	56	48	3
BRK	56	48	4
BRK	56	144	1
BRK	56	144	6
HLD	57	0	5	96
TAP	57	96	4
TAP	57	192	3
TAP	57	192	6
TAP	57	288	7
TAP	57	336	7
TAP	58	48	0
TAP	58	96	0
TAP	58	192	1
TAP	58	192	6
HLD	59	0	5	192
TAP	59	96	4
TAP	59	192	3
TAP	59	288	3
HLD	60	0	2	192
TAP	60	96	3
TAP	60	192	4
TAP	60	288	4
HLD	61	0	6	192
TAP	61	96	5
TAP	61	192	4
TAP	61	288	3
TAP	62	0	2
TAP	62	96	3
TAP	62	96	4
TAP	62	192	2
TAP	62	192	5
HLD	63	0	2	96
TAP	63	96	3
HLD	63	192	5	96
TAP	63	288	4
HLD	64	0	1	96
TAP	64	96	3
HLD	64	192	6	96
TAP	64	288	4
HLD	65	0	0	96
HLD	65	0	1	96
HLD	65	192	6	96
HLD	65	192	7	96
STR	66	0	0
SI_	66	0	0	96	192	4
TAP	67	0	5
TAP	67	96	4
TAP	67	96	6
TAP	67	192	0
TAP	67	192	7
STR	67	288	1
SCR	67	288	1	96	192	4
TAP	68	288	7
TAP	69	0	2
TAP	69	96	1
TAP	69	96	3
TAP	69	192	0
TAP	69	192	7
STR	69	288	6
SUR	69	288	6	96	192	3
TAP	70	288	2
TAP	71	0	1
TAP	71	0	3
TAP	71	96	1
TAP	71	96	3
TAP	71	192	2
TAP	71	288	3
TAP	72	0	3
TAP	72	0	4
TAP	72	96	3
TAP	72	96	4
TAP	72	192	4
STR	72	288	5
SCR	72	288	5	96	192	0
STR	73	288	1
SCR	73	288	1	96	384	6
TAP	75	192	0
TAP	75	192	7
HLD	76	0	5	192
TAP	76	96	4
TAP	76	192	4
HLD	77	0	2	192
TAP	77	96	3
TAP	77	192	3
HLD	78	0	5	96
TAP	78	96	4
HLD	78	192	2	96
TAP	78	288	3
TAP	79	0	3
TAP	79	0	4
TAP	79	96	2
TAP	79	96	5
TAP	79	144	2
TAP	79	144	5
HLD	80	0	5	192
HLD	80	192	4	192
HLD	81	0	3	192
HLD	81	192	2	192
HLD	82	0	1	192
TAP	82	192	0
TAP	83	0	7
TAP	83	48	7
TAP	83	96	7
TAP	83	144	0
TAP	83	144	7
TAP	83	240	1
TAP	83	240	6
TAP	84	0	3
TAP	84	48	3
TAP	84	96	3
TAP	84	144	3
TAP	84	144	4
TAP	84	240	2
TAP	84	240	5
BRK	85	0	1
BRK	85	0	3
TAP	85	96	4
TAP	85	96	6
TAP	85	192	0
TAP	85	240	0
TAP	85	288	0
TAP	85	288	7
TAP	86	0	4
TAP	86	0	6
TAP	86	96	1
TAP	86	96	3
TAP	86	192	7
TAP	86	240	7
TAP	86	288	0
TAP	86	288	7
TAP	87	0	1
TAP	87	0	3
TAP	87	96	3
TAP	87	96	4
TAP	87	192	4
TAP	87	192	6
TAP	87	240	4
TAP	87	240	6
TAP	87	336	0
TAP	87	336	1
TAP	88	48	2
TAP	88	48	3
BRK	88	144	1
BRK	88	144	4
TAP	89	0	4
TAP	89	48	4
TAP	89	144	3
TAP	89	144	5
TAP	89	240	2
TAP	89	240	6
BRK	89	336	0
BRK	89	336	1
BRK	90	48	6
BRK	90	48	7
BRK	90	144	0
BRK	90	144	5
TAP	91	0	3
TAP	91	0	4
TAP	91	96	6
TAP	91	96	7
TAP	91	192	0
TAP	91	192	1
TAP	91	288	2
TAP	91	288	7
TAP	91	336	2
TAP	91	336	7
TAP	92	48	0
HLD	92	96	0	192
BRK	92	288	7
TAP	93	0	1
TAP	93	0	3
TAP	93	96	2
TAP	93	192	3
TAP	93	288	3
TAP	93	288	4
TAP	94	0	4
TAP	94	0	6
TAP	94	96	5
TAP	94	192	4
TAP	94	288	3
TAP	94	288	4
TAP	95	0	2
TAP	95	96	1
TAP	95	96	3
TAP	95	192	5
TAP	95	288	4
TAP	95	288	6
TAP	96	0	2
TAP	96	96	1
TAP	96	96	3
TAP	96	192	0
TAP	96	192	4
TAP	97	0	7
TAP	97	96	0
TAP	97	96	6
TAP	97	192	1
TAP	97	192	5
TAP	98	0	0
TAP	98	96	1
TAP	98	96	7
TAP	98	192	2
TAP	98	192	6
HLD	99	0	6	96
TAP	99	96	7
TAP	99	192	6
TAP	99	192	7
TAP	99	240	6
TAP	99	240	7
TAP	99	336	0
TAP	99	336	5
TAP	100	48	2
TAP	100	48	3
TAP	100	144	4
TAP	100	144	5
BRK	100	240	3
BRK	100	240	6
TAP	101	0	4
TAP	101	48	4
TAP	101	144	3
TAP	101	144	5
TAP	101	240	2
TAP	101	240	4
BRK	101	336	1
BRK	101	336	6

T_REC_TAP	388
T_REC_BRK	37
T_REC_XTP	0
T_REC_HLD	35
T_REC_XHO	0
T_REC_STR	13
T_REC_BST	0
T_REC_XST	0
T_REC_TTP	0
T_REC_THO	0
T_REC_SLD	13
T_REC_ALL	486
T_NUM_TAP	401
T_NUM_BRK	37
T_NUM_HLD	35
T_NUM_SLD	13
T_NUM_ALL	486
T_JUDGE_TAP	438
T_JUDGE_HLD	104
T_JUDGE_SLD	13
T_JUDGE_ALL	555
TTM_EACHPAIRS	147
TTM_SCR_TAP	200500
TTM_SCR_BRK	96200
TTM_SCR_HLD	35000
TTM_SCR_SLD	19500
TTM_SCR_ALL	351200
TTM_SCR_S	337100
TTM_SCR_SS	347500
TTM_RAT_ACV	10106

