VERSION	0.00.00	1.03.00
FES_MODE	0
BPM_DEF	186.000	186.000	186.000	186.000
MET_DEF	4	4
RESOLUTION	384
CLK_DEF	384
COMPATIBLE_CODE	MA2

BPM	0	0	186.000

TAP	1	0	3
TAP	1	0	4
TAP	3	0	3
TAP	3	0	4
TAP	4	0	3
TAP	4	96	3
BRK	4	192	3
TAP	5	0	4
TAP	5	0	5
TAP	5	192	5
TAP	6	0	5
TAP	6	192	5
TAP	7	0	2
TAP	7	0	3
TAP	7	192	2
TAP	8	0	2
TAP	8	96	2
TAP	8	192	2
TAP	9	0	1
TAP	9	96	1
TAP	9	192	1
TAP	10	0	0
TAP	10	96	0
TAP	10	192	0
TAP	11	0	7
TAP	11	96	7
TAP	11	192	7
TAP	12	0	6
TAP	12	96	7
TAP	12	192	6
TAP	13	0	7
TAP	13	96	7
TAP	13	192	7
TAP	14	0	0
TAP	14	96	0
TAP	14	192	0
STR	15	0	1
SI_	15	0	1	96	288	4
TAP	17	0	5
TAP	17	96	5
TAP	17	192	5
HLD	18	0	5	192
TAP	19	0	4
TAP	19	96	4
TAP	19	192	4
HLD	20	0	4	192
TAP	21	0	3
TAP	21	96	3
TAP	21	192	3
TAP	22	0	2
TAP	22	96	2
TAP	22	192	2
TAP	23	0	1
TAP	23	96	1
TAP	23	192	1
HLD	24	0	0	192
HLD	24	0	1	192
TAP	25	0	2
TAP	25	96	2
TAP	25	192	2
HLD	26	0	2	192
TAP	27	0	3
TAP	27	96	3
TAP	27	192	3
HLD	28	0	3	192
TAP	29	0	4
TAP	29	96	4
TAP	29	192	4
TAP	30	0	5
TAP	30	96	5
TAP	30	192	5
TAP	31	0	6
TAP	31	96	6
TAP	31	192	6
HLD	32	0	6	192
HLD	32	0	7	192
STR	33	0	6
SI_	33	0	6	96	288	1
TAP	34	192	2
STR	35	0	2
SI_	35	0	2	96	288	5
TAP	36	192	6
STR	37	0	4
SI_	37	0	4	96	288	1
STR	37	0	5
SI_	37	0	5	96	288	0
TAP	38	192	0
TAP	38	192	7
HLD	39	0	1	192
HLD	39	0	6	192
STR	40	0	0
SI_	40	0	0	96	288	3
STR	40	0	7
SI_	40	0	7	96	288	4
TAP	43	0	0
TAP	43	48	0
TAP	43	96	0
TAP	43	192	0
TAP	43	288	0
TAP	43	288	7
TAP	44	0	1
TAP	44	48	1
TAP	44	96	1
TAP	44	192	1
TAP	44	288	0
TAP	44	288	1
TAP	45	0	2
TAP	45	48	2
TAP	45	96	2
TAP	45	192	2
TAP	45	288	2
TAP	45	288	3
TAP	46	0	4
TAP	46	48	4
TAP	46	96	3
TAP	46	144	3
TAP	46	288	2
TAP	46	288	5
TAP	47	0	4
TAP	47	96	4
TAP	47	192	4
TAP	47	192	5
TAP	47	288	4
TAP	47	288	5
TAP	48	0	3
TAP	48	96	3
TAP	48	192	2
TAP	48	192	3
TAP	48	288	2
TAP	48	288	3
HLD	49	0	3	192
HLD	49	0	4	192
TAP	49	288	3
TAP	49	288	4
TAP	50	0	3
TAP	50	48	3
TAP	50	96	4
TAP	50	144	4
BRK	50	288	1
BRK	50	288	6
TAP	51	0	7
TAP	51	48	7
TAP	51	96	7
TAP	51	192	7
TAP	51	288	0
TAP	51	288	7
TAP	52	0	6
TAP	52	48	6
TAP	52	96	6
TAP	52	192	6
TAP	52	288	6
TAP	52	288	7
TAP	53	0	5
TAP	53	48	5
TAP	53	96	5
TAP	53	192	5
TAP	53	288	4
TAP	53	288	5
TAP	54	0	3
TAP	54	48	3
TAP	54	96	4
TAP	54	144	4
TAP	54	288	2
TAP	54	288	5
HLD	55	0	3	144
HLD	55	0	4	144
TAP	55	240	3
TAP	55	240	4
TAP	55	336	2
TAP	55	336	5
TAP	56	48	2
TAP	56	48	5
TAP	56	144	2
TAP	56	144	5
HLD	57	0	5	192
HLD	58	0	3	192
STR	59	0	4
SI_	59	0	4	96	288	0
STR	61	0	2
SI_	61	0	2	96	288	7
STR	63	0	6
SI_	63	0	6	96	288	3
STR	65	0	0
SI_	65	0	0	96	288	4
TAP	67	0	7
TAP	67	96	7
TAP	67	192	0
TAP	67	288	0
HLD	68	0	1	192
TAP	69	0	0
TAP	69	96	0
TAP	69	192	7
TAP	69	288	7
HLD	70	0	6	192
TAP	71	0	5
TAP	71	96	5
TAP	71	192	5
TAP	72	0	4
TAP	72	96	4
TAP	72	192	4
HLD	73	0	3	192
HLD	73	0	4	192
STR	74	0	3
SI_	74	0	3	96	288	0
STR	74	0	4
SI_	74	0	4	96	288	7
HLD	76	0	0	240
HLD	76	0	1	240
HLD	76	336	0	336
HLD	76	336	7	336
HLD	78	0	6	240
HLD	78	0	7	240
HLD	78	336	0	336
HLD	78	336	7	336
TAP	80	0	0
TAP	80	96	0
TAP	80	192	1
TAP	80	288	1
TAP	81	0	2
TAP	81	96	2
TAP	81	192	3
TAP	81	288	3
HLD	82	0	2	192
HLD	82	0	4	192
TAP	83	0	4
TAP	83	48	4
TAP	83	96	3
TAP	83	144	3
TAP	83	288	2
TAP	83	288	5
TAP	84	0	3
TAP	84	48	3
TAP	84	96	4
TAP	84	144	4
TAP	84	288	2
TAP	84	288	5
TAP	85	0	1
TAP	85	48	1
TAP	85	96	1
TAP	85	192	1
TAP	85	288	0
TAP	85	288	1
TAP	86	0	0
TAP	86	48	0
TAP	86	96	0
TAP	86	192	0
TAP	86	288	0
TAP	86	288	7
TAP	87	0	7
TAP	87	48	7
TAP	87	96	7
TAP	87	192	7
TAP	87	288	0
TAP	87	288	7
TAP	88	0	0
TAP	88	48	0
TAP	88	96	7
TAP	88	144	7
TAP	88	288	1
TAP	88	288	6
HLD	89	0	0	144
HLD	89	0	7	144
TAP	89	240	0
TAP	89	240	7
TAP	89	336	1
TAP	89	336	6
TAP	90	48	1
TAP	90	48	6
BRK	90	144	1
BRK	90	144	6
TAP	91	0	1
TAP	91	0	6
TAP	91	96	1
TAP	91	96	6
TAP	91	192	2
TAP	91	192	5
TAP	91	288	2
TAP	91	288	5
TAP	92	0	3
TAP	92	0	4
TAP	92	48	3
TAP	92	48	4
BRK	92	96	3
BRK	92	96	4
TAP	93	0	3
TAP	93	96	3
TAP	93	192	2
TAP	93	288	2
TAP	94	0	1
TAP	94	96	1
TAP	94	192	0
TAP	94	288	0
TAP	94	288	7
TAP	95	0	6
TAP	95	96	6
TAP	95	192	5
TAP	95	288	5
HLD	96	0	3	192
HLD	96	0	4	192
TAP	96	288	2
TAP	96	288	5
HLD	97	0	3	96
HLD	97	144	4	144
HLD	97	336	3	144
HLD	98	144	4	144
HLD	99	0	2	192
HLD	99	0	5	192
TAP	99	336	0
TAP	99	336	7
TAP	100	48	0
TAP	100	48	7
TAP	100	144	0
TAP	100	144	7
STR	100	240	0
SCR	100	240	0	96	384	3
STR	100	240	7
SCL	100	240	7	96	384	4

T_REC_TAP	240
T_REC_BRK	7
T_REC_XTP	0
T_REC_HLD	40
T_REC_XHO	0
T_REC_STR	15
T_REC_BST	0
T_REC_XST	0
T_REC_TTP	0
T_REC_THO	0
T_REC_SLD	15
T_REC_ALL	317
T_NUM_TAP	255
T_NUM_BRK	7
T_NUM_HLD	40
T_NUM_SLD	15
T_NUM_ALL	317
T_JUDGE_TAP	262
T_JUDGE_HLD	167
T_JUDGE_SLD	15
T_JUDGE_ALL	444
TTM_EACHPAIRS	63
TTM_SCR_TAP	127500
TTM_SCR_BRK	18200
TTM_SCR_HLD	40000
TTM_SCR_SLD	22500
TTM_SCR_ALL	208200
TTM_SCR_S	201300
TTM_SCR_SS	207500
TTM_RAT_ACV	10033

