VERSION	0.00.00	1.03.00
FES_MODE	0
BPM_DEF	185.000	185.000	185.000	185.000
MET_DEF	4	4
RESOLUTION	384
CLK_DEF	384
COMPATIBLE_CODE	MA2

BPM	0	0	185.000

TAP	2	0	1
HLD	2	0	5	192
HLD	2	192	1	64
HLD	2	256	3	64
TAP	2	320	2
HLD	3	0	6	64
HLD	3	64	4	64
TAP	3	128	5
HLD	3	192	1	64
HLD	3	256	3	64
TAP	3	320	2
STR	4	0	2
SI_	4	0	2	96	48	7
TAP	4	96	5
STR	4	144	5
SI_	4	144	5	96	48	2
TAP	4	240	0
STR	4	288	0
SI_	4	288	0	96	48	5
TAP	5	0	3
STR	5	48	3
SI_	5	48	3	96	48	6
TAP	5	144	0
STR	5	192	0
SI_	5	192	0	96	48	3
TAP	5	288	7
TAP	6	0	4
TAP	6	0	6
TAP	6	48	6
TAP	6	96	3
TAP	6	96	5
TAP	6	144	5
TAP	6	192	1
TAP	6	192	3
TAP	6	240	1
TAP	6	288	2
TAP	6	288	4
TAP	6	336	2
TAP	7	0	3
TAP	7	24	4
TAP	7	48	1
TAP	7	72	6
TAP	7	96	2
TAP	7	120	5
TAP	7	144	0
TAP	7	168	7
STR	7	192	0
SI_	7	192	0	96	48	4
TAP	7	216	7
TAP	7	240	0
TAP	7	264	7
TAP	7	288	0
BRK	8	0	3
BRK	8	0	6
TAP	8	48	5
TAP	8	72	4
TAP	8	120	4
TAP	8	144	6
TAP	8	192	1
TAP	8	192	4
TAP	8	240	2
TAP	8	264	3
TAP	8	312	3
TAP	8	336	1
TAP	9	0	3
TAP	9	0	6
TAP	9	48	5
TAP	9	72	4
TAP	9	120	4
TAP	9	144	6
TAP	9	192	0
TAP	9	192	7
TAP	9	240	1
TAP	9	288	2
TAP	9	288	4
TAP	9	336	2
TAP	10	0	3
TAP	10	0	6
TAP	10	48	5
TAP	10	72	4
TAP	10	96	5
TAP	10	144	3
TAP	10	144	6
TAP	10	192	7
TAP	10	240	7
TAP	10	264	2
TAP	10	312	2
TAP	10	336	0
TAP	11	0	1
TAP	11	0	4
TAP	11	48	2
TAP	11	72	3
TAP	11	96	2
TAP	11	144	1
TAP	11	144	4
TAP	11	192	0
TAP	11	240	0
TAP	11	264	5
TAP	11	312	5
TAP	11	336	7
TAP	12	0	3
TAP	12	0	6
TAP	12	48	5
TAP	12	72	4
TAP	12	96	5
TAP	12	144	3
TAP	12	144	6
STR	12	192	7
SI_	12	192	7	96	48	3
STR	12	240	1
SI_	12	240	1	96	48	4
TAP	13	0	5
TAP	13	48	5
TAP	13	96	1
TAP	13	96	4
TAP	13	144	2
TAP	13	168	3
TAP	13	216	5
TAP	13	240	4
TAP	13	288	3
TAP	13	288	6
TAP	14	0	1
TAP	14	0	4
TAP	14	48	2
TAP	14	72	3
TAP	14	120	3
TAP	14	144	1
TAP	14	192	3
TAP	14	192	6
TAP	14	240	5
TAP	14	264	4
TAP	14	312	4
TAP	14	336	6
TAP	15	0	1
TAP	15	0	4
TAP	15	48	2
TAP	15	72	3
TAP	15	120	3
TAP	15	144	1
TAP	15	192	0
TAP	15	192	7
TAP	15	240	6
TAP	15	288	3
TAP	15	288	5
TAP	15	336	5
TAP	16	0	1
TAP	16	0	4
TAP	16	48	2
TAP	16	72	3
TAP	16	96	2
TAP	16	144	1
TAP	16	144	4
TAP	16	192	0
TAP	16	240	5
TAP	16	264	4
TAP	16	312	2
TAP	16	336	3
TAP	17	0	1
TAP	17	0	4
TAP	17	48	6
TAP	17	72	7
TAP	17	96	6
TAP	17	144	1
TAP	17	144	5
STR	17	192	3
SCL	17	192	3	96	48	0
STR	17	192	7
SCL	17	192	7	96	48	4
BRK	18	0	1
BRK	18	0	5
TAP	18	96	0
TAP	18	120	7
TAP	18	144	0
TAP	18	192	1
HLD	18	192	6	128
TAP	18	256	7
TAP	18	320	5
HLD	19	0	4	128
TAP	19	0	6
TAP	19	64	5
TAP	19	128	3
TAP	19	192	2
TAP	19	240	2
TAP	19	264	0
TAP	19	312	0
TAP	19	336	1
BRK	20	0	2
BRK	20	0	7
TAP	20	96	7
TAP	20	120	0
TAP	20	144	7
HLD	20	192	1	128
TAP	20	192	6
TAP	20	256	0
TAP	20	320	2
TAP	21	0	1
HLD	21	0	3	128
TAP	21	64	2
TAP	21	128	4
TAP	21	192	5
TAP	21	240	5
TAP	21	264	7
TAP	21	312	7
TAP	21	336	6
BRK	22	0	0
BRK	22	0	5
TAP	22	96	4
TAP	22	120	3
TAP	22	144	4
HLD	22	192	2	128
TAP	22	192	5
TAP	22	256	3
TAP	22	320	1
HLD	23	0	0	128
TAP	23	0	2
TAP	23	64	1
TAP	23	128	7
TAP	23	192	6
TAP	23	240	6
TAP	23	264	4
TAP	23	312	4
TAP	23	336	5
BRK	24	0	3
BRK	24	0	6
TAP	24	96	2
TAP	24	120	3
TAP	24	144	2
TAP	24	192	1
HLD	24	192	4	128
TAP	24	256	3
TAP	24	320	5
HLD	25	0	3	288
BST	25	0	6
SCL	25	0	6	96	192	0
HLD	26	0	2	72
HLD	26	72	4	72
TAP	26	144	1
TAP	26	192	1
TAP	26	224	3
TAP	26	256	1
TAP	26	288	6
TAP	26	320	4
TAP	26	352	6
TAP	27	0	3
TAP	27	24	4
TAP	27	48	3
TAP	27	72	4
TAP	27	96	2
TAP	27	120	5
TAP	27	144	2
TAP	27	168	5
TAP	27	192	1
TAP	27	216	6
TAP	27	240	0
TAP	27	264	7
TAP	27	288	1
TAP	27	288	6
TAP	28	0	3
TAP	28	0	4
STR	28	96	1
SI_	28	96	1	96	48	3
TAP	28	96	3
TAP	28	144	1
STR	28	144	3
SI_	28	144	3	96	48	0
SI_	28	144	3	96	48	6
STR	29	0	5
SI_	29	0	5	96	48	7
TAP	29	0	7
TAP	29	48	5
STR	29	48	7
SI_	29	48	7	96	48	2
SI_	29	48	7	96	48	4
TAP	29	240	3
TAP	29	336	1
TAP	29	336	5
TAP	30	0	1
TAP	30	0	5
TAP	30	96	3
STR	30	96	7
SI_	30	96	7	96	48	3
STR	30	144	3
SI_	30	144	3	96	48	5
STR	30	144	7
SI_	30	144	7	96	48	1
TAP	31	0	1
HLD	31	0	5	96
TAP	31	96	1
HLD	31	144	3	96
TAP	31	144	7
TAP	31	240	7
BRK	31	288	1
BRK	31	288	5
STR	32	0	1
SI_	32	0	1	96	48	3
TAP	32	24	4
TAP	32	48	1
TAP	32	72	4
TAP	32	96	1
TAP	32	144	5
TAP	32	168	5
TAP	32	216	1
TAP	32	240	0
TAP	32	288	2
TAP	32	288	7
STR	33	0	1
SI_	33	0	1	96	48	4
TAP	33	24	5
TAP	33	48	1
TAP	33	72	5
TAP	33	96	1
TAP	33	144	6
TAP	33	168	6
TAP	33	216	2
TAP	33	240	3
TAP	33	288	1
TAP	33	288	4
STR	34	0	5
SI_	34	0	5	96	48	7
TAP	34	24	0
TAP	34	48	5
TAP	34	72	0
TAP	34	96	5
TAP	34	144	1
TAP	34	168	1
TAP	34	216	5
TAP	34	240	4
TAP	34	288	3
TAP	34	288	6
STR	35	0	5
SI_	35	0	5	96	48	0
TAP	35	24	1
TAP	35	48	5
TAP	35	72	1
TAP	35	96	5
TAP	35	144	2
TAP	35	168	2
TAP	35	216	6
TAP	35	240	7
TAP	35	288	0
TAP	35	288	5
TAP	35	336	1
BRK	36	0	2
BRK	36	0	7
TAP	36	96	0
STR	36	96	2
SLL	36	96	2	96	96	3
STR	36	144	0
SI_	36	144	0	96	48	5
TAP	36	144	2
TAP	37	0	4
STR	37	0	6
SLL	37	0	6	96	96	7
STR	37	48	4
SI_	37	48	4	96	48	1
TAP	37	48	6
TAP	37	240	0
TAP	37	336	2
TAP	37	336	6
TAP	38	0	2
TAP	38	0	6
TAP	38	96	0
STR	38	96	4
SI_	38	96	4	96	48	0
STR	38	144	0
SI_	38	144	0	96	48	6
STR	38	144	4
SI_	38	144	4	96	48	2
HLD	39	0	2	96
TAP	39	0	6
TAP	39	96	6
TAP	39	144	0
HLD	39	144	4	96
TAP	39	240	0
BRK	39	288	2
BRK	39	288	6
STR	40	0	6
SI_	40	0	6	96	48	3
TAP	40	24	2
TAP	40	48	6
TAP	40	72	2
TAP	40	96	6
TAP	40	144	1
TAP	40	168	1
TAP	40	216	6
TAP	40	240	7
TAP	40	288	5
TAP	40	312	4
TAP	40	336	5
STR	41	0	2
SI_	41	0	2	96	48	7
TAP	41	24	6
TAP	41	48	2
TAP	41	72	6
TAP	41	96	2
TAP	41	144	5
TAP	41	168	5
TAP	41	216	2
TAP	41	240	3
TAP	41	288	1
TAP	41	312	0
TAP	41	336	1
STR	42	0	6
SCL	42	0	6	96	48	3
TAP	42	24	7
TAP	42	48	6
TAP	42	72	7
TAP	42	96	6
TAP	42	144	1
TAP	42	168	1
TAP	42	216	6
TAP	42	240	7
TAP	42	288	2
TAP	42	312	3
TAP	42	336	1
TAP	42	336	4
STR	43	0	5
SCR	43	0	5	96	48	0
TAP	43	24	4
TAP	43	48	5
TAP	43	72	4
TAP	43	96	5
TAP	43	144	2
TAP	43	168	2
TAP	43	216	5
TAP	43	240	4
TAP	43	288	3
TAP	43	288	6
TAP	43	336	5
TAP	44	0	2
STR	44	0	4
SF_	44	0	4	96	144	0
TAP	45	0	0
TAP	45	16	7
TAP	45	32	0
TAP	45	48	7
TAP	45	64	0
TAP	45	80	7
TAP	45	96	0
TAP	45	112	7
TAP	45	128	0
TAP	45	144	7
TAP	45	160	0
TAP	45	176	7
STR	45	192	0
SI_	45	192	0	96	48	4
BRK	45	288	7
TAP	46	0	6
HLD	46	48	6	96
TAP	46	144	4
HLD	46	192	4	96
TAP	46	288	2
HLD	46	336	2	96
TAP	47	48	0
HLD	47	96	0	96
TAP	47	192	7
TAP	47	288	1
TAP	47	288	6
BRK	48	0	0
TAP	48	0	4
TAP	48	32	1
TAP	48	64	2
TAP	48	96	3
TAP	48	96	6
TAP	48	128	4
TAP	48	160	5
TAP	48	192	1
TAP	48	192	6
TAP	48	224	7
TAP	48	256	0
TAP	48	288	1
TAP	48	288	4
TAP	48	320	2
TAP	48	352	3
TAP	49	0	4
BRK	49	0	7
TAP	49	32	6
TAP	49	64	5
TAP	49	96	1
TAP	49	96	4
TAP	49	128	3
TAP	49	160	2
TAP	49	192	1
TAP	49	192	6
TAP	49	224	0
TAP	49	256	7
TAP	49	288	3
TAP	49	288	6
TAP	49	320	5
TAP	49	352	4
STR	50	0	1
SCR	50	0	1	96	48	4
TAP	50	0	3
TAP	50	96	1
STR	50	144	7
SI_	50	144	7	96	48	3
TAP	50	240	7
TAP	50	288	1
TAP	50	336	2
TAP	51	0	3
STR	51	0	6
SCL	51	0	6	96	48	3
TAP	51	96	6
STR	51	144	0
SI_	51	144	0	96	48	4
TAP	51	240	0
TAP	51	288	6
TAP	51	336	5
STR	52	0	1
SCR	52	0	1	96	48	4
TAP	52	0	4
TAP	52	96	1
STR	52	144	7
SI_	52	144	7	96	48	3
TAP	52	240	7
TAP	52	288	0
TAP	52	336	1
HLD	53	0	2	144
TAP	53	0	4
TAP	53	72	1
TAP	53	144	7
TAP	53	192	3
HLD	53	192	5	144
TAP	53	264	6
TAP	53	336	0
BRK	54	0	1
HLD	54	0	4	320
TAP	54	160	2
TAP	54	176	3
TAP	54	304	2
HLD	54	320	3	400
TAP	55	48	5
TAP	55	64	4
TAP	55	192	5
TAP	55	208	4
TAP	55	336	4
HLD	56	0	3	304
BRK	56	0	6
TAP	56	144	5
TAP	56	160	4
TAP	56	288	5
HLD	56	304	4	416
TAP	57	48	2
TAP	57	64	3
TAP	57	192	2
TAP	57	208	3
TAP	57	336	3
BRK	58	0	2
HLD	58	0	4	576
TAP	58	144	3
TAP	58	192	3
TAP	58	288	5
TAP	58	336	5
TAP	59	48	1
TAP	59	96	1
STR	59	192	0
SI_	59	192	0	96	48	3
SI_	59	192	0	96	48	5
TAP	60	0	2
HLD	60	0	4	192
TAP	60	48	2
TAP	60	96	2
TAP	60	144	2
TAP	60	192	3
TAP	60	240	3
TAP	60	288	3
TAP	60	288	5
TAP	60	336	5
HLD	61	0	2	192
TAP	61	0	4
TAP	61	48	4
TAP	61	96	4
TAP	61	144	4
TAP	61	192	5
TAP	61	240	5
TAP	61	288	4
TAP	61	288	6
TAP	62	0	1
HLD	62	0	4	192
TAP	62	48	1
TAP	62	96	1
TAP	62	144	1
TAP	62	192	1
TAP	62	240	2
TAP	62	288	3
TAP	62	288	4
TAP	62	336	5
HLD	63	0	3	192
TAP	63	0	6
TAP	63	48	6
TAP	63	96	6
TAP	63	144	6
TAP	63	192	6
TAP	63	240	5
TAP	63	288	1
TAP	63	288	4
TAP	64	0	1
TAP	64	24	5
TAP	64	48	1
TAP	64	72	5
TAP	64	96	2
TAP	64	120	6
TAP	64	144	2
TAP	64	168	6
TAP	64	192	3
TAP	64	216	7
TAP	64	240	3
TAP	64	264	7
TAP	64	288	4
TAP	64	312	0
TAP	64	336	4
TAP	64	360	0
TAP	65	0	4
TAP	65	24	3
TAP	65	48	2
TAP	65	72	1
TAP	65	96	7
TAP	65	120	6
TAP	65	144	5
TAP	65	168	4
STR	65	192	7
SI_	65	192	7	96	48	3
TAP	65	216	0
TAP	65	240	1
TAP	65	264	2
TAP	65	288	3
TAP	65	288	7
BRK	66	0	1
BRK	66	0	4
TAP	66	48	2
TAP	66	72	3
TAP	66	120	3
TAP	66	144	0
TAP	66	192	3
TAP	66	192	6
TAP	66	240	5
TAP	66	264	4
TAP	66	312	4
TAP	66	336	7
TAP	67	0	1
TAP	67	0	4
TAP	67	48	2
TAP	67	72	3
TAP	67	120	3
TAP	67	144	0
TAP	67	192	6
TAP	67	192	7
TAP	67	240	5
TAP	67	288	4
TAP	67	288	6
TAP	67	336	2
TAP	68	0	1
TAP	68	0	4
TAP	68	48	2
TAP	68	72	3
TAP	68	96	2
TAP	68	120	3
TAP	68	144	1
TAP	68	144	4
TAP	68	192	1
STR	68	240	1
SCR	68	240	1	96	48	4
TAP	68	264	0
TAP	68	312	0
TAP	68	336	1
TAP	69	0	7
TAP	69	48	5
TAP	69	72	4
TAP	69	96	5
TAP	69	120	4
TAP	69	144	3
TAP	69	144	6
TAP	69	192	6
STR	69	240	6
SCL	69	240	6	96	48	3
TAP	69	264	7
TAP	69	312	7
TAP	69	336	6
TAP	70	0	1
TAP	70	48	2
TAP	70	72	3
TAP	70	96	2
TAP	70	120	3
TAP	70	144	1
TAP	70	144	4
STR	70	192	0
SI_	70	192	0	96	48	4
STR	70	240	6
SI_	70	240	6	96	48	3
TAP	70	288	0
TAP	70	336	6
TAP	71	0	1
TAP	71	48	1
TAP	71	96	2
TAP	71	96	3
TAP	71	144	5
TAP	71	168	4
TAP	71	216	4
TAP	71	240	7
TAP	71	288	0
TAP	71	288	6
TAP	71	336	1
TAP	72	0	2
TAP	72	0	7
TAP	72	48	1
TAP	72	72	0
TAP	72	120	0
TAP	72	144	3
TAP	72	192	0
TAP	72	192	5
TAP	72	240	6
TAP	72	264	7
TAP	72	312	7
TAP	72	336	4
TAP	73	0	2
TAP	73	0	7
TAP	73	48	1
TAP	73	72	0
TAP	73	120	0
TAP	73	144	3
TAP	73	192	4
TAP	73	192	5
TAP	73	240	6
TAP	73	288	5
TAP	73	288	7
TAP	73	336	1
TAP	74	0	2
TAP	74	0	7
TAP	74	48	1
TAP	74	72	0
TAP	74	96	1
TAP	74	120	0
TAP	74	144	2
TAP	74	144	7
TAP	74	192	2
STR	74	240	2
SCL	74	240	2	96	48	7
TAP	74	264	4
TAP	74	312	4
TAP	74	336	2
TAP	75	0	5
TAP	75	48	6
TAP	75	72	7
STR	75	96	6
SI_	75	96	6	96	48	2
TAP	75	120	7
TAP	75	144	0
TAP	75	144	5
STR	75	192	6
SCL	75	192	6	96	48	3
SCR	75	192	6	96	48	1
BRK	76	0	0
BRK	76	0	4
TAP	76	96	0
TAP	76	96	5
TAP	76	120	1
TAP	76	144	2
TAP	76	168	3
TAP	76	192	4
STR	76	192	7
SI_	76	192	7	96	48	4
TAP	76	256	0
TAP	76	320	1
STR	77	0	2
SI_	77	0	2	96	48	7
TAP	77	0	6
TAP	77	64	3
TAP	77	128	4
TAP	77	192	1
TAP	77	192	4
TAP	77	240	6
TAP	77	264	7
TAP	77	312	1
TAP	77	336	0
TAP	78	0	6
TAP	78	0	7
TAP	78	48	6
TAP	78	64	5
TAP	78	80	4
TAP	78	96	3
TAP	78	144	0
TAP	78	144	1
TAP	78	192	1
TAP	78	208	2
TAP	78	224	3
TAP	78	240	4
TAP	78	288	0
TAP	78	288	6
TAP	78	336	6
TAP	78	352	5
TAP	78	368	4
TAP	79	0	3
TAP	79	48	1
TAP	79	48	7
TAP	79	96	1
TAP	79	112	2
TAP	79	128	3
TAP	79	144	4
STR	79	192	0
SI_	79	192	0	96	48	3
STR	79	192	6
SI_	79	192	6	96	48	3
BRK	79	288	0
BRK	79	288	6
TAP	80	0	1
TAP	80	0	5
TAP	80	96	3
TAP	80	96	6
TAP	80	120	2
TAP	80	144	1
TAP	80	168	0
STR	80	192	4
SI_	80	192	4	96	48	7
TAP	80	192	7
TAP	80	256	3
TAP	80	320	2
STR	81	0	1
SI_	81	0	1	96	48	4
TAP	81	0	5
TAP	81	64	0
TAP	81	128	7
TAP	81	192	2
TAP	81	192	7
TAP	81	240	5
TAP	81	264	4
TAP	81	312	2
TAP	81	336	3
TAP	82	0	1
TAP	82	0	7
TAP	82	48	5
TAP	82	64	4
TAP	82	80	3
TAP	82	96	2
TAP	82	144	0
TAP	82	144	6
TAP	82	192	2
TAP	82	208	3
TAP	82	224	4
TAP	82	240	5
TAP	82	288	1
TAP	82	288	7
TAP	82	336	5
TAP	82	352	4
TAP	82	368	3
TAP	83	0	2
TAP	83	48	0
TAP	83	48	6
TAP	83	96	2
TAP	83	112	3
TAP	83	128	4
TAP	83	144	5
STR	83	192	1
SI_	83	192	1	96	48	4
STR	83	192	7
SI_	83	192	7	96	48	4
BRK	83	288	1
BRK	83	288	7
TAP	84	0	2
TAP	84	0	6
TAP	84	96	1
TAP	84	96	4
TAP	84	120	5
TAP	84	144	6
TAP	84	168	7
TAP	84	192	0
STR	84	192	3
SV_	84	192	3	96	48	0
TAP	84	256	4
TAP	84	320	5
TAP	85	0	2
STR	85	0	6
SV_	85	0	6	96	48	3
TAP	85	64	7
TAP	85	128	0
TAP	85	192	0
TAP	85	192	5
TAP	85	240	1
TAP	85	264	3
TAP	85	312	6
TAP	85	336	4
TAP	86	0	0
TAP	86	0	1
TAP	86	48	0
TAP	86	48	1
TAP	86	64	2
TAP	86	80	3
TAP	86	96	4
TAP	86	144	6
TAP	86	144	7
TAP	86	192	6
TAP	86	192	7
TAP	86	208	5
TAP	86	224	4
TAP	86	240	3
TAP	86	288	0
TAP	86	288	1
TAP	86	336	0
TAP	86	336	1
TAP	86	352	2
TAP	86	352	7
TAP	86	368	3
TAP	86	368	6
TAP	87	0	4
TAP	87	0	5
TAP	87	48	6
TAP	87	48	7
TAP	87	96	6
TAP	87	96	7
TAP	87	112	0
TAP	87	112	5
TAP	87	128	1
TAP	87	128	4
TAP	87	144	2
TAP	87	144	3
STR	87	192	0
SSR	87	192	0	96	48	4
STR	87	192	1
SSL	87	192	1	96	48	5
BRK	87	288	0
BRK	87	288	1
TAP	88	0	3
TAP	88	0	6
TAP	88	96	2
TAP	88	120	3
TAP	88	144	4
TAP	88	168	5
TAP	88	192	1
STR	88	192	6
SV_	88	192	6	96	48	1
TAP	88	256	5
TAP	88	320	4
STR	89	0	3
SV_	89	0	3	96	48	6
TAP	89	0	7
TAP	89	64	2
TAP	89	128	1
BRK	89	192	0
BRK	89	192	4
TAP	89	240	6
TAP	89	264	5
TAP	89	264	7
TAP	89	312	2
TAP	89	336	1
TAP	89	336	3
TAP	90	0	5
TAP	90	24	4
TAP	90	48	5
TAP	90	72	4
TAP	90	96	5
TAP	90	120	4
HLD	90	144	6	48
TAP	90	192	2
TAP	90	216	3
TAP	90	240	2
TAP	90	264	3
TAP	90	288	2
TAP	90	312	3
HLD	90	336	1	48
TAP	91	0	6
TAP	91	24	7
TAP	91	48	6
TAP	91	72	7
TAP	91	96	6
TAP	91	120	7
HLD	91	144	5	192
BRK	91	192	0
BRK	91	240	0
BRK	91	288	1
BRK	91	336	1
TAP	92	0	2
TAP	92	24	3
TAP	92	48	2
TAP	92	72	5
TAP	92	96	4
TAP	92	120	5
HLD	92	144	2	48
TAP	92	192	6
TAP	92	216	4
TAP	92	240	6
TAP	92	264	1
TAP	92	288	3
TAP	92	312	1
HLD	92	336	6	48
TAP	93	0	1
TAP	93	24	3
TAP	93	48	2
TAP	93	72	6
TAP	93	96	4
TAP	93	120	5
HLD	93	144	1	192
BRK	93	192	7
BRK	93	240	7
BRK	93	288	6
BRK	93	336	6
TAP	94	0	7
TAP	94	24	4
TAP	94	48	5
TAP	94	72	0
TAP	94	96	3
TAP	94	120	2
HLD	94	144	6	48
TAP	94	192	0
TAP	94	216	3
TAP	94	240	1
TAP	94	264	7
TAP	94	288	4
TAP	94	312	6
HLD	94	336	2	48
TAP	95	0	0
TAP	95	24	3
TAP	95	48	5
TAP	95	72	7
TAP	95	96	4
TAP	95	120	2
HLD	95	144	3	48
TAP	95	192	0
TAP	95	204	7
TAP	95	216	6
TAP	95	228	5
TAP	95	240	4
TAP	95	252	3
TAP	95	264	2
TAP	95	276	1
STR	95	288	0
SI_	95	288	0	96	48	4
TAP	95	300	7
TAP	95	312	6
TAP	95	324	5
TAP	95	336	4
TAP	95	348	3
TAP	95	360	2
TAP	95	372	1
BST	96	0	0
SCR	96	0	0	96	672	7
HLD	96	96	0	576
BRK	98	0	0

T_REC_TAP	811
T_REC_BRK	43
T_REC_XTP	0
T_REC_HLD	46
T_REC_XHO	0
T_REC_STR	64
T_REC_BST	2
T_REC_XST	0
T_REC_TTP	0
T_REC_THO	0
T_REC_SLD	70
T_REC_ALL	1036
T_NUM_TAP	875
T_NUM_BRK	45
T_NUM_HLD	46
T_NUM_SLD	70
T_NUM_ALL	1036
T_JUDGE_TAP	920
T_JUDGE_HLD	156
T_JUDGE_SLD	70
T_JUDGE_ALL	1146
TTM_EACHPAIRS	166
TTM_SCR_TAP	437500
TTM_SCR_BRK	117000
TTM_SCR_HLD	46000
TTM_SCR_SLD	105000
TTM_SCR_ALL	705500
TTM_SCR_S	680000
TTM_SCR_SS	701000
TTM_RAT_ACV	10064

