VERSION	0.00.00	1.03.00
FES_MODE	0
BPM_DEF	185.000	185.000	185.000	185.000
MET_DEF	4	4
RESOLUTION	384
CLK_DEF	384
COMPATIBLE_CODE	MA2

BPM	0	0	185.000

HLD	2	0	5	240
TAP	2	96	4
TAP	2	240	4
TAP	2	288	4
TAP	2	288	5
HLD	3	0	2	240
TAP	3	96	3
TAP	3	240	3
TAP	3	288	2
TAP	3	288	3
TAP	4	0	0
TAP	4	0	7
TAP	4	96	1
STR	4	144	1
SI_	4	144	1	96	48	4
TAP	4	240	7
STR	4	288	7
SI_	4	288	7	96	48	3
TAP	5	0	0
STR	5	48	0
SI_	5	48	0	96	48	4
TAP	5	144	6
STR	5	192	6
SI_	5	192	6	96	48	2
BRK	5	288	1
TAP	6	0	3
TAP	6	0	4
TAP	6	48	3
TAP	6	48	4
TAP	6	96	2
TAP	6	96	5
TAP	6	144	2
TAP	6	144	5
TAP	6	192	1
TAP	6	192	6
TAP	6	240	1
TAP	6	240	6
TAP	6	288	0
TAP	6	288	7
TAP	6	336	0
TAP	6	336	7
TAP	7	0	0
TAP	7	24	7
TAP	7	48	0
TAP	7	72	7
TAP	7	96	0
TAP	7	120	7
TAP	7	144	0
TAP	7	168	7
STR	7	192	0
SI_	7	192	0	96	48	4
BRK	7	288	7
HLD	8	0	6	72
HLD	8	72	5	72
TAP	8	144	4
HLD	8	192	1	72
HLD	8	264	2	72
TAP	8	336	3
HLD	9	0	6	72
HLD	9	72	5	72
TAP	9	144	4
STR	9	192	1
SI_	9	192	1	96	48	5
TAP	9	288	7
TAP	10	0	6
TAP	10	0	7
TAP	10	96	3
TAP	10	144	3
TAP	10	192	5
TAP	10	240	5
TAP	10	288	4
TAP	10	288	6
TAP	11	0	0
TAP	11	0	1
TAP	11	96	4
TAP	11	144	4
TAP	11	192	2
TAP	11	240	2
TAP	11	288	1
TAP	11	288	3
TAP	12	0	6
TAP	12	0	7
TAP	12	96	3
TAP	12	144	3
TAP	12	192	5
TAP	12	240	5
TAP	12	288	4
TAP	12	288	6
TAP	13	0	3
TAP	13	48	4
TAP	13	96	2
STR	13	96	5
SCR	13	96	5	96	96	2
HLD	14	0	1	72
HLD	14	72	2	72
TAP	14	144	3
HLD	14	192	6	72
HLD	14	264	5	72
TAP	14	336	4
HLD	15	0	1	72
HLD	15	72	2	72
TAP	15	144	3
STR	15	192	6
SI_	15	192	6	96	48	2
TAP	15	288	0
TAP	16	0	0
TAP	16	0	1
TAP	16	96	4
TAP	16	144	4
TAP	16	192	2
TAP	16	240	2
TAP	16	288	1
TAP	16	288	3
TAP	17	0	0
TAP	17	0	7
TAP	17	48	0
TAP	17	48	7
STR	17	96	0
SI_	17	96	0	96	48	4
STR	17	96	7
SI_	17	96	7	96	48	3
BRK	17	288	1
BRK	17	288	6
HLD	18	0	2	96
HLD	18	0	5	96
TAP	18	192	1
TAP	18	192	3
TAP	18	256	1
TAP	18	256	3
TAP	18	320	1
TAP	18	320	3
TAP	19	0	2
TAP	19	0	4
TAP	19	64	2
TAP	19	64	4
TAP	19	128	2
TAP	19	128	4
STR	19	192	3
SI_	19	192	3	96	48	0
TAP	19	192	5
HLD	20	0	1	96
HLD	20	0	6	96
TAP	20	192	4
TAP	20	192	6
TAP	20	256	4
TAP	20	256	6
TAP	20	320	4
TAP	20	320	6
TAP	21	0	3
TAP	21	0	5
TAP	21	64	3
TAP	21	64	5
TAP	21	128	3
TAP	21	128	5
TAP	21	192	2
STR	21	192	4
SI_	21	192	4	96	48	7
HLD	22	0	1	96
HLD	22	0	6	96
TAP	22	192	3
TAP	22	192	5
TAP	22	256	3
TAP	22	256	5
TAP	22	320	3
TAP	22	320	5
TAP	23	0	1
TAP	23	0	7
TAP	23	64	1
TAP	23	64	7
TAP	23	128	1
TAP	23	128	7
STR	23	192	1
SI_	23	192	1	96	48	5
TAP	23	192	7
HLD	24	0	6	96
HLD	24	0	7	96
TAP	24	192	2
TAP	24	192	4
TAP	24	256	2
TAP	24	256	4
STR	24	320	2
SCL	24	320	2	96	256	4
TAP	24	320	4
STR	26	0	5
SI_	26	0	5	96	48	2
STR	26	192	1
SI_	26	192	1	96	48	6
STR	27	0	5
SI_	27	0	5	96	48	2
TAP	27	192	1
BRK	27	288	0
BRK	27	288	7
TAP	28	0	3
HLD	28	96	4	96
HLD	28	192	6	96
TAP	28	288	7
HLD	29	0	3	96
HLD	29	96	1	96
TAP	29	192	0
TAP	29	288	1
TAP	29	288	6
TAP	30	0	4
HLD	30	96	3	96
HLD	30	192	1	96
TAP	30	288	0
STR	31	0	0
SCR	31	0	0	96	96	3
STR	31	0	4
SCR	31	0	4	96	96	7
TAP	31	288	2
TAP	31	288	6
TAP	32	0	1
TAP	32	48	1
TAP	32	96	3
TAP	32	144	3
TAP	32	192	2
TAP	32	240	2
TAP	32	288	1
TAP	32	288	3
TAP	33	0	6
TAP	33	48	6
TAP	33	96	4
TAP	33	144	4
TAP	33	192	5
TAP	33	240	5
TAP	33	288	4
TAP	33	288	6
TAP	34	0	2
TAP	34	48	2
TAP	34	96	3
TAP	34	144	3
TAP	34	192	1
TAP	34	240	1
TAP	34	288	0
TAP	34	288	3
TAP	35	0	5
TAP	35	48	5
TAP	35	96	4
TAP	35	144	4
TAP	35	192	6
TAP	35	240	6
TAP	35	288	4
TAP	35	288	7
TAP	36	0	4
HLD	36	96	3	96
HLD	36	192	1	96
TAP	36	288	0
HLD	37	0	4	96
HLD	37	96	6	96
TAP	37	192	7
TAP	37	288	1
TAP	37	288	6
TAP	38	0	3
HLD	38	96	4	96
HLD	38	192	6	96
TAP	38	288	7
STR	39	0	3
SCL	39	0	3	96	96	0
STR	39	0	7
SCL	39	0	7	96	96	4
TAP	39	288	1
TAP	39	288	5
TAP	40	0	6
TAP	40	48	6
TAP	40	96	4
TAP	40	144	4
TAP	40	192	5
TAP	40	240	5
TAP	40	288	4
TAP	40	288	6
TAP	41	0	1
TAP	41	48	1
TAP	41	96	3
TAP	41	144	3
TAP	41	192	2
TAP	41	240	2
TAP	41	288	1
TAP	41	288	3
TAP	42	0	5
TAP	42	48	5
TAP	42	96	4
TAP	42	144	4
TAP	42	192	6
TAP	42	240	6
TAP	42	288	4
TAP	42	288	7
TAP	43	0	2
TAP	43	48	2
TAP	43	96	3
TAP	43	144	3
TAP	43	192	1
TAP	43	240	1
STR	43	288	0
SXL	43	288	0	96	720	3
TAP	43	288	3
TAP	44	0	4
TAP	44	96	4
TAP	44	192	4
TAP	44	288	4
TAP	45	0	4
TAP	45	96	4
STR	45	192	4
SI_	45	192	4	96	48	7
TAP	46	0	2
TAP	46	0	6
TAP	46	48	2
TAP	46	48	6
TAP	46	144	0
TAP	46	144	4
TAP	46	192	0
TAP	46	192	4
TAP	46	288	3
TAP	46	288	7
TAP	46	336	3
TAP	46	336	7
TAP	47	48	1
TAP	47	48	5
TAP	47	96	1
TAP	47	96	5
STR	47	192	6
SI_	47	192	6	96	48	3
STR	47	192	7
SI_	47	192	7	96	48	2
STR	48	0	2
SI_	48	0	2	96	48	5
STR	48	192	6
SI_	48	192	6	96	48	1
STR	49	0	2
SI_	49	0	2	96	48	5
TAP	49	192	6
TAP	49	288	0
TAP	49	288	7
TAP	50	0	3
TAP	50	0	5
TAP	50	96	3
TAP	50	96	5
BST	50	144	3
SI_	50	144	3	96	48	0
BST	50	144	5
SI_	50	144	5	96	48	0
TAP	51	0	2
TAP	51	0	4
TAP	51	96	2
TAP	51	96	4
BST	51	144	2
SI_	51	144	2	96	48	7
BST	51	144	4
SI_	51	144	4	96	48	7
TAP	52	0	2
TAP	52	0	5
TAP	52	96	2
TAP	52	96	5
BST	52	144	2
SI_	52	144	2	96	48	7
BST	52	144	5
SI_	52	144	5	96	48	0
HLD	53	0	2	72
HLD	53	72	3	72
TAP	53	144	4
HLD	53	192	5	72
HLD	53	264	4	72
TAP	53	336	3
STR	54	0	2
SCL	54	0	2	96	576	4
TAP	55	336	5
STR	56	0	5
SCR	56	0	5	96	576	3
TAP	57	336	2
TAP	58	0	2
TAP	58	144	6
HLD	58	192	6	96
TAP	58	288	4
HLD	58	336	4	96
TAP	59	48	3
HLD	59	96	3	96
TAP	59	192	1
TAP	59	288	3
TAP	59	288	4
TAP	60	0	0
TAP	60	0	1
TAP	60	48	0
TAP	60	48	1
TAP	60	96	0
TAP	60	96	1
TAP	60	144	0
TAP	60	144	1
STR	60	192	0
SI_	60	192	0	96	48	5
STR	60	192	1
SI_	60	192	1	96	48	4
TAP	61	0	6
TAP	61	0	7
TAP	61	48	6
TAP	61	48	7
TAP	61	96	6
TAP	61	96	7
TAP	61	144	6
TAP	61	144	7
STR	61	192	6
SI_	61	192	6	96	48	3
STR	61	192	7
SI_	61	192	7	96	48	2
TAP	62	0	4
TAP	62	0	5
TAP	62	48	4
TAP	62	48	5
TAP	62	96	4
TAP	62	96	5
TAP	62	144	4
TAP	62	144	5
STR	62	192	4
SI_	62	192	4	96	48	1
STR	62	192	5
SI_	62	192	5	96	48	0
TAP	63	0	2
TAP	63	0	3
TAP	63	48	2
TAP	63	48	3
TAP	63	96	2
TAP	63	96	3
TAP	63	144	2
TAP	63	144	3
STR	63	192	2
SI_	63	192	2	96	48	7
STR	63	192	3
SI_	63	192	3	96	48	6
TAP	64	0	3
TAP	64	0	4
TAP	64	48	3
TAP	64	48	4
TAP	64	96	2
TAP	64	96	5
TAP	64	144	2
TAP	64	144	5
TAP	64	192	1
TAP	64	192	6
TAP	64	240	1
TAP	64	240	6
TAP	64	288	0
TAP	64	288	7
TAP	64	336	0
TAP	64	336	7
TAP	65	0	7
TAP	65	24	0
TAP	65	48	7
TAP	65	72	0
TAP	65	96	7
TAP	65	120	0
TAP	65	144	7
TAP	65	168	0
STR	65	192	7
SI_	65	192	7	96	48	3
BRK	65	288	0
HLD	66	0	0	72
HLD	66	72	1	72
TAP	66	144	2
HLD	66	192	7	72
HLD	66	264	6	72
TAP	66	336	5
HLD	67	0	0	72
HLD	67	72	1	72
TAP	67	144	2
STR	67	192	6
SI_	67	192	6	96	48	2
TAP	67	288	0
TAP	68	0	0
TAP	68	0	1
TAP	68	48	1
TAP	68	96	6
TAP	68	144	6
TAP	68	192	4
TAP	68	240	4
TAP	68	288	3
TAP	68	288	5
TAP	69	0	6
TAP	69	0	7
TAP	69	48	6
TAP	69	96	1
TAP	69	144	1
TAP	69	192	3
TAP	69	240	3
TAP	69	288	2
TAP	69	288	4
TAP	70	0	0
TAP	70	0	1
TAP	70	48	1
TAP	70	96	6
TAP	70	144	6
TAP	70	192	4
TAP	70	240	4
TAP	70	288	3
TAP	70	288	5
TAP	71	0	4
TAP	71	48	3
STR	71	96	2
SCL	71	96	2	96	96	5
TAP	71	96	5
HLD	72	0	7	72
HLD	72	72	6	72
TAP	72	144	5
HLD	72	192	0	72
HLD	72	264	1	72
TAP	72	336	2
HLD	73	0	7	72
HLD	73	72	6	72
TAP	73	144	5
STR	73	192	1
SI_	73	192	1	96	48	5
TAP	73	288	7
TAP	74	0	6
TAP	74	0	7
TAP	74	48	6
TAP	74	96	1
TAP	74	144	1
TAP	74	192	4
TAP	74	240	4
TAP	74	288	3
TAP	74	288	5
TAP	75	0	0
TAP	75	0	7
TAP	75	48	0
TAP	75	48	7
STR	75	96	0
SI_	75	96	0	96	48	4
STR	75	96	7
SI_	75	96	7	96	48	3
BRK	75	288	1
BRK	75	288	6
STR	76	0	0
SI_	76	0	0	96	48	3
STR	76	0	4
SI_	76	0	4	96	48	7
TAP	76	192	2
TAP	76	192	6
TAP	76	256	4
TAP	76	256	5
TAP	76	320	2
TAP	76	320	3
TAP	77	0	1
TAP	77	0	5
TAP	77	64	2
TAP	77	64	3
TAP	77	128	4
TAP	77	128	5
STR	77	192	2
SI_	77	192	2	96	48	7
STR	77	192	6
SI_	77	192	6	96	48	3
TAP	78	0	0
TAP	78	0	4
TAP	78	96	5
STR	78	144	6
SI_	78	144	6	96	48	3
TAP	78	240	2
STR	78	288	1
SI_	78	288	1	96	48	4
TAP	79	0	5
STR	79	48	6
SI_	79	48	6	96	48	3
TAP	79	144	2
STR	79	192	1
SI_	79	192	1	96	48	4
BRK	79	288	7
STR	80	0	3
SI_	80	0	3	96	48	0
STR	80	0	7
SI_	80	0	7	96	48	4
TAP	80	192	1
TAP	80	192	5
TAP	80	256	2
TAP	80	256	3
TAP	80	320	4
TAP	80	320	5
TAP	81	0	2
TAP	81	0	6
TAP	81	64	4
TAP	81	64	5
TAP	81	128	2
TAP	81	128	3
STR	81	192	1
SI_	81	192	1	96	48	4
STR	81	192	5
SI_	81	192	5	96	48	0
TAP	82	0	3
TAP	82	0	7
TAP	82	96	2
STR	82	144	1
SI_	82	144	1	96	48	4
TAP	82	240	5
STR	82	288	6
SI_	82	288	6	96	48	3
TAP	83	0	2
STR	83	48	1
SI_	83	48	1	96	48	4
TAP	83	144	5
STR	83	192	6
SI_	83	192	6	96	48	3
BRK	83	288	0
STR	84	0	0
SI_	84	0	0	96	48	3
STR	84	0	4
SI_	84	0	4	96	48	7
TAP	84	192	2
TAP	84	192	6
TAP	84	256	1
TAP	84	256	7
TAP	84	320	3
TAP	84	320	5
TAP	85	0	6
TAP	85	0	7
TAP	85	64	2
TAP	85	64	3
TAP	85	128	4
TAP	85	128	5
STR	85	192	2
SI_	85	192	2	96	48	7
STR	85	192	6
SI_	85	192	6	96	48	3
TAP	86	0	0
TAP	86	0	4
TAP	86	96	5
STR	86	144	7
SI_	86	144	7	96	48	4
TAP	86	240	2
STR	86	288	0
SI_	86	288	0	96	48	3
TAP	87	0	5
STR	87	48	7
SI_	87	48	7	96	48	4
TAP	87	144	2
STR	87	192	0
SI_	87	192	0	96	48	3
BRK	87	288	7
STR	88	0	3
SI_	88	0	3	96	48	0
STR	88	0	7
SI_	88	0	7	96	48	4
TAP	88	192	1
TAP	88	192	5
TAP	88	256	0
TAP	88	256	6
TAP	88	320	2
TAP	88	320	4
TAP	89	0	0
TAP	89	0	1
TAP	89	64	4
TAP	89	64	5
TAP	89	128	2
TAP	89	128	3
STR	89	192	1
SI_	89	192	1	96	48	4
STR	89	192	5
SI_	89	192	5	96	48	0
BST	90	0	3
SCL	90	0	3	96	576	4
BRK	90	0	7
TAP	92	0	6
TAP	92	48	6
TAP	92	72	4
TAP	92	120	4
TAP	92	144	7
TAP	92	192	1
TAP	92	240	1
TAP	92	264	3
TAP	92	312	3
TAP	92	336	0
TAP	93	0	6
TAP	93	48	6
TAP	93	72	4
TAP	93	120	4
TAP	93	144	7
BST	93	192	3
SI_	93	192	3	96	48	0
BST	93	192	4
SI_	93	192	4	96	48	7
TAP	94	0	1
TAP	94	48	1
TAP	94	72	3
TAP	94	120	3
TAP	94	144	0
TAP	94	192	6
TAP	94	240	6
TAP	94	264	4
TAP	94	312	4
TAP	94	336	7
TAP	95	0	1
TAP	95	48	1
TAP	95	72	3
TAP	95	120	3
TAP	95	144	0
BRK	95	192	0
BRK	95	192	7
BRK	95	240	1
BRK	95	240	6
BRK	95	288	2
BRK	95	288	5
BRK	95	336	3
BRK	95	336	4
BST	96	96	0
SCR	96	96	0	96	576	7
BRK	96	96	7

T_REC_TAP	462
T_REC_BRK	22
T_REC_XTP	0
T_REC_HLD	53
T_REC_XHO	0
T_REC_STR	72
T_REC_BST	10
T_REC_XST	0
T_REC_TTP	0
T_REC_THO	0
T_REC_SLD	82
T_REC_ALL	701
T_NUM_TAP	534
T_NUM_BRK	32
T_NUM_HLD	53
T_NUM_SLD	82
T_NUM_ALL	701
T_JUDGE_TAP	566
T_JUDGE_HLD	112
T_JUDGE_SLD	82
T_JUDGE_ALL	760
TTM_EACHPAIRS	170
TTM_SCR_TAP	267000
TTM_SCR_BRK	83200
TTM_SCR_HLD	53000
TTM_SCR_SLD	123000
TTM_SCR_ALL	526200
TTM_SCR_S	507350
TTM_SCR_SS	523000
TTM_RAT_ACV	10061

