VERSION	0.00.00	1.03.00
FES_MODE	0
BPM_DEF	185.000	185.000	185.000	185.000
MET_DEF	4	4
RESOLUTION	384
CLK_DEF	384
COMPATIBLE_CODE	MA2

BPM	0	0	185.000

HLD	2	0	2	192
HLD	2	192	3	192
HLD	3	0	4	192
TAP	3	192	5
HLD	4	0	4	144
HLD	4	0	5	144
HLD	4	288	2	144
HLD	4	288	3	144
TAP	5	192	2
TAP	5	192	3
TAP	5	288	2
TAP	5	288	3
TAP	6	0	1
TAP	6	96	1
TAP	6	192	7
TAP	6	288	7
TAP	7	0	0
TAP	7	0	7
TAP	7	96	0
TAP	7	96	7
BRK	7	192	1
BRK	7	192	6
TAP	8	0	2
TAP	8	96	1
TAP	8	96	3
TAP	8	192	5
TAP	8	288	4
TAP	8	288	6
TAP	9	0	0
TAP	9	0	7
TAP	9	96	1
TAP	9	96	6
TAP	9	192	2
TAP	9	192	5
TAP	10	0	2
TAP	10	96	1
TAP	10	96	3
TAP	10	192	0
TAP	10	288	0
TAP	10	288	7
TAP	11	0	6
TAP	11	96	7
TAP	11	192	0
TAP	11	192	5
TAP	12	0	5
TAP	12	96	4
TAP	12	96	6
TAP	12	192	7
TAP	12	288	0
TAP	12	288	7
TAP	13	0	1
TAP	13	96	0
TAP	13	96	1
TAP	13	192	2
TAP	13	192	7
TAP	14	0	5
TAP	14	96	4
TAP	14	96	6
TAP	14	192	2
TAP	14	288	1
TAP	14	288	3
TAP	15	0	0
TAP	15	0	7
TAP	15	96	1
TAP	15	96	6
TAP	15	192	2
TAP	15	192	5
TAP	16	0	6
TAP	16	96	5
TAP	16	96	7
TAP	16	192	4
TAP	16	288	3
TAP	16	288	4
TAP	17	0	2
TAP	17	0	3
TAP	17	96	4
TAP	17	96	5
TAP	17	192	3
TAP	17	192	6
STR	18	0	7
SLL	18	0	7	96	288	3
TAP	19	192	3
TAP	19	288	3
STR	20	0	2
SLR	20	0	2	96	288	6
TAP	21	192	7
TAP	21	288	7
STR	22	0	0
SLR	22	0	0	96	288	4
TAP	23	192	5
TAP	23	288	3
TAP	23	288	4
TAP	24	0	2
TAP	24	96	3
TAP	24	96	4
TAP	24	192	5
TAP	24	288	3
TAP	24	288	4
BRK	25	0	1
BRK	25	0	6
HLD	26	0	2	192
HLD	26	192	3	192
TAP	27	0	4
TAP	27	96	4
BRK	27	192	3
BRK	27	192	5
HLD	28	0	5	384
TAP	28	96	4
TAP	28	192	4
TAP	28	288	4
TAP	29	0	4
TAP	29	96	2
TAP	29	96	3
TAP	29	192	1
TAP	29	192	4
HLD	30	0	6	384
TAP	30	96	4
TAP	30	192	4
TAP	30	288	4
STR	31	0	4
SCL	31	0	4	96	192	0
TAP	32	0	7
TAP	32	96	6
TAP	32	192	4
TAP	32	192	5
TAP	32	288	4
TAP	32	288	5
TAP	33	0	3
TAP	33	96	2
TAP	33	192	1
TAP	33	192	4
TAP	34	0	2
TAP	34	96	3
TAP	34	192	4
TAP	34	192	5
TAP	34	288	4
TAP	34	288	5
TAP	35	0	6
TAP	35	96	7
TAP	35	192	0
TAP	35	192	5
HLD	36	0	2	384
TAP	36	96	3
TAP	36	192	3
TAP	36	288	3
TAP	37	0	3
TAP	37	96	3
TAP	37	96	4
TAP	37	192	2
TAP	37	192	5
HLD	38	0	1	288
TAP	38	96	3
TAP	38	192	3
TAP	38	288	3
STR	39	0	4
SCR	39	0	4	96	192	0
TAP	40	0	1
TAP	40	96	1
TAP	40	192	2
TAP	40	192	3
TAP	40	288	4
TAP	40	288	5
TAP	41	0	6
TAP	41	96	7
TAP	41	192	0
TAP	41	192	5
TAP	42	0	2
TAP	42	96	2
TAP	42	192	0
TAP	42	192	1
TAP	42	288	6
TAP	42	288	7
TAP	43	0	5
TAP	43	96	6
TAP	43	96	7
TAP	43	192	0
TAP	43	192	5
HLD	44	0	1	192
HLD	44	0	6	192
TAP	45	0	2
TAP	45	0	5
TAP	45	96	3
TAP	45	96	4
BRK	45	192	1
BRK	45	192	6
HLD	46	0	5	192
TAP	46	96	4
TAP	46	192	4
TAP	46	288	3
TAP	46	288	4
HLD	47	0	2	192
TAP	47	96	3
TAP	47	192	3
STR	47	288	1
SUL	47	288	1	96	192	3
STR	48	288	6
SUR	48	288	6	96	192	4
TAP	49	288	3
HLD	50	0	3	144
HLD	50	0	4	144
TAP	50	288	3
TAP	50	288	4
HLD	51	0	2	144
HLD	51	0	5	144
TAP	51	288	2
TAP	51	288	5
HLD	52	0	1	144
HLD	52	0	6	144
TAP	52	288	0
TAP	52	288	7
HLD	53	0	1	96
HLD	53	0	3	96
HLD	53	192	4	96
HLD	53	192	6	96
BST	54	0	3
SUR	54	0	3	96	480	4
BST	56	0	4
SCR	56	0	4	96	480	3
HLD	58	0	2	192
TAP	58	96	3
TAP	58	192	3
HLD	59	0	5	192
TAP	59	96	4
TAP	59	192	4
HLD	60	0	2	192
TAP	60	96	4
TAP	60	192	3
HLD	61	0	5	192
TAP	61	96	3
TAP	61	192	4
HLD	62	0	1	192
TAP	62	96	7
TAP	62	192	0
HLD	63	0	6	192
TAP	63	96	0
TAP	63	192	7
TAP	64	0	0
TAP	64	48	0
TAP	64	96	0
TAP	64	192	7
TAP	64	240	7
TAP	64	288	7
TAP	65	0	1
TAP	65	0	6
TAP	65	96	3
TAP	65	96	4
BRK	65	192	0
BRK	65	192	7
HLD	66	0	1	96
TAP	66	96	3
HLD	66	192	6	96
TAP	66	288	4
HLD	67	0	1	96
TAP	67	96	0
TAP	67	192	2
TAP	67	192	7
TAP	68	0	4
TAP	68	0	6
TAP	68	96	4
TAP	68	96	6
TAP	68	192	7
TAP	68	240	7
TAP	68	288	0
TAP	69	0	1
TAP	69	0	3
TAP	69	96	3
TAP	69	96	4
TAP	69	192	2
TAP	69	192	5
TAP	70	0	1
TAP	70	0	3
TAP	70	96	1
TAP	70	96	3
TAP	70	192	0
TAP	70	240	0
TAP	70	288	7
TAP	71	0	4
TAP	71	0	6
TAP	71	96	3
TAP	71	96	4
BRK	71	192	1
BRK	71	192	3
HLD	72	0	6	96
TAP	72	96	7
HLD	72	192	1	96
TAP	72	288	0
HLD	73	0	6	96
TAP	73	96	4
TAP	73	192	1
TAP	73	192	3
TAP	74	0	1
TAP	74	0	4
TAP	74	96	1
TAP	74	96	4
TAP	74	192	0
TAP	74	240	0
TAP	74	288	7
TAP	75	0	3
TAP	75	0	6
TAP	75	96	3
TAP	75	96	4
BRK	75	192	1
BRK	75	192	4
STR	76	0	0
SV_	76	0	0	96	192	3
STR	76	0	7
SV_	76	0	7	96	192	4
TAP	77	192	2
TAP	77	192	5
STR	78	0	1
SI_	78	0	1	96	96	4
STR	78	288	6
SI_	78	288	6	96	96	3
TAP	79	192	1
TAP	79	288	0
TAP	79	288	1
STR	80	0	0
SV_	80	0	0	96	192	5
STR	80	0	1
SV_	80	0	1	96	192	4
TAP	81	192	5
TAP	81	288	5
STR	82	0	5
SI_	82	0	5	96	96	2
STR	82	288	1
SI_	82	288	1	96	96	6
TAP	83	192	5
TAP	83	288	4
TAP	83	288	5
STR	84	0	4
SV_	84	0	4	96	192	1
STR	84	0	5
SV_	84	0	5	96	192	0
TAP	85	192	7
TAP	85	288	7
STR	86	0	7
SUL	86	0	7	96	96	3
STR	86	288	2
SUL	86	288	2	96	96	6
TAP	87	192	4
TAP	87	192	5
TAP	87	288	3
TAP	87	288	6
TAP	88	0	0
TAP	88	0	7
TAP	88	96	1
TAP	88	96	3
TAP	88	192	3
TAP	88	192	4
STR	88	288	5
SCR	88	288	5	96	288	3
TAP	90	0	1
TAP	90	96	2
TAP	90	96	3
TAP	90	192	4
TAP	90	192	5
TAP	90	288	3
TAP	90	288	6
TAP	91	0	5
TAP	91	96	6
TAP	91	96	7
TAP	91	192	0
TAP	91	192	5
TAP	92	0	1
TAP	92	0	3
TAP	92	96	3
TAP	92	96	4
TAP	92	192	4
TAP	92	192	6
TAP	92	288	3
TAP	92	288	4
TAP	93	0	1
TAP	93	0	3
TAP	93	96	3
TAP	93	96	4
TAP	93	192	1
TAP	93	192	6
TAP	94	0	6
TAP	94	0	7
TAP	94	96	4
TAP	94	96	5
TAP	94	192	2
TAP	94	192	3
TAP	94	288	0
TAP	94	288	1
TAP	95	0	0
TAP	95	0	7
TAP	95	96	5
TAP	95	96	6
TAP	95	192	3
TAP	95	192	4
TAP	95	288	1
TAP	95	288	2
TAP	96	0	0
TAP	96	0	7
BST	96	96	7
SLL	96	96	7	96	576	2

T_REC_TAP	298
T_REC_BRK	14
T_REC_XTP	0
T_REC_HLD	39
T_REC_XHO	0
T_REC_STR	20
T_REC_BST	3
T_REC_XST	0
T_REC_TTP	0
T_REC_THO	0
T_REC_SLD	23
T_REC_ALL	397
T_NUM_TAP	318
T_NUM_BRK	17
T_NUM_HLD	39
T_NUM_SLD	23
T_NUM_ALL	397
T_JUDGE_TAP	335
T_JUDGE_HLD	140
T_JUDGE_SLD	23
T_JUDGE_ALL	498
TTM_EACHPAIRS	116
TTM_SCR_TAP	159000
TTM_SCR_BRK	44200
TTM_SCR_HLD	39000
TTM_SCR_SLD	34500
TTM_SCR_ALL	276700
TTM_SCR_S	266750
TTM_SCR_SS	275000
TTM_RAT_ACV	10061

