VERSION	0.00.00	1.03.00
FES_MODE	0
BPM_DEF	185.000	185.000	185.000	185.000
MET_DEF	4	4
RESOLUTION	384
CLK_DEF	384
COMPATIBLE_CODE	MA2

BPM	0	0	185.000

TAP	6	0	3
TAP	6	96	3
TAP	6	192	3
TAP	7	0	4
TAP	7	96	4
TAP	7	192	4
BRK	7	288	3
BRK	7	288	4
TAP	8	0	2
TAP	8	0	3
TAP	8	192	2
TAP	8	192	3
TAP	9	0	2
TAP	9	0	3
TAP	9	192	3
TAP	9	288	3
TAP	10	0	4
TAP	10	96	4
TAP	10	192	4
TAP	11	0	5
TAP	11	96	5
TAP	11	192	5
TAP	12	0	6
TAP	12	96	6
TAP	12	192	6
HLD	13	0	7	192
TAP	14	0	6
TAP	14	0	7
TAP	14	192	6
TAP	14	192	7
TAP	15	0	6
TAP	15	0	7
TAP	15	192	7
TAP	15	288	7
TAP	16	0	0
TAP	16	96	0
TAP	16	192	0
TAP	17	0	1
TAP	17	96	1
TAP	17	192	1
STR	18	0	2
SI_	18	0	2	96	288	5
STR	20	0	6
SI_	20	0	6	96	288	1
STR	22	0	0
SI_	22	0	0	96	288	3
TAP	24	0	4
TAP	24	96	4
TAP	24	192	3
TAP	24	288	3
HLD	25	0	4	288
HLD	26	0	3	288
TAP	27	0	4
TAP	27	96	3
TAP	27	192	4
BRK	27	288	2
BRK	27	288	5
TAP	28	0	1
TAP	28	96	1
TAP	28	192	0
TAP	28	192	1
TAP	29	0	7
TAP	29	96	7
TAP	29	192	0
TAP	29	288	0
TAP	30	0	6
TAP	30	96	6
TAP	30	192	6
TAP	30	192	7
TAP	31	0	0
TAP	31	0	7
TAP	31	96	0
TAP	31	96	7
TAP	31	192	1
TAP	31	192	6
TAP	32	0	5
TAP	32	96	5
TAP	32	192	4
TAP	32	288	4
TAP	33	0	3
TAP	33	96	3
TAP	33	192	2
TAP	33	288	2
TAP	34	0	3
TAP	34	96	3
TAP	34	192	4
TAP	34	288	4
TAP	35	0	5
TAP	35	96	5
TAP	35	192	6
TAP	35	288	6
STR	36	0	7
SI_	36	0	7	96	288	3
STR	38	0	0
SI_	38	0	0	96	288	4
TAP	40	0	2
TAP	40	96	2
TAP	40	192	3
TAP	40	288	3
TAP	41	0	4
TAP	41	96	4
TAP	41	192	5
TAP	41	288	5
TAP	42	0	4
TAP	42	96	4
TAP	42	192	3
TAP	42	288	3
TAP	43	0	2
TAP	43	96	2
TAP	43	192	1
TAP	43	192	3
HLD	44	0	1	192
HLD	45	0	0	192
STR	46	0	7
SI_	46	0	7	96	288	3
TAP	47	192	2
TAP	47	288	2
HLD	48	0	3	192
HLD	49	0	4	192
TAP	50	0	5
TAP	50	96	5
TAP	50	192	4
TAP	50	192	6
TAP	51	0	2
TAP	51	96	2
TAP	51	192	1
TAP	51	192	3
TAP	52	0	0
TAP	52	96	0
TAP	52	192	1
TAP	52	192	7
TAP	53	0	7
TAP	53	96	7
TAP	53	192	6
TAP	53	288	6
STR	54	0	5
SCL	54	0	5	96	288	2
STR	56	0	1
SCL	56	0	1	96	288	6
STR	58	0	5
SCL	58	0	5	96	288	2
TAP	60	0	0
TAP	60	96	0
TAP	60	192	0
TAP	61	0	7
TAP	61	96	7
TAP	61	192	7
TAP	62	0	0
TAP	62	0	7
TAP	62	96	0
TAP	62	96	7
TAP	62	192	0
TAP	62	192	7
TAP	63	0	1
TAP	63	0	6
TAP	63	96	1
TAP	63	96	6
TAP	63	192	1
TAP	63	192	6
TAP	64	0	2
TAP	64	0	5
TAP	64	96	2
TAP	64	96	5
TAP	64	192	3
TAP	64	192	4
TAP	64	288	3
TAP	64	288	4
TAP	65	0	3
TAP	65	48	4
TAP	65	96	3
TAP	65	144	4
TAP	65	192	3
BRK	65	288	3
BRK	65	288	4
HLD	66	0	2	96
HLD	66	192	2	96
HLD	67	0	2	96
TAP	67	192	2
TAP	67	288	2
TAP	68	0	1
TAP	68	96	1
TAP	68	192	0
TAP	68	192	1
TAP	69	0	6
TAP	69	96	6
TAP	69	192	6
TAP	69	192	7
TAP	70	0	5
TAP	70	96	5
TAP	70	192	4
TAP	70	192	5
TAP	71	0	3
TAP	71	96	4
TAP	71	192	3
HLD	72	0	5	96
HLD	72	192	5	96
HLD	73	0	5	96
TAP	73	192	5
TAP	73	288	5
TAP	74	0	6
TAP	74	96	6
TAP	74	192	6
TAP	74	192	7
TAP	75	0	1
TAP	75	96	1
TAP	75	192	0
TAP	75	192	1
TAP	76	0	2
TAP	76	96	2
TAP	76	192	2
TAP	76	192	3
TAP	77	0	4
TAP	77	96	3
TAP	77	192	2
TAP	77	192	5
HLD	78	0	3	144
HLD	78	288	3	144
TAP	79	192	3
BRK	79	288	3
TAP	80	0	4
TAP	80	96	4
TAP	80	192	5
TAP	80	288	5
TAP	81	0	6
TAP	81	96	6
TAP	81	192	0
TAP	81	192	7
HLD	82	0	0	144
HLD	82	0	7	144
HLD	82	288	0	144
HLD	82	288	7	144
TAP	83	192	0
TAP	83	192	7
BRK	83	288	0
BRK	83	288	7
TAP	84	0	1
TAP	84	96	1
TAP	84	192	2
TAP	84	288	2
TAP	85	0	3
TAP	85	96	3
TAP	85	192	4
TAP	85	288	4
TAP	86	0	3
TAP	86	0	4
TAP	86	96	3
TAP	86	144	3
TAP	86	240	4
TAP	86	288	4
TAP	87	0	3
TAP	87	48	3
TAP	87	144	4
TAP	87	192	4
BRK	87	288	3
BRK	87	288	4
TAP	88	0	2
TAP	88	96	2
TAP	88	192	2
TAP	89	0	1
TAP	89	96	1
TAP	89	192	1
STR	90	0	0
SI_	90	0	0	96	288	4
TAP	92	0	6
TAP	92	0	7
TAP	92	192	0
TAP	92	192	1
TAP	93	0	6
TAP	93	0	7
TAP	93	192	0
TAP	93	288	0
TAP	94	0	0
TAP	94	0	1
TAP	94	192	6
TAP	94	192	7
TAP	95	0	0
TAP	95	0	1
TAP	95	192	7
TAP	95	288	7
STR	96	0	0
SI_	96	0	0	96	288	3
STR	96	0	7
SI_	96	0	7	96	288	4
BRK	98	0	2
BRK	98	0	5

T_REC_TAP	229
T_REC_BRK	13
T_REC_XTP	0
T_REC_HLD	19
T_REC_XHO	0
T_REC_STR	12
T_REC_BST	0
T_REC_XST	0
T_REC_TTP	0
T_REC_THO	0
T_REC_SLD	12
T_REC_ALL	285
T_NUM_TAP	241
T_NUM_BRK	13
T_NUM_HLD	19
T_NUM_SLD	12
T_NUM_ALL	285
T_JUDGE_TAP	254
T_JUDGE_HLD	62
T_JUDGE_SLD	12
T_JUDGE_ALL	328
TTM_EACHPAIRS	50
TTM_SCR_TAP	120500
TTM_SCR_BRK	33800
TTM_SCR_HLD	19000
TTM_SCR_SLD	18000
TTM_SCR_ALL	191300
TTM_SCR_S	184300
TTM_SCR_SS	190000
TTM_RAT_ACV	10068

