VERSION	0.00.00	1.03.00
FES_MODE	0
BPM_DEF	207.000	207.000	207.000	207.000
MET_DEF	4	4
RESOLUTION	384
CLK_DEF	384
COMPATIBLE_CODE	MA2

BPM	0	0	207.000

TAP	1	288	0
TAP	1	288	7
TAP	2	0	5
TAP	2	32	4
TAP	2	64	5
TAP	2	96	2
TAP	2	128	3
TAP	2	160	2
TAP	2	192	5
TAP	2	224	4
TAP	2	256	6
TAP	2	288	2
TAP	2	320	3
TAP	2	352	1
TAP	3	0	6
TAP	3	32	4
TAP	3	64	6
TAP	3	96	1
TAP	3	128	3
TAP	3	160	1
TAP	3	192	7
TAP	3	224	4
TAP	3	256	7
TAP	3	288	0
TAP	3	320	3
TAP	3	352	0
HLD	4	0	1	64
HLD	4	0	4	64
HLD	4	96	5	64
HLD	4	96	6	64
HLD	4	192	0	64
HLD	4	192	2	64
HLD	4	288	3	64
HLD	4	288	5	64
HLD	5	0	1	64
HLD	5	0	7	64
HLD	5	96	2	64
HLD	5	96	3	64
TAP	5	192	0
TAP	5	224	0
TAP	5	256	0
TAP	5	288	7
TAP	5	320	7
TAP	5	352	7
HLD	6	0	1	288
HLD	6	0	6	288
TAP	7	0	1
TAP	7	24	0
TAP	7	48	1
TAP	7	72	0
TAP	7	96	2
TAP	7	120	7
TAP	7	144	2
TAP	7	168	7
TAP	7	192	3
TAP	7	208	4
TAP	7	224	5
TAP	7	240	6
TAP	7	256	7
TAP	7	272	0
BRK	7	288	1
BRK	7	288	4
TAP	8	0	1
TAP	8	0	6
TAP	8	96	3
HLD	8	96	4	96
TAP	8	192	7
TAP	8	240	0
TAP	8	288	1
HLD	8	336	2	96
TAP	8	336	3
TAP	9	48	4
TAP	9	96	2
TAP	9	96	3
TAP	9	144	1
TAP	9	192	2
TAP	9	192	3
TAP	9	240	4
TAP	9	288	2
TAP	9	288	3
TAP	9	336	1
HLD	10	0	0	96
HLD	10	0	7	96
HLD	10	144	3	96
HLD	10	144	6	96
STR	10	288	0
SI_	10	288	0	96	48	5
TAP	10	288	1
TAP	11	0	0
STR	11	0	1
SI_	11	0	1	96	48	4
TAP	11	96	0
TAP	11	96	1
TAP	11	192	0
TAP	11	192	1
STR	11	240	0
SI_	11	240	0	96	48	5
STR	11	240	1
SI_	11	240	1	96	48	4
TAP	11	336	0
TAP	11	336	1
TAP	12	96	6
TAP	12	96	7
TAP	12	144	0
TAP	12	192	1
TAP	12	240	2
TAP	12	288	3
TAP	12	336	4
HLD	12	336	5	96
TAP	13	48	3
TAP	13	96	4
TAP	13	96	5
TAP	13	144	6
TAP	13	192	4
TAP	13	192	5
TAP	13	240	3
TAP	13	288	4
TAP	13	288	5
TAP	13	336	6
TAP	14	0	0
TAP	14	0	7
TAP	14	48	0
TAP	14	48	7
HLD	14	144	1	96
HLD	14	144	4	96
STR	14	288	6
SI_	14	288	6	96	48	3
TAP	14	288	7
TAP	15	0	6
TAP	15	0	7
STR	15	48	7
SI_	15	48	7	96	48	2
STR	15	144	6
SI_	15	144	6	96	48	3
TAP	15	144	7
TAP	15	240	6
STR	15	240	7
SI_	15	240	7	96	48	2
TAP	15	336	6
TAP	15	336	7
TAP	16	0	6
TAP	16	96	0
HLD	16	96	1	96
TAP	16	192	3
TAP	16	240	4
TAP	16	288	5
TAP	16	336	6
HLD	16	336	7	96
TAP	17	48	5
TAP	17	96	6
TAP	17	96	7
TAP	17	144	0
TAP	17	192	6
TAP	17	192	7
TAP	17	240	5
TAP	17	288	6
TAP	17	288	7
TAP	17	336	0
TAP	18	0	6
TAP	18	0	7
TAP	18	48	5
TAP	18	96	4
HLD	18	144	3	96
HLD	18	144	6	96
TAP	18	288	0
STR	18	288	1
SI_	18	288	1	96	48	5
TAP	19	0	0
TAP	19	0	1
STR	19	48	0
SI_	19	48	0	96	48	4
TAP	19	144	0
TAP	19	144	1
STR	19	240	1
SI_	19	240	1	96	48	4
STR	19	288	0
SI_	19	288	0	96	48	5
TAP	19	336	1
TAP	20	0	0
HLD	20	96	6	96
TAP	20	96	7
TAP	20	192	4
TAP	20	240	3
TAP	20	288	2
TAP	20	336	0
HLD	20	336	1	96
TAP	21	48	7
TAP	21	96	0
TAP	21	96	1
TAP	21	144	2
TAP	21	192	0
TAP	21	192	1
TAP	21	240	7
TAP	21	288	0
TAP	21	288	1
TAP	21	336	2
HLD	22	0	0	240
TAP	22	0	7
TAP	22	48	6
TAP	22	96	5
HLD	22	144	4	96
TAP	22	288	1
STR	22	288	5
SI_	22	288	5	96	48	0
STR	22	336	2
SI_	22	336	2	96	48	7
TAP	22	336	6
TAP	23	0	5
TAP	23	48	2
STR	23	144	1
SLR	23	144	1	96	96	0
STR	23	144	6
SLL	23	144	6	96	96	7
TAP	23	240	1
TAP	23	240	6
STR	24	0	6
SI_	24	0	6	96	48	3
TAP	24	48	7
TAP	24	96	6
STR	24	144	1
SI_	24	144	1	96	48	4
TAP	24	192	0
TAP	24	240	1
STR	24	288	5
SI_	24	288	5	96	48	0
TAP	24	336	3
TAP	25	0	5
STR	25	48	2
SI_	25	48	2	96	48	7
TAP	25	96	4
TAP	25	144	2
STR	25	192	5
SCL	25	192	5	96	48	2
TAP	25	288	1
TAP	25	312	0
TAP	25	336	7
TAP	25	360	6
TAP	26	0	5
TAP	26	24	4
TAP	26	48	3
TAP	26	72	2
TAP	26	96	1
TAP	26	96	7
TAP	26	144	6
TAP	26	192	0
TAP	26	240	3
TAP	26	240	5
TAP	26	288	7
TAP	26	336	1
HLD	27	0	6	0
HLD	27	64	0	0
HLD	27	128	5	0
HLD	27	192	1	0
HLD	27	256	4	0
HLD	27	320	2	0
STR	28	0	3
SCL	28	0	3	96	1056	4
STR	32	0	0
SSL	32	0	0	96	216	4
STR	33	0	7
SI_	33	0	7	96	192	4
SCR	33	0	7	96	192	4
STR	34	0	1
SI_	34	0	1	96	192	4
STR	34	0	7
SI_	34	0	7	96	192	4
STR	35	0	3
SI_	35	0	3	96	192	7
STR	35	0	4
SI_	35	0	4	96	192	0
BST	36	0	1
SCL	36	0	1	96	1344	2
BRK	36	0	6
HLD	36	192	2	96
HLD	37	0	1	96
HLD	37	192	0	96
HLD	38	0	7	96
HLD	38	192	6	96
HLD	39	0	5	96
HLD	39	192	4	96
HLD	40	0	3	672
TAP	40	288	4
HLD	40	336	4	336
STR	42	0	3
SSR	42	0	3	96	192	7
STR	42	0	5
SSR	42	0	5	96	192	1
TAP	43	0	1
TAP	43	0	7
TAP	43	48	0
TAP	43	72	0
TAP	43	96	0
TAP	43	120	0
TAP	43	144	0
TAP	43	168	0
STR	43	192	0
SI_	43	192	0	96	48	4
TAP	43	216	0
TAP	43	240	0
TAP	43	264	0
BRK	43	288	0
TAP	44	0	3
TAP	44	0	5
TAP	44	48	3
TAP	44	96	6
TAP	44	96	7
TAP	44	144	6
TAP	44	192	0
TAP	44	192	1
TAP	44	240	1
STR	44	288	0
SI_	44	288	0	96	48	4
TAP	44	288	6
TAP	44	336	6
TAP	45	0	0
STR	45	0	7
SI_	45	0	7	96	48	3
STR	45	96	1
SI_	45	96	1	96	48	4
TAP	45	96	7
TAP	45	192	1
STR	45	192	6
SI_	45	192	6	96	48	3
STR	45	288	2
SI_	45	288	2	96	48	7
TAP	45	288	6
TAP	46	0	2
TAP	46	0	5
TAP	46	96	6
TAP	46	120	5
TAP	46	144	4
TAP	46	168	3
TAP	46	192	0
TAP	46	216	1
TAP	46	240	2
TAP	46	264	3
TAP	46	288	0
TAP	46	312	7
TAP	46	336	6
TAP	46	360	5
TAP	47	0	0
TAP	47	24	1
TAP	47	48	2
TAP	47	72	3
TAP	47	96	4
TAP	47	120	5
TAP	47	144	6
TAP	47	168	7
STR	47	192	0
SI_	47	192	0	96	48	3
STR	47	192	4
SI_	47	192	4	96	48	7
BRK	47	288	0
BRK	47	288	4
TAP	48	0	4
TAP	48	0	6
TAP	48	72	2
STR	48	96	2
SCR	48	96	2	96	48	5
TAP	48	144	6
STR	48	192	5
SI_	48	192	5	96	48	1
BRK	48	288	6
TAP	49	0	0
TAP	49	0	2
TAP	49	72	5
STR	49	96	5
SCL	49	96	5	96	48	2
TAP	49	144	1
STR	49	192	2
SI_	49	192	2	96	48	6
BRK	49	288	1
STR	50	0	0
SI_	50	0	0	96	48	3
TAP	50	0	7
TAP	50	72	7
TAP	50	96	0
TAP	50	144	5
HLD	50	192	4	48
HLD	50	192	6	48
HLD	50	288	1	48
HLD	50	288	3	48
TAP	51	0	0
TAP	51	0	7
TAP	51	48	5
TAP	51	72	4
TAP	51	96	5
TAP	51	144	2
TAP	51	168	3
TAP	51	192	2
TAP	51	240	3
TAP	51	240	4
BRK	51	288	1
BRK	51	288	6
TAP	52	0	3
TAP	52	0	4
TAP	52	48	4
TAP	52	96	0
TAP	52	96	1
TAP	52	144	1
TAP	52	192	6
TAP	52	192	7
TAP	52	240	6
TAP	52	288	1
STR	52	288	7
SI_	52	288	7	96	48	3
TAP	52	336	1
STR	53	0	0
SI_	53	0	0	96	48	4
TAP	53	0	7
TAP	53	96	0
STR	53	96	5
SI_	53	96	5	96	48	0
STR	53	192	2
SI_	53	192	2	96	48	7
TAP	53	192	5
TAP	53	288	2
STR	54	0	6
SV_	54	0	6	96	48	3
BRK	54	96	6
BRK	54	96	7
STR	54	192	1
SV_	54	192	1	96	48	4
BRK	54	288	0
BRK	54	288	1
STR	55	0	5
SV_	55	0	5	96	48	0
BRK	55	96	4
BRK	55	96	5
STR	55	192	2
SV_	55	192	2	96	48	7
BRK	55	288	2
BRK	55	288	3
TAP	56	0	4
TAP	56	0	6
TAP	56	72	2
STR	56	96	2
SCR	56	96	2	96	48	5
TAP	56	144	6
STR	56	192	5
SI_	56	192	5	96	48	1
BRK	56	288	6
TAP	57	0	0
TAP	57	0	2
TAP	57	72	5
STR	57	96	5
SCL	57	96	5	96	48	2
TAP	57	144	1
STR	57	192	2
SI_	57	192	2	96	48	6
BRK	57	288	1
TAP	58	0	3
STR	58	0	4
SI_	58	0	4	96	48	7
TAP	58	72	3
TAP	58	96	4
TAP	58	144	3
HLD	58	192	0	48
HLD	58	192	2	48
HLD	58	288	5	48
HLD	58	288	7	48
TAP	59	0	0
TAP	59	24	7
TAP	59	48	0
TAP	59	72	7
TAP	59	96	1
TAP	59	120	6
TAP	59	144	1
TAP	59	168	6
TAP	59	192	2
TAP	59	192	5
TAP	59	240	3
TAP	59	240	4
BRK	59	288	1
BRK	59	288	6
TAP	60	0	3
TAP	60	0	6
TAP	60	48	5
TAP	60	72	4
TAP	60	96	5
TAP	60	144	2
TAP	60	168	3
TAP	60	192	2
TAP	60	240	5
TAP	60	264	4
TAP	60	288	5
TAP	60	312	4
TAP	60	336	5
TAP	61	0	0
TAP	61	24	1
TAP	61	48	2
TAP	61	72	3
TAP	61	96	6
TAP	61	120	5
TAP	61	144	4
TAP	61	168	3
TAP	61	192	1
TAP	61	216	0
TAP	61	240	1
TAP	61	264	0
TAP	61	288	2
TAP	61	288	7
TAP	62	0	0
TAP	62	32	0
TAP	62	64	0
TAP	62	96	7
TAP	62	128	7
TAP	62	160	7
TAP	62	192	1
TAP	62	216	2
TAP	62	240	3
TAP	62	264	4
TAP	62	288	7
TAP	62	312	6
TAP	62	336	5
TAP	62	360	4
TAP	63	0	2
TAP	63	0	3
TAP	63	48	1
TAP	63	96	4
TAP	63	96	5
TAP	63	144	6
TAP	63	192	0
TAP	63	208	7
TAP	63	224	0
TAP	63	240	7
TAP	63	256	0
TAP	63	272	7
BRK	63	288	0
TAP	64	0	1
TAP	64	0	6
TAP	64	24	2
TAP	64	48	3
TAP	64	72	4
TAP	64	96	5
TAP	64	120	6
TAP	64	144	7
TAP	64	168	0
TAP	64	192	5
TAP	64	216	4
TAP	64	240	3
TAP	64	264	2
TAP	64	288	1
TAP	64	312	0
TAP	64	336	7
TAP	64	360	6
STR	65	0	5
SCL	65	0	5	96	48	2
TAP	65	96	1
TAP	65	144	1
HLD	65	192	0	96
HLD	65	288	7	96
TAP	66	0	3
TAP	66	48	3
TAP	66	96	4
TAP	66	144	4
TAP	66	192	2
TAP	66	192	5
TAP	66	240	2
TAP	66	240	5
TAP	66	288	1
TAP	66	288	6
TAP	66	336	1
TAP	66	336	6
TAP	67	0	0
TAP	67	24	1
TAP	67	48	2
TAP	67	72	3
TAP	67	96	7
TAP	67	120	6
TAP	67	144	5
TAP	67	168	4
TAP	67	192	1
TAP	67	208	2
TAP	67	224	3
TAP	67	240	4
TAP	67	256	5
TAP	67	272	6
BRK	67	288	0
BRK	67	288	7
TAP	68	0	2
TAP	68	24	3
TAP	68	48	2
TAP	68	72	4
TAP	68	96	2
TAP	68	120	5
TAP	68	144	2
HLD	68	168	6	168
TAP	68	240	7
TAP	68	288	0
TAP	68	336	1
TAP	69	0	2
TAP	69	0	5
TAP	69	48	3
TAP	69	48	4
TAP	69	96	5
TAP	69	120	4
TAP	69	144	5
TAP	69	168	4
TAP	69	192	6
TAP	69	216	3
TAP	69	240	6
TAP	69	264	3
TAP	69	288	0
TAP	69	312	1
TAP	69	336	0
TAP	69	360	1
TAP	70	0	2
TAP	70	0	7
TAP	70	24	6
TAP	70	48	5
TAP	70	72	4
TAP	70	96	3
TAP	70	120	2
TAP	70	144	1
TAP	70	168	0
TAP	70	192	2
TAP	70	192	7
TAP	70	216	3
TAP	70	240	4
TAP	70	264	5
TAP	70	288	6
TAP	70	312	7
TAP	70	336	0
TAP	70	360	1
TAP	71	0	2
TAP	71	0	6
TAP	71	48	5
TAP	71	96	1
TAP	71	96	4
TAP	71	144	2
STR	71	192	3
SI_	71	192	3	96	48	0
STR	71	192	7
SI_	71	192	7	96	48	4
TAP	71	288	3
TAP	71	288	7
TAP	72	0	1
TAP	72	0	3
TAP	72	72	5
TAP	72	96	4
TAP	72	96	5
STR	72	192	1
SI_	72	192	1	96	48	6
TAP	72	192	3
TAP	72	288	0
BRK	72	288	1
TAP	73	0	5
TAP	73	0	7
TAP	73	72	2
TAP	73	96	2
TAP	73	96	3
TAP	73	192	4
STR	73	192	6
SI_	73	192	6	96	48	1
BRK	73	288	6
TAP	73	288	7
TAP	74	0	0
TAP	74	0	2
STR	74	48	0
SI_	74	48	0	96	48	4
TAP	74	48	2
TAP	74	144	0
STR	74	144	6
SI_	74	144	6	96	48	3
STR	74	240	1
SI_	74	240	1	96	48	4
TAP	74	240	6
TAP	74	336	1
TAP	74	336	4
TAP	75	0	6
TAP	75	48	6
STR	75	48	7
SI_	75	48	7	96	48	3
STR	75	144	1
SI_	75	144	1	96	48	4
TAP	75	144	7
TAP	75	240	1
STR	75	240	6
SI_	75	240	6	96	48	3
TAP	75	336	3
TAP	75	336	6
TAP	76	0	2
TAP	76	48	2
TAP	76	96	5
TAP	76	144	5
TAP	76	192	2
TAP	76	240	1
TAP	76	240	3
TAP	76	288	5
TAP	76	336	4
TAP	76	336	6
TAP	77	0	0
TAP	77	24	7
TAP	77	48	0
TAP	77	72	7
TAP	77	96	0
TAP	77	120	7
TAP	77	144	0
TAP	77	168	7
TAP	77	192	0
TAP	77	216	7
TAP	77	240	0
TAP	77	264	7
TAP	77	288	0
TAP	77	312	7
TAP	77	336	0
TAP	77	360	7
HLD	78	0	1	96
HLD	78	0	6	96
TAP	78	192	7
TAP	78	204	6
TAP	78	216	5
TAP	78	228	4
TAP	78	240	3
TAP	78	252	2
TAP	78	264	1
TAP	78	276	0
BRK	78	288	3
BST	78	288	7
SI_	78	288	7	96	48	3
STR	79	0	0
SI_	79	0	0	96	48	4
TAP	79	0	7
TAP	79	96	0
STR	79	96	6
SI_	79	96	6	96	48	3
STR	79	192	1
SI_	79	192	1	96	48	4
TAP	79	192	6
TAP	79	288	1
STR	79	288	5
SI_	79	288	5	96	48	0
TAP	80	0	2
TAP	80	0	5
TAP	80	96	1
TAP	80	120	2
TAP	80	144	3
TAP	80	168	4
TAP	80	192	7
TAP	80	216	6
TAP	80	240	5
TAP	80	264	4
TAP	80	288	7
TAP	80	312	0
TAP	80	336	1
TAP	80	360	2
TAP	81	0	7
TAP	81	24	6
TAP	81	48	5
TAP	81	72	4
TAP	81	96	3
TAP	81	120	2
TAP	81	144	1
TAP	81	168	0
STR	81	192	3
SI_	81	192	3	96	48	0
STR	81	192	7
SI_	81	192	7	96	48	4
BRK	81	288	3
BRK	81	288	7
TAP	82	0	2
STR	82	0	3
SI_	82	0	3	96	48	7
TAP	82	72	2
TAP	82	96	3
TAP	82	144	0
STR	82	192	2
SI_	82	192	2	96	48	6
TAP	82	192	6
TAP	82	216	5
TAP	82	240	4
TAP	82	264	3
BRK	82	288	0
TAP	82	288	2
STR	83	0	4
SI_	83	0	4	96	48	0
TAP	83	0	5
TAP	83	72	5
TAP	83	96	4
TAP	83	144	7
TAP	83	192	1
STR	83	192	5
SI_	83	192	5	96	48	1
TAP	83	216	2
TAP	83	240	3
TAP	83	264	4
TAP	83	288	5
BRK	83	288	7
STR	84	0	0
SI_	84	0	0	96	48	3
TAP	84	0	7
TAP	84	72	7
TAP	84	96	0
TAP	84	144	5
HLD	84	192	4	48
HLD	84	192	6	48
HLD	84	288	1	48
HLD	84	288	3	48
TAP	85	0	0
TAP	85	0	7
TAP	85	48	5
TAP	85	72	4
TAP	85	96	6
TAP	85	144	2
TAP	85	168	3
TAP	85	192	1
TAP	85	240	2
TAP	85	240	5
BRK	85	288	0
BRK	85	288	7
TAP	86	0	3
TAP	86	0	4
TAP	86	48	4
TAP	86	96	0
TAP	86	96	1
TAP	86	144	1
TAP	86	192	6
TAP	86	192	7
TAP	86	240	6
TAP	86	288	1
STR	86	288	7
SI_	86	288	7	96	48	3
TAP	86	336	1
STR	87	0	0
SI_	87	0	0	96	48	4
TAP	87	0	7
TAP	87	96	0
STR	87	96	5
SI_	87	96	5	96	48	0
STR	87	192	2
SI_	87	192	2	96	48	7
TAP	87	192	5
TAP	87	288	2
STR	87	288	4
SI_	87	288	4	96	48	0
SI_	87	288	4	96	48	7
TAP	88	0	4
BST	88	96	3
SI_	88	96	3	96	48	0
SI_	88	96	3	96	48	7
BRK	88	96	4
TAP	88	192	3
BRK	88	288	3
BST	88	288	4
SF_	88	288	4	96	48	0
TAP	89	0	4
BST	89	96	3
SF_	89	96	3	96	48	7
BRK	89	96	4
TAP	89	192	3
BRK	89	288	3
BRK	89	288	4
TAP	90	0	2
STR	90	0	3
SI_	90	0	3	96	48	6
TAP	90	72	2
TAP	90	96	3
TAP	90	144	0
STR	90	192	1
SI_	90	192	1	96	48	6
TAP	90	192	5
TAP	90	216	4
TAP	90	240	3
TAP	90	264	2
BRK	90	288	0
TAP	90	288	1
STR	91	0	4
SI_	91	0	4	96	48	1
TAP	91	0	5
TAP	91	72	5
TAP	91	96	4
TAP	91	144	7
TAP	91	192	2
STR	91	192	6
SI_	91	192	6	96	48	1
TAP	91	216	3
TAP	91	240	4
TAP	91	264	5
TAP	91	288	6
BRK	91	288	7
STR	92	0	0
SI_	92	0	0	96	48	3
TAP	92	0	7
TAP	92	72	7
TAP	92	96	0
TAP	92	144	5
HLD	92	192	0	48
HLD	92	192	2	48
HLD	92	288	5	48
HLD	92	288	7	48
TAP	93	0	0
TAP	93	24	7
TAP	93	48	0
TAP	93	72	7
TAP	93	96	1
TAP	93	120	6
TAP	93	144	1
TAP	93	168	6
TAP	93	192	2
TAP	93	192	5
TAP	93	240	3
TAP	93	240	4
BRK	93	288	0
BRK	93	288	7
TAP	94	0	3
TAP	94	0	4
TAP	94	64	5
TAP	94	96	4
TAP	94	96	5
TAP	94	160	2
TAP	94	192	2
TAP	94	192	3
TAP	94	256	6
TAP	94	288	4
TAP	94	288	6
TAP	94	352	1
TAP	95	0	1
TAP	95	0	3
TAP	95	64	6
TAP	95	96	6
TAP	95	96	7
TAP	95	160	0
TAP	95	192	0
TAP	95	192	7
TAP	95	224	7
TAP	95	256	7
TAP	95	288	0
TAP	95	320	0
TAP	95	352	0
TAP	96	0	1
HLD	96	0	7	96
HLD	96	96	6	96
HLD	96	192	5	96
HLD	96	288	4	96
HLD	97	0	3	96
HLD	97	96	2	96
HLD	97	192	1	96
TAP	97	288	0
BRK	98	0	0
BRK	98	0	7
TAP	98	96	0
TAP	98	112	7
TAP	98	128	0
TAP	98	144	7
TAP	98	160	0
TAP	98	176	7
TAP	98	192	0
TAP	98	208	7
TAP	98	224	0
TAP	98	240	7
TAP	98	256	0
TAP	98	272	7
TAP	98	288	0
TAP	98	304	7
TAP	98	320	0
TAP	98	336	7
TAP	98	352	0
TAP	98	368	7
TAP	99	0	0
TAP	99	24	1
TAP	99	48	2
TAP	99	72	3
TAP	99	96	7
TAP	99	120	6
TAP	99	144	5
TAP	99	168	4
TAP	99	192	0
TAP	99	216	1
TAP	99	240	2
TAP	99	264	3
TAP	99	288	4
TAP	99	312	5
TAP	99	336	6
TAP	99	360	7
BST	100	96	1
SCR	100	96	1	96	1344	7
BST	100	96	6
SCL	100	96	6	96	1344	0

T_REC_TAP	667
T_REC_BRK	45
T_REC_XTP	0
T_REC_HLD	74
T_REC_XHO	0
T_REC_STR	88
T_REC_BST	7
T_REC_XST	0
T_REC_TTP	0
T_REC_THO	0
T_REC_SLD	98
T_REC_ALL	979
T_NUM_TAP	755
T_NUM_BRK	52
T_NUM_HLD	74
T_NUM_SLD	98
T_NUM_ALL	979
T_JUDGE_TAP	807
T_JUDGE_HLD	156
T_JUDGE_SLD	98
T_JUDGE_ALL	1061
TTM_EACHPAIRS	193
TTM_SCR_TAP	377500
TTM_SCR_BRK	135200
TTM_SCR_HLD	74000
TTM_SCR_SLD	147000
TTM_SCR_ALL	733700
TTM_SCR_S	706650
TTM_SCR_SS	728500
TTM_RAT_ACV	10071

