VERSION	0.00.00	1.03.00
FES_MODE	0
BPM_DEF	207.000	207.000	207.000	207.000
MET_DEF	4	4
RESOLUTION	384
CLK_DEF	384
COMPATIBLE_CODE	MA2

BPM	0	0	207.000

TAP	1	288	0
TAP	1	288	7
TAP	2	0	4
TAP	2	0	5
TAP	2	96	2
TAP	2	96	3
TAP	2	192	4
TAP	2	192	6
TAP	2	288	1
TAP	2	288	3
TAP	3	0	5
TAP	3	0	7
TAP	3	96	0
TAP	3	96	2
TAP	3	192	3
TAP	3	224	4
TAP	3	256	3
TAP	3	288	4
HLD	4	0	2	96
HLD	4	0	3	96
HLD	4	192	5	96
HLD	4	192	6	96
HLD	5	0	0	96
HLD	5	0	1	96
TAP	5	192	3
TAP	5	224	4
TAP	5	256	3
TAP	5	288	4
BST	6	0	1
SCL	6	0	1	96	576	2
BRK	6	0	6
BRK	7	288	0
HLD	8	0	2	96
TAP	8	96	3
TAP	8	192	1
TAP	8	192	4
TAP	8	240	1
TAP	8	240	4
TAP	8	336	0
HLD	8	336	7	144
HLD	9	96	6	96
HLD	9	192	5	96
HLD	9	288	4	96
STR	10	0	3
SSL	10	0	3	96	192	7
TAP	11	0	0
TAP	11	0	1
TAP	11	96	2
TAP	11	96	3
TAP	11	192	0
TAP	11	192	1
TAP	11	240	0
TAP	11	240	1
TAP	11	336	3
TAP	11	336	7
TAP	12	96	4
TAP	12	96	5
TAP	12	192	3
TAP	12	192	6
TAP	12	240	3
TAP	12	240	6
HLD	12	336	0	144
TAP	12	336	7
HLD	13	96	1	96
HLD	13	192	2	96
HLD	13	288	3	96
STR	14	0	4
SSR	14	0	4	96	192	0
TAP	15	0	6
TAP	15	0	7
TAP	15	48	6
TAP	15	48	7
TAP	15	144	4
TAP	15	144	5
TAP	15	240	6
TAP	15	240	7
TAP	15	336	0
TAP	15	336	5
TAP	16	0	0
TAP	16	0	5
TAP	16	96	2
TAP	16	96	3
TAP	16	192	1
TAP	16	240	1
TAP	16	288	0
HLD	16	336	0	144
HLD	17	96	7	96
HLD	17	192	6	96
HLD	17	288	5	96
STR	18	0	4
SSL	18	0	4	96	192	0
TAP	19	0	0
TAP	19	0	1
TAP	19	48	0
TAP	19	48	1
TAP	19	144	2
TAP	19	144	3
TAP	19	240	1
TAP	19	288	0
TAP	19	336	1
TAP	20	0	2
TAP	20	0	7
TAP	20	96	4
TAP	20	96	5
TAP	20	192	6
TAP	20	240	6
TAP	20	288	7
HLD	20	336	7	144
HLD	21	96	0	96
HLD	21	192	1	96
HLD	21	288	2	96
STR	22	0	3
SSR	22	0	3	96	192	7
STR	23	0	4
SSL	23	0	4	96	192	0
TAP	24	0	0
TAP	24	0	7
TAP	24	96	2
TAP	24	144	2
TAP	24	144	3
TAP	24	240	5
TAP	24	288	4
TAP	24	288	5
TAP	25	0	1
TAP	25	0	3
TAP	25	96	4
TAP	25	96	6
TAP	25	192	0
TAP	25	240	7
TAP	25	288	0
TAP	25	336	7
TAP	26	0	0
TAP	26	96	1
TAP	26	96	3
TAP	26	144	1
TAP	26	144	3
TAP	26	240	4
TAP	26	240	6
TAP	26	288	4
TAP	26	288	6
HLD	27	0	1	64
HLD	27	64	2	64
HLD	27	128	3	64
HLD	27	192	4	64
HLD	27	256	5	64
HLD	27	320	6	64
BST	28	0	7
SCR	28	0	7	96	672	6
STR	32	0	0
SSL	32	0	0	96	192	4
STR	33	0	0
SCR	33	0	0	96	144	3
STR	33	0	7
SI_	33	0	7	96	144	4
STR	34	0	0
SI_	34	0	0	96	144	3
STR	34	0	6
SI_	34	0	6	96	144	3
STR	35	0	3
SI_	35	0	3	96	192	7
STR	35	0	4
SI_	35	0	4	96	192	0
HLD	36	0	0	192
TAP	36	0	7
HLD	36	192	1	192
HLD	37	0	2	192
HLD	37	192	3	192
HLD	38	0	7	192
HLD	38	192	6	192
HLD	39	0	5	192
HLD	39	192	4	192
HLD	40	0	3	192
TAP	40	288	3
TAP	40	288	4
HLD	40	336	3	240
HLD	40	336	4	240
STR	42	0	3
SI_	42	0	3	96	192	0
STR	42	0	4
SI_	42	0	4	96	192	7
TAP	43	0	1
TAP	43	0	6
TAP	43	48	0
TAP	43	72	7
TAP	43	96	0
TAP	43	120	7
TAP	43	144	0
TAP	43	168	7
TAP	43	192	0
TAP	43	216	7
TAP	43	240	0
TAP	43	264	7
BRK	43	288	0
TAP	44	0	2
TAP	44	48	3
TAP	44	96	1
TAP	44	144	1
TAP	44	192	4
TAP	44	240	3
TAP	44	288	5
TAP	44	336	5
TAP	45	0	4
TAP	45	0	6
TAP	45	96	0
TAP	45	96	6
TAP	45	192	0
TAP	45	192	2
TAP	45	288	2
STR	45	288	4
SCR	45	288	4	96	384	3
TAP	46	0	0
TAP	47	192	0
TAP	47	192	7
TAP	47	288	1
TAP	47	288	6
HLD	48	0	0	72
HLD	48	72	1	72
TAP	48	144	2
TAP	48	192	2
TAP	48	192	3
TAP	48	288	0
TAP	48	288	4
HLD	49	0	7	72
HLD	49	72	6	72
TAP	49	144	5
TAP	49	192	4
TAP	49	192	5
TAP	49	288	3
TAP	49	288	7
HLD	50	0	1	72
HLD	50	72	2	72
TAP	50	144	3
HLD	50	192	6	72
HLD	50	264	5	72
TAP	50	336	4
STR	51	0	2
SXR	51	0	2	96	192	7
STR	51	0	3
SXL	51	0	3	96	192	6
TAP	52	0	5
TAP	52	48	4
TAP	52	96	6
TAP	52	144	6
TAP	52	192	3
TAP	52	240	4
TAP	52	288	2
TAP	52	336	2
TAP	53	0	1
TAP	53	0	3
TAP	53	96	1
TAP	53	96	7
TAP	53	192	5
TAP	53	192	7
TAP	53	288	3
TAP	53	288	5
TAP	54	0	0
STR	54	0	1
SI_	54	0	1	96	48	4
TAP	54	96	0
STR	54	192	6
SI_	54	192	6	96	48	3
TAP	54	192	7
TAP	54	288	7
STR	55	0	0
SI_	55	0	0	96	48	4
TAP	55	0	7
TAP	55	96	7
BRK	55	192	3
BRK	55	192	7
HLD	56	0	5	72
HLD	56	72	6	72
TAP	56	144	7
TAP	56	192	0
STR	56	192	7
SI_	56	192	7	96	48	3
HLD	57	0	2	72
HLD	57	72	1	72
TAP	57	144	0
STR	57	192	0
SI_	57	192	0	96	48	4
TAP	57	192	7
HLD	58	0	5	72
HLD	58	72	6	72
TAP	58	144	7
HLD	58	192	2	72
HLD	58	264	1	72
TAP	58	336	0
STR	59	0	0
SI_	59	0	0	96	96	4
STR	59	0	7
SI_	59	0	7	96	96	3
BRK	59	288	1
BRK	59	288	6
TAP	60	0	4
TAP	60	0	5
TAP	60	48	5
TAP	60	96	5
TAP	60	192	2
TAP	60	192	3
TAP	60	240	2
TAP	60	288	2
TAP	61	0	5
TAP	61	48	4
TAP	61	96	3
TAP	61	144	2
STR	61	192	1
SI_	61	192	1	96	48	5
TAP	62	0	6
TAP	62	0	7
TAP	62	48	6
TAP	62	96	6
TAP	62	192	0
TAP	62	192	1
TAP	62	240	1
TAP	62	288	1
TAP	63	0	5
TAP	63	0	7
TAP	63	96	0
TAP	63	96	2
TAP	63	192	0
TAP	63	192	7
TAP	63	240	0
TAP	63	240	7
TAP	63	288	0
TAP	63	288	7
TAP	64	0	2
TAP	64	48	2
TAP	64	96	3
TAP	64	144	3
TAP	64	192	4
TAP	64	240	4
TAP	64	288	5
TAP	64	336	5
STR	65	0	6
SI_	65	0	6	96	48	2
STR	65	192	0
SI_	65	192	0	96	48	4
TAP	66	0	2
TAP	66	0	3
TAP	66	96	4
TAP	66	96	5
TAP	66	192	0
TAP	66	240	0
TAP	66	288	7
TAP	66	336	7
STR	67	0	1
SLR	67	0	1	96	120	0
STR	67	0	6
SLL	67	0	6	96	120	7
BRK	67	288	1
BRK	67	288	6
TAP	68	0	2
TAP	68	48	3
TAP	68	96	4
TAP	68	144	5
HLD	68	192	6	96
TAP	68	288	7
TAP	69	0	5
TAP	69	48	4
TAP	69	96	3
TAP	69	144	2
HLD	69	192	1	96
TAP	69	288	0
TAP	70	0	4
TAP	70	0	6
TAP	70	48	6
TAP	70	96	6
TAP	70	192	1
TAP	70	192	3
TAP	70	240	1
TAP	70	288	1
TAP	71	0	2
TAP	71	48	3
TAP	71	96	4
TAP	71	144	5
HLD	71	192	1	96
HLD	71	192	6	96
STR	72	0	2
SI_	72	0	2	96	48	7
STR	72	0	3
SI_	72	0	3	96	48	7
TAP	72	192	1
TAP	72	288	0
TAP	72	288	2
STR	73	0	4
SI_	73	0	4	96	48	0
STR	73	0	5
SI_	73	0	5	96	48	0
TAP	73	192	6
TAP	73	288	5
TAP	73	288	7
TAP	74	0	0
TAP	74	0	6
TAP	74	48	0
TAP	74	48	6
TAP	74	144	1
TAP	74	144	7
TAP	74	240	0
TAP	74	240	6
TAP	74	336	2
TAP	74	336	7
TAP	75	0	2
TAP	75	0	7
TAP	75	48	2
TAP	75	48	7
TAP	75	144	0
TAP	75	144	5
TAP	75	240	2
TAP	75	240	7
TAP	75	336	0
TAP	75	336	5
TAP	76	0	1
TAP	76	48	1
TAP	76	96	6
TAP	76	144	6
TAP	76	192	0
TAP	76	240	0
TAP	76	288	7
TAP	76	336	7
TAP	77	0	1
TAP	77	0	6
TAP	77	48	1
TAP	77	48	6
TAP	77	96	1
TAP	77	96	6
TAP	77	144	1
TAP	77	144	6
TAP	77	192	0
TAP	77	216	7
TAP	77	240	0
TAP	77	264	7
TAP	77	288	0
TAP	77	312	7
TAP	77	336	0
TAP	77	360	7
BRK	78	0	0
TAP	78	192	3
TAP	78	192	4
TAP	78	240	3
TAP	78	240	4
BRK	78	288	2
BRK	78	288	5
TAP	79	0	4
TAP	79	0	6
TAP	79	96	0
TAP	79	96	6
TAP	79	192	0
TAP	79	192	2
TAP	79	288	2
STR	79	288	4
SCR	79	288	4	96	384	3
HLD	80	0	0	384
TAP	81	192	0
TAP	81	192	7
TAP	81	288	1
TAP	81	288	6
HLD	82	0	5	72
HLD	82	72	6	72
TAP	82	144	7
TAP	82	192	0
STR	82	192	7
SI_	82	192	7	96	48	3
TAP	82	288	1
HLD	83	0	2	72
HLD	83	72	1	72
TAP	83	144	0
STR	83	192	0
SI_	83	192	0	96	48	4
TAP	83	192	7
TAP	83	288	6
HLD	84	0	5	72
HLD	84	72	6	72
TAP	84	144	7
HLD	84	192	2	72
HLD	84	264	1	72
TAP	84	336	0
STR	85	0	6
SXR	85	0	6	96	192	3
STR	85	0	7
SXL	85	0	7	96	192	2
TAP	86	0	5
TAP	86	48	4
TAP	86	96	6
TAP	86	144	6
TAP	86	192	3
TAP	86	240	4
TAP	86	288	2
TAP	86	336	2
TAP	87	0	1
TAP	87	0	3
TAP	87	96	1
TAP	87	96	7
TAP	87	192	5
TAP	87	192	7
TAP	87	288	3
TAP	87	288	5
TAP	88	0	2
STR	88	0	3
SI_	88	0	3	96	48	7
BRK	88	96	0
STR	88	192	4
SI_	88	192	4	96	48	0
TAP	88	192	5
BRK	88	288	7
TAP	89	0	1
STR	89	0	3
SI_	89	0	3	96	48	7
BRK	89	96	0
STR	89	192	4
SI_	89	192	4	96	48	0
TAP	89	192	6
BRK	89	288	7
HLD	90	0	3	72
HLD	90	72	2	72
TAP	90	144	1
TAP	90	192	0
STR	90	192	1
SI_	90	192	1	96	48	5
TAP	90	288	7
HLD	91	0	4	72
HLD	91	72	5	72
TAP	91	144	6
STR	91	192	6
SI_	91	192	6	96	48	2
TAP	91	192	7
TAP	91	288	0
HLD	92	0	1	72
HLD	92	72	2	72
TAP	92	144	3
HLD	92	192	6	72
HLD	92	264	5	72
TAP	92	336	4
STR	93	0	3
SXL	93	0	3	96	192	6
STR	93	0	7
SXL	93	0	7	96	192	2
TAP	94	0	2
TAP	94	0	3
TAP	94	96	4
TAP	94	96	5
TAP	94	192	1
TAP	94	192	3
TAP	94	288	4
TAP	94	288	6
TAP	95	0	0
TAP	95	0	1
TAP	95	96	6
TAP	95	96	7
TAP	95	192	0
TAP	95	224	7
TAP	95	256	0
TAP	95	288	7
TAP	95	320	0
TAP	95	352	7
HLD	96	0	0	96
HLD	96	96	1	96
HLD	96	192	2	96
HLD	96	288	3	96
HLD	97	0	4	96
HLD	97	96	5	96
HLD	97	192	6	96
HLD	97	288	7	96
BRK	98	0	0
TAP	98	96	0
TAP	98	120	7
TAP	98	144	0
TAP	98	168	7
TAP	98	192	0
TAP	98	216	7
TAP	98	240	0
TAP	98	264	7
TAP	98	288	0
TAP	98	312	7
TAP	98	336	0
TAP	98	360	7
STR	99	0	0
SXL	99	0	0	96	240	4
SXR	99	0	0	96	240	4
HLD	100	96	1	1440
BST	100	96	6
SCL	100	96	6	96	1344	7

T_REC_TAP	377
T_REC_BRK	17
T_REC_XTP	0
T_REC_HLD	86
T_REC_XHO	0
T_REC_STR	47
T_REC_BST	3
T_REC_XST	0
T_REC_TTP	0
T_REC_THO	0
T_REC_SLD	51
T_REC_ALL	581
T_NUM_TAP	424
T_NUM_BRK	20
T_NUM_HLD	86
T_NUM_SLD	51
T_NUM_ALL	581
T_JUDGE_TAP	444
T_JUDGE_HLD	234
T_JUDGE_SLD	51
T_JUDGE_ALL	729
TTM_EACHPAIRS	139
TTM_SCR_TAP	212000
TTM_SCR_BRK	52000
TTM_SCR_HLD	86000
TTM_SCR_SLD	76500
TTM_SCR_ALL	426500
TTM_SCR_S	411800
TTM_SCR_SS	424500
TTM_RAT_ACV	10047

