VERSION	0.00.00	1.03.00
FES_MODE	0
BPM_DEF	207.000	207.000	207.000	207.000
MET_DEF	4	4
RESOLUTION	384
CLK_DEF	384
COMPATIBLE_CODE	MA2

BPM	0	0	207.000

TAP	2	0	4
TAP	2	0	5
TAP	2	96	4
TAP	2	96	5
TAP	2	192	2
TAP	2	192	3
TAP	2	288	2
TAP	2	288	3
TAP	3	0	4
TAP	3	0	5
TAP	3	96	4
TAP	3	96	5
TAP	3	192	2
TAP	3	192	3
TAP	3	288	2
TAP	3	288	3
TAP	4	0	4
TAP	4	96	4
TAP	4	192	3
TAP	4	192	5
TAP	4	288	3
TAP	4	288	5
TAP	5	0	2
TAP	5	96	2
TAP	5	192	2
TAP	5	192	3
STR	5	288	1
SUL	5	288	1	96	240	4
TAP	7	0	2
TAP	7	0	3
TAP	7	96	4
TAP	7	96	5
BRK	7	192	1
BRK	7	192	6
TAP	8	0	5
TAP	8	96	5
TAP	8	192	4
TAP	8	192	6
TAP	8	288	4
TAP	8	288	6
TAP	9	0	3
TAP	9	96	2
TAP	9	192	1
TAP	9	192	4
TAP	9	288	1
TAP	9	288	4
TAP	10	0	2
TAP	10	96	3
TAP	10	192	4
TAP	10	288	3
TAP	10	288	5
STR	11	0	6
SCR	11	0	6	96	192	1
TAP	12	0	2
TAP	12	96	2
TAP	12	192	1
TAP	12	192	3
TAP	12	288	1
TAP	12	288	3
TAP	13	0	0
TAP	13	96	7
TAP	13	192	1
TAP	13	192	6
TAP	13	288	1
TAP	13	288	6
TAP	14	0	7
TAP	14	96	0
TAP	14	192	1
STR	14	288	2
SCL	14	288	2	96	288	7
TAP	16	0	5
TAP	16	96	4
TAP	16	192	3
TAP	16	192	6
TAP	16	288	3
TAP	16	288	6
TAP	17	0	2
TAP	17	96	3
TAP	17	192	1
TAP	17	192	4
TAP	17	288	1
TAP	17	288	4
TAP	18	0	2
TAP	18	96	3
TAP	18	192	4
TAP	18	192	5
STR	18	288	6
SUR	18	288	6	96	288	3
TAP	20	0	4
TAP	20	96	3
TAP	20	192	2
TAP	20	192	5
TAP	20	288	2
TAP	20	288	5
TAP	21	0	3
TAP	21	96	4
TAP	21	192	2
TAP	21	192	5
TAP	21	288	2
TAP	21	288	5
TAP	22	0	4
TAP	22	96	3
TAP	22	96	5
TAP	22	192	2
TAP	22	192	6
TAP	22	288	1
TAP	22	288	7
HLD	23	0	0	192
BRK	23	192	7
TAP	24	0	0
TAP	24	96	1
TAP	24	192	2
TAP	24	288	3
TAP	25	0	4
TAP	25	96	5
TAP	25	192	6
TAP	25	288	0
TAP	25	288	7
TAP	26	0	6
TAP	26	96	5
TAP	26	192	4
STR	26	288	3
SCL	26	288	3	96	288	6
HLD	28	0	4	384
BRK	28	0	5
HLD	29	0	6	768
HLD	30	0	7	384
TAP	31	192	6
TAP	31	192	7
HLD	32	0	0	384
TAP	32	0	1
HLD	33	0	2	768
HLD	34	0	3	384
TAP	35	192	1
TAP	35	192	4
HLD	36	0	2	192
TAP	36	192	3
HLD	37	0	5	192
TAP	37	192	4
HLD	38	0	1	192
TAP	38	192	0
TAP	39	0	2
TAP	39	0	7
HLD	40	0	1	192
HLD	40	0	4	192
HLD	41	0	3	192
HLD	41	0	6	192
HLD	42	0	2	192
HLD	42	0	5	192
TAP	43	0	3
TAP	43	48	3
TAP	43	96	3
TAP	43	192	4
TAP	43	240	4
TAP	43	288	4
BRK	44	0	3
BRK	44	0	5
TAP	44	96	6
TAP	44	192	7
TAP	44	288	0
TAP	45	0	1
TAP	45	0	6
TAP	45	96	2
TAP	45	96	7
TAP	45	192	1
TAP	45	192	6
STR	45	288	0
SCR	45	288	0	96	288	5
TAP	47	0	6
TAP	47	96	7
TAP	47	192	0
TAP	47	192	5
HLD	48	0	1	96
TAP	48	96	0
TAP	48	192	2
TAP	48	192	7
HLD	49	0	6	96
TAP	49	96	7
TAP	49	192	0
TAP	49	192	5
TAP	50	0	4
TAP	50	0	6
TAP	50	96	4
TAP	50	96	6
TAP	50	192	1
TAP	50	192	3
TAP	50	288	1
TAP	50	288	3
TAP	51	0	0
TAP	51	0	7
TAP	51	96	1
TAP	51	96	6
BRK	51	192	2
BRK	51	192	5
TAP	52	0	1
TAP	52	0	7
TAP	52	96	2
TAP	52	192	3
TAP	52	288	4
TAP	53	0	2
TAP	53	0	5
TAP	53	96	3
TAP	53	96	6
TAP	53	192	2
TAP	53	192	5
STR	53	288	4
SCR	53	288	4	96	288	1
TAP	55	0	2
TAP	55	0	3
TAP	55	96	2
TAP	55	96	3
TAP	55	192	1
TAP	55	192	4
HLD	56	0	6	96
TAP	56	96	7
TAP	56	192	0
TAP	56	192	5
HLD	57	0	1	96
TAP	57	96	0
TAP	57	192	2
TAP	57	192	7
TAP	58	0	1
TAP	58	0	3
TAP	58	96	2
TAP	58	192	3
TAP	58	192	5
STR	58	288	4
SF_	58	288	4	96	240	0
BRK	60	0	2
BRK	60	0	7
TAP	60	96	1
TAP	60	192	0
TAP	60	288	0
TAP	61	0	0
TAP	61	0	5
TAP	61	96	6
TAP	61	192	7
STR	61	288	7
SLR	61	288	7	96	288	4
TAP	63	0	3
TAP	63	0	5
TAP	63	96	2
TAP	63	96	6
TAP	63	192	1
TAP	63	192	7
TAP	64	0	3
TAP	64	0	6
TAP	64	96	5
TAP	64	192	4
TAP	64	288	4
TAP	65	0	1
TAP	65	0	4
TAP	65	96	2
TAP	65	192	3
STR	65	288	4
SLL	65	288	4	96	288	6
HLD	67	0	0	96
HLD	67	0	7	96
TAP	67	192	1
TAP	67	192	6
TAP	68	0	2
TAP	68	96	2
TAP	68	192	3
TAP	68	288	4
TAP	69	0	3
TAP	69	0	5
TAP	69	96	2
TAP	69	96	6
TAP	69	192	1
TAP	69	192	7
TAP	69	288	0
TAP	70	0	7
TAP	70	48	7
TAP	70	96	7
TAP	70	192	0
TAP	70	240	0
TAP	70	288	0
TAP	71	0	0
TAP	71	0	7
TAP	71	48	0
TAP	71	48	7
TAP	71	96	0
TAP	71	96	7
TAP	71	192	1
TAP	71	192	6
TAP	72	0	5
TAP	72	48	5
TAP	72	96	4
TAP	72	192	3
TAP	72	192	6
TAP	73	0	2
TAP	73	48	2
TAP	73	96	3
TAP	73	192	1
TAP	73	192	4
STR	74	0	0
SI_	74	0	0	96	144	3
STR	75	0	4
SI_	75	0	4	96	144	7
STR	76	0	0
SCR	76	0	0	96	144	3
TAP	77	0	3
TAP	77	0	4
TAP	77	96	2
TAP	77	96	5
TAP	77	192	1
TAP	77	192	6
TAP	77	288	0
TAP	77	288	7
HLD	78	0	0	96
HLD	78	0	7	96
TAP	78	192	1
TAP	78	192	6
TAP	78	240	1
TAP	78	240	6
BRK	78	288	1
BRK	78	288	6
TAP	79	0	2
TAP	79	96	1
TAP	79	96	3
TAP	79	192	5
TAP	79	288	4
TAP	79	288	6
TAP	80	0	1
TAP	80	48	1
TAP	80	96	0
TAP	80	96	1
TAP	80	192	6
TAP	80	240	6
TAP	80	288	6
TAP	80	288	7
TAP	81	0	0
TAP	81	48	0
TAP	81	96	0
TAP	81	96	7
TAP	81	192	1
TAP	81	192	6
HLD	82	0	3	96
HLD	82	96	2	96
TAP	82	192	1
HLD	83	0	4	96
HLD	83	96	5	96
TAP	83	192	6
TAP	84	0	0
TAP	84	48	0
TAP	84	96	0
TAP	84	192	7
TAP	84	240	7
TAP	84	288	7
TAP	85	0	1
TAP	85	0	6
TAP	85	48	1
TAP	85	48	6
TAP	85	96	1
TAP	85	96	6
BRK	85	192	2
BRK	85	192	5
TAP	86	0	2
TAP	86	0	3
TAP	86	96	1
TAP	86	192	0
TAP	86	288	7
TAP	87	0	3
TAP	87	0	6
TAP	87	96	5
TAP	87	192	1
TAP	87	192	4
TAP	87	288	2
TAP	88	0	4
TAP	88	0	5
TAP	88	48	4
TAP	88	48	5
BRK	88	96	4
BRK	88	96	5
TAP	88	192	2
TAP	88	192	3
TAP	88	240	2
TAP	88	240	3
BRK	88	288	2
BRK	88	288	3
TAP	89	0	6
TAP	89	0	7
TAP	89	48	6
TAP	89	48	7
BRK	89	96	6
BRK	89	96	7
TAP	89	192	0
TAP	89	192	1
TAP	89	240	0
TAP	89	240	1
BRK	89	288	0
BRK	89	288	1
HLD	90	0	2	96
TAP	90	96	3
TAP	90	192	1
TAP	90	192	4
TAP	90	288	0
TAP	90	288	5
HLD	91	0	6	96
TAP	91	96	7
TAP	91	192	0
TAP	91	192	5
TAP	92	0	2
TAP	92	0	3
TAP	92	96	4
TAP	92	96	5
TAP	92	192	3
TAP	92	192	6
TAP	92	288	7
TAP	93	0	4
TAP	93	0	5
TAP	93	96	2
TAP	93	96	3
BRK	93	192	1
BRK	93	192	4
TAP	94	0	3
TAP	94	0	6
TAP	94	96	3
TAP	94	96	6
TAP	94	192	1
TAP	94	192	4
TAP	94	288	1
TAP	94	288	4
TAP	95	0	6
TAP	95	0	7
TAP	95	96	0
TAP	95	96	1
TAP	95	192	2
TAP	95	192	3
STR	95	288	4
SCR	95	288	4	96	288	1
TAP	97	0	2
TAP	97	0	3
TAP	97	96	4
TAP	97	96	6
TAP	97	192	1
TAP	97	192	3
STR	97	288	3
SUR	97	288	3	96	288	2
STR	97	288	4
SCR	97	288	4	96	288	1
TAP	99	0	4
TAP	99	0	5
TAP	99	96	6
TAP	99	96	7
TAP	99	192	0
TAP	99	192	1
TAP	99	288	2
TAP	99	288	7
BRK	100	96	1
BRK	100	96	5

T_REC_TAP	363
T_REC_BRK	26
T_REC_XTP	0
T_REC_HLD	30
T_REC_XHO	0
T_REC_STR	16
T_REC_BST	0
T_REC_XST	0
T_REC_TTP	0
T_REC_THO	0
T_REC_SLD	16
T_REC_ALL	451
T_NUM_TAP	379
T_NUM_BRK	26
T_NUM_HLD	30
T_NUM_SLD	16
T_NUM_ALL	451
T_JUDGE_TAP	405
T_JUDGE_HLD	132
T_JUDGE_SLD	16
T_JUDGE_ALL	553
TTM_EACHPAIRS	145
TTM_SCR_TAP	189500
TTM_SCR_BRK	67600
TTM_SCR_HLD	30000
TTM_SCR_SLD	24000
TTM_SCR_ALL	311100
TTM_SCR_S	299250
TTM_SCR_SS	308500
TTM_RAT_ACV	10084

