VERSION	0.00.00	1.03.00
FES_MODE	0
BPM_DEF	207.000	207.000	207.000	207.000
MET_DEF	4	4
RESOLUTION	384
CLK_DEF	384
COMPATIBLE_CODE	MA2

BPM	0	0	207.000

TAP	2	0	0
TAP	2	192	0
TAP	3	0	1
TAP	3	192	1
TAP	4	0	2
TAP	4	192	2
TAP	5	0	3
TAP	5	192	3
TAP	6	0	3
TAP	6	0	4
TAP	8	0	4
TAP	8	96	4
TAP	8	192	4
TAP	9	0	4
TAP	9	0	5
TAP	10	0	3
TAP	10	96	3
TAP	10	192	3
TAP	11	0	2
TAP	11	0	3
TAP	12	0	4
TAP	12	96	4
TAP	12	192	4
TAP	13	0	3
TAP	13	0	5
TAP	14	0	3
TAP	14	96	3
TAP	14	192	3
TAP	15	0	2
TAP	15	0	4
TAP	16	0	5
TAP	16	96	5
TAP	16	192	5
TAP	17	0	6
TAP	17	96	6
TAP	17	192	6
HLD	18	0	7	192
BRK	19	0	0
BRK	19	0	6
TAP	20	0	0
TAP	20	96	0
TAP	20	192	0
TAP	21	0	1
TAP	21	96	1
TAP	21	192	1
HLD	22	0	2	192
BRK	23	0	1
BRK	23	0	3
HLD	24	0	4	288
HLD	24	0	5	288
TAP	25	192	3
TAP	25	192	4
HLD	26	96	2	288
HLD	26	96	3	288
TAP	28	0	3
TAP	28	0	4
TAP	29	0	3
TAP	29	0	4
TAP	30	0	2
TAP	30	0	5
TAP	31	0	2
TAP	31	0	5
TAP	32	0	1
TAP	32	0	6
TAP	33	0	1
TAP	33	0	6
TAP	34	0	0
TAP	34	0	7
TAP	35	0	0
TAP	35	0	7
HLD	36	0	7	192
HLD	37	0	6	192
HLD	38	0	5	192
HLD	39	0	4	192
TAP	40	0	3
TAP	40	192	3
TAP	41	0	2
TAP	41	192	2
TAP	42	0	1
TAP	42	192	1
BRK	43	0	0
BRK	43	0	7
TAP	44	0	0
TAP	44	96	0
TAP	44	192	1
TAP	44	288	1
TAP	45	0	2
TAP	45	96	2
TAP	45	192	3
TAP	45	288	3
HLD	46	0	4	192
HLD	46	0	5	192
HLD	47	0	2	192
HLD	47	0	3	192
TAP	48	0	5
TAP	48	96	4
TAP	48	192	3
TAP	48	192	5
TAP	49	0	2
TAP	49	96	3
TAP	49	192	2
TAP	49	192	4
TAP	50	0	4
TAP	50	96	4
TAP	50	192	5
TAP	50	288	5
TAP	51	0	6
TAP	51	96	6
TAP	51	192	0
TAP	51	192	7
TAP	52	0	7
TAP	52	96	7
TAP	52	192	6
TAP	52	288	6
TAP	53	0	5
TAP	53	96	5
TAP	53	192	4
TAP	53	288	4
HLD	54	0	2	192
HLD	54	0	3	192
HLD	55	0	4	192
HLD	55	0	5	192
TAP	56	0	2
TAP	56	96	3
TAP	56	192	2
TAP	56	192	4
TAP	57	0	5
TAP	57	96	4
TAP	57	192	3
TAP	57	192	5
TAP	58	0	3
TAP	58	96	3
TAP	58	192	2
TAP	58	288	2
TAP	59	0	1
TAP	59	96	1
TAP	59	192	0
TAP	59	192	7
STR	60	0	0
SI_	60	0	0	96	288	4
STR	62	0	7
SI_	62	0	7	96	288	3
STR	64	0	0
SI_	64	0	0	96	288	5
STR	64	0	1
SI_	64	0	1	96	288	4
STR	66	0	6
SI_	66	0	6	96	288	3
STR	66	0	7
SI_	66	0	7	96	288	2
HLD	68	0	0	576
TAP	69	0	7
TAP	69	192	7
HLD	70	0	7	576
TAP	71	0	0
TAP	71	192	0
HLD	72	0	6	288
HLD	72	0	7	288
HLD	73	0	0	288
HLD	73	0	1	288
BRK	74	0	2
BRK	74	0	3
BRK	75	0	4
BRK	75	0	5
BRK	76	0	0
BRK	76	0	1
BRK	77	0	6
BRK	77	0	7
TAP	78	0	0
TAP	78	96	0
TAP	78	192	1
TAP	78	288	1
TAP	79	0	2
TAP	79	96	2
TAP	79	192	3
TAP	79	288	3
HLD	80	0	4	576
TAP	80	192	3
TAP	81	0	3
BRK	81	192	3
TAP	82	0	4
TAP	82	96	4
TAP	82	192	5
TAP	82	288	5
TAP	83	0	6
TAP	83	96	6
TAP	83	192	7
TAP	83	288	7
TAP	84	0	0
TAP	84	96	0
TAP	84	192	7
TAP	84	288	7
HLD	85	0	0	192
TAP	85	192	7
TAP	86	0	7
TAP	86	96	7
TAP	86	192	6
TAP	86	288	6
TAP	87	0	5
TAP	87	96	5
TAP	87	192	4
TAP	87	288	4
BRK	88	0	3
BRK	88	0	5
BRK	88	192	2
BRK	88	192	4
BRK	89	0	3
BRK	89	0	5
BRK	89	192	2
BRK	89	192	4
TAP	90	0	3
TAP	90	96	3
TAP	90	192	2
TAP	90	288	2
TAP	91	0	1
TAP	91	96	1
TAP	91	192	0
TAP	91	288	0
TAP	92	0	7
TAP	92	96	7
TAP	92	192	0
TAP	92	288	0
HLD	93	0	7	192
TAP	93	192	0
TAP	94	0	7
TAP	94	96	7
TAP	94	192	6
TAP	94	288	6
TAP	95	0	5
TAP	95	96	5
TAP	95	192	4
TAP	95	288	4
TAP	96	0	3
TAP	96	0	4
TAP	96	96	3
TAP	96	96	4
TAP	96	192	2
TAP	96	192	5
TAP	96	288	2
TAP	96	288	5
TAP	97	0	1
TAP	97	0	6
TAP	97	96	1
TAP	97	96	6
TAP	97	192	0
TAP	97	192	7
TAP	97	288	0
TAP	97	288	7
HLD	98	0	0	768
HLD	99	0	7	384
HLD	100	96	1	1440
HLD	100	96	6	1440

T_REC_TAP	186
T_REC_BRK	23
T_REC_XTP	0
T_REC_HLD	31
T_REC_XHO	0
T_REC_STR	6
T_REC_BST	0
T_REC_XST	0
T_REC_TTP	0
T_REC_THO	0
T_REC_SLD	6
T_REC_ALL	252
T_NUM_TAP	192
T_NUM_BRK	23
T_NUM_HLD	31
T_NUM_SLD	6
T_NUM_ALL	252
T_JUDGE_TAP	215
T_JUDGE_HLD	232
T_JUDGE_SLD	6
T_JUDGE_ALL	453
TTM_EACHPAIRS	50
TTM_SCR_TAP	96000
TTM_SCR_BRK	59800
TTM_SCR_HLD	31000
TTM_SCR_SLD	9000
TTM_SCR_ALL	195800
TTM_SCR_S	187700
TTM_SCR_SS	193500
TTM_RAT_ACV	10118

