VERSION	0.00.00	1.03.00
FES_MODE	0
BPM_DEF	145.000	145.000	172.000	145.000
MET_DEF	4	4
RESOLUTION	384
CLK_DEF	384
COMPATIBLE_CODE	MA2

BPM	0	0	145.000
BPM	42	0	172.000

TAP	1	0	0
TAP	1	0	7
HLD	1	48	5	72
HLD	1	120	4	72
HLD	1	192	3	72
HLD	1	264	2	72
TAP	1	336	1
TAP	2	0	0
TAP	2	0	7
HLD	2	48	2	72
HLD	2	120	3	72
HLD	2	192	4	72
HLD	2	264	5	72
TAP	2	336	6
TAP	3	0	0
TAP	3	0	7
HLD	3	48	4	72
HLD	3	120	3	72
HLD	3	192	2	72
HLD	3	264	1	72
TAP	3	336	0
TAP	4	0	0
TAP	4	0	1
TAP	4	48	2
TAP	4	48	3
TAP	4	96	4
TAP	4	96	5
TAP	4	144	6
TAP	4	144	7
STR	4	168	6
SI_	4	168	6	96	48	3
STR	4	168	7
SI_	4	168	7	96	48	2
BST	5	0	2
SUR	5	0	2	96	144	4
BRK	5	0	5
TAP	5	240	6
TAP	5	288	5
TAP	5	336	4
HLD	6	0	2	96
STR	6	0	3
SI_	6	0	3	96	48	7
TAP	6	96	3
STR	6	144	0
SI_	6	144	0	96	48	4
TAP	6	240	0
HLD	6	240	5	144
TAP	7	0	4
TAP	7	48	5
TAP	7	96	4
TAP	7	96	6
TAP	7	144	5
TAP	7	192	3
TAP	7	192	4
TAP	7	240	2
TAP	7	288	1
TAP	7	288	3
TAP	7	336	2
TAP	8	0	3
TAP	8	0	4
TAP	8	48	5
TAP	8	96	4
TAP	8	96	6
TAP	8	144	5
TAP	8	192	3
TAP	8	192	4
TAP	8	240	2
TAP	8	288	1
TAP	8	336	0
TAP	9	0	6
STR	9	0	7
SUR	9	0	7	96	96	0
TAP	9	240	2
STR	9	288	3
SI_	9	288	3	96	48	7
TAP	9	336	4
STR	10	0	5
SI_	10	0	5	96	48	1
TAP	10	96	0
TAP	10	192	0
TAP	10	192	2
TAP	10	240	3
TAP	10	288	4
TAP	10	336	5
TAP	11	0	3
TAP	11	0	4
TAP	11	48	2
TAP	11	96	1
TAP	11	96	3
TAP	11	144	2
TAP	11	192	3
TAP	11	192	4
TAP	11	240	5
TAP	11	288	4
TAP	11	288	6
TAP	11	336	5
TAP	12	0	3
TAP	12	0	4
TAP	12	48	2
TAP	12	96	1
TAP	12	96	3
TAP	12	144	2
STR	12	192	3
SUR	12	192	3	96	96	4
TAP	12	192	4
TAP	12	288	3
STR	12	288	4
SCR	12	288	4	96	144	3
TAP	13	0	7
TAP	13	192	2
TAP	13	192	6
TAP	13	240	1
TAP	13	240	5
STR	13	288	0
SCR	13	288	0	96	48	3
TAP	13	288	4
STR	14	0	6
SCL	14	0	6	96	48	3
STR	14	96	0
SI_	14	96	0	96	48	3
STR	14	192	6
SI_	14	192	6	96	48	3
STR	14	288	7
SF_	14	288	7	96	96	3
BST	15	288	0
SI_	15	288	0	96	192	4
SSL	15	288	0	96	192	4
TAP	16	288	2
TAP	16	288	5
TAP	17	0	0
TAP	17	0	1
TAP	17	48	7
TAP	17	96	6
TAP	17	144	5
TAP	17	168	4
TAP	17	216	4
TAP	17	240	5
TAP	17	288	4
TAP	17	288	6
TAP	17	336	5
TAP	18	0	6
TAP	18	0	7
TAP	18	48	0
TAP	18	96	1
TAP	18	144	2
TAP	18	168	3
TAP	18	216	3
TAP	18	240	2
TAP	18	288	1
TAP	18	288	3
TAP	18	336	2
STR	19	0	4
SUL	19	0	4	96	96	3
TAP	19	96	3
STR	19	192	2
SUR	19	192	2	96	96	4
TAP	19	288	5
STR	20	0	6
SXL	20	0	6	96	96	3
TAP	20	96	1
TAP	20	192	2
BRK	20	288	3
BRK	20	288	7
TAP	21	0	4
HLD	21	0	5	192
TAP	21	96	6
HLD	21	192	4	192
TAP	21	288	7
HLD	22	0	3	192
TAP	22	96	1
HLD	22	192	0	48
HLD	22	240	7	48
HLD	22	288	0	48
HLD	22	336	7	48
HLD	23	0	2	192
TAP	23	96	1
HLD	23	192	3	192
TAP	23	288	0
HLD	24	0	4	288
TAP	24	96	6
STR	24	288	3
SI_	24	288	3	96	48	7
STR	25	96	0
SV_	25	96	0	96	48	3
STR	25	96	6
SV_	25	96	6	96	48	3
TAP	25	192	0
TAP	25	192	6
STR	25	288	2
SI_	25	288	2	96	48	4
STR	25	288	5
SI_	25	288	5	96	48	1
BRK	26	0	2
BRK	26	0	5
TAP	26	96	0
TAP	26	96	1
TAP	26	144	2
TAP	26	168	3
TAP	26	216	5
TAP	26	240	4
TAP	26	288	1
TAP	26	288	3
TAP	26	336	0
TAP	27	0	6
TAP	27	0	7
TAP	27	48	5
TAP	27	96	6
TAP	27	96	7
TAP	27	144	5
TAP	27	168	4
TAP	27	216	2
TAP	27	240	3
STR	27	288	0
SI_	27	288	0	96	48	4
TAP	27	288	4
TAP	27	336	1
TAP	28	0	0
STR	28	0	3
SI_	28	0	3	96	48	1
TAP	28	96	3
STR	28	96	5
SI_	28	96	5	96	48	7
STR	28	192	0
SI_	28	192	0	96	48	4
TAP	28	192	5
TAP	28	288	0
STR	28	288	2
SCL	28	288	2	96	192	3
TAP	29	0	2
TAP	29	0	7
TAP	29	240	0
TAP	29	240	1
TAP	29	288	2
TAP	29	336	3
HLD	30	0	4	96
HLD	30	0	5	96
TAP	30	144	4
TAP	30	144	5
STR	30	192	3
SI_	30	192	3	96	48	7
TAP	30	192	6
TAP	30	288	2
TAP	30	288	3
TAP	30	336	1
HLD	31	0	0	96
HLD	31	96	6	96
HLD	31	192	4	96
HLD	31	288	2	48
TAP	31	336	1
TAP	32	0	2
TAP	32	0	3
TAP	32	48	4
TAP	32	96	2
TAP	32	96	3
TAP	32	144	1
TAP	32	192	2
TAP	32	192	3
TAP	32	240	5
TAP	32	288	2
TAP	32	288	3
TAP	32	336	0
STR	33	0	2
SI_	33	0	2	96	48	5
STR	33	0	7
SI_	33	0	7	96	48	4
BRK	33	192	3
TAP	34	0	1
TAP	34	0	4
TAP	34	48	2
TAP	34	48	5
STR	34	96	3
SI_	34	96	3	96	48	7
TAP	34	96	6
TAP	34	192	1
TAP	34	192	3
BRK	34	240	0
BRK	34	288	0
TAP	34	336	6
TAP	34	336	7
TAP	35	48	3
TAP	35	48	6
TAP	35	96	1
STR	35	96	4
SI_	35	96	4	96	48	0
TAP	35	192	4
TAP	35	192	6
BRK	35	240	7
BST	35	288	7
SI_	35	288	7	96	48	3
STR	36	0	2
SI_	36	0	2	96	48	0
TAP	36	0	7
TAP	36	96	2
STR	36	96	6
SI_	36	96	6	96	48	4
STR	36	192	3
SI_	36	192	3	96	48	7
TAP	36	192	6
TAP	36	288	3
STR	36	288	5
SCR	36	288	5	96	192	4
TAP	37	0	0
TAP	37	0	5
TAP	37	240	2
TAP	37	240	3
TAP	37	288	1
TAP	37	336	0
TAP	38	0	6
TAP	38	0	7
TAP	38	48	5
STR	38	96	1
SI_	38	96	1	96	48	3
STR	38	96	4
SI_	38	96	4	96	48	0
BRK	38	192	1
BRK	38	192	4
TAP	38	288	2
TAP	38	288	7
TAP	38	336	0
HLD	38	336	5	96
TAP	39	48	4
TAP	39	96	0
TAP	39	96	7
HLD	39	144	2	96
TAP	39	144	3
STR	39	240	0
SCL	39	240	0	96	240	1
TAP	39	288	6
HLD	39	336	4	240
TAP	40	336	0
HLD	40	336	7	96
TAP	41	48	3
TAP	41	96	2
TAP	41	96	6
HLD	41	144	1	96
TAP	41	144	5
TAP	41	240	0
STR	41	288	2
SI_	41	288	2	96	48	7
STR	41	288	6
SI_	41	288	6	96	48	3
BRK	42	0	2
BST	42	0	6
SCL	42	0	6	96	288	7
TAP	43	192	0
TAP	43	192	7
TAP	43	288	3
TAP	43	288	4
HLD	44	0	4	48
TAP	44	0	6
TAP	44	48	5
TAP	44	144	1
HLD	44	144	3	48
TAP	44	192	2
HLD	44	288	4	48
TAP	44	288	7
TAP	44	336	5
TAP	45	48	0
HLD	45	48	3	48
TAP	45	96	2
STR	45	192	2
SI_	45	192	2	96	48	7
STR	45	192	6
SI_	45	192	6	96	48	3
TAP	45	288	2
TAP	45	288	6
TAP	46	0	4
HLD	46	0	5	48
TAP	46	48	6
HLD	46	144	2	48
TAP	46	144	3
TAP	46	192	1
TAP	46	288	4
HLD	46	288	5	48
TAP	46	336	7
HLD	47	48	2	48
TAP	47	48	3
TAP	47	96	0
STR	47	192	1
SI_	47	192	1	96	48	4
STR	47	192	5
SI_	47	192	5	96	48	0
TAP	47	288	1
TAP	47	288	5
TAP	48	0	5
HLD	48	0	6	48
TAP	48	48	7
HLD	48	144	1	48
TAP	48	144	2
TAP	48	192	0
TAP	48	288	5
HLD	48	288	6	48
TAP	48	336	7
TAP	49	0	0
TAP	49	24	7
TAP	49	48	0
TAP	49	72	7
TAP	49	96	0
TAP	49	120	7
TAP	49	144	0
TAP	49	168	7
TAP	49	192	1
TAP	49	216	6
TAP	49	240	1
TAP	49	264	6
TAP	49	288	0
TAP	49	312	7
TAP	49	336	0
TAP	49	360	7
BST	50	0	0
SCR	50	0	0	96	288	3
TAP	50	192	5
STR	51	0	7
SCL	51	0	7	96	288	4
TAP	51	192	2
STR	52	0	1
SXL	52	0	1	96	480	4
TAP	52	192	4
HLD	53	0	5	192
TAP	54	0	4
HLD	54	0	6	288
TAP	54	192	5
TAP	54	288	4
HLD	55	0	1	192
TAP	55	0	3
HLD	55	192	2	192
HLD	56	0	3	192
STR	57	0	3
SI_	57	0	3	96	144	7
TAP	58	0	2
TAP	58	0	3
TAP	58	96	2
TAP	58	96	3
TAP	58	144	2
TAP	58	192	2
TAP	58	192	3
TAP	58	240	2
TAP	58	288	2
TAP	58	288	3
TAP	59	0	4
TAP	59	0	5
TAP	59	96	4
TAP	59	96	5
TAP	59	144	5
TAP	59	192	4
TAP	59	192	5
TAP	59	240	5
TAP	59	288	4
TAP	59	288	5
TAP	60	0	1
TAP	60	0	3
TAP	60	96	1
TAP	60	96	3
TAP	60	144	1
TAP	60	192	1
TAP	60	192	3
TAP	60	240	1
TAP	60	288	1
TAP	60	288	3
TAP	61	0	4
TAP	61	0	6
TAP	61	96	4
TAP	61	96	6
TAP	61	144	6
TAP	61	192	4
TAP	61	192	6
TAP	61	240	6
TAP	61	288	4
TAP	61	288	6
TAP	62	0	2
TAP	62	0	3
TAP	62	48	2
TAP	62	48	3
TAP	62	96	1
TAP	62	96	4
TAP	62	144	1
TAP	62	144	4
TAP	62	192	0
TAP	62	192	5
TAP	62	240	0
TAP	62	240	5
TAP	62	288	6
TAP	62	288	7
TAP	63	0	4
TAP	63	0	5
TAP	63	48	4
TAP	63	48	5
TAP	63	96	3
TAP	63	96	6
TAP	63	144	3
TAP	63	144	6
TAP	63	192	2
TAP	63	192	7
TAP	63	240	2
TAP	63	240	7
TAP	63	288	0
TAP	63	288	1
TAP	64	0	6
TAP	64	0	7
BRK	64	48	0
BRK	64	48	4
TAP	64	144	0
TAP	64	144	1
BRK	64	192	3
BRK	64	192	7
TAP	64	288	4
TAP	64	288	5
BRK	64	336	1
BRK	64	336	7
TAP	65	48	2
TAP	65	48	3
BST	65	96	0
SV_	65	96	0	96	48	3
BST	65	96	6
SV_	65	96	6	96	48	3
TAP	65	192	0
TAP	65	192	6
STR	65	288	2
SI_	65	288	2	96	48	4
STR	65	288	5
SI_	65	288	5	96	48	1
BRK	66	0	2
BRK	66	0	5
TAP	66	96	6
TAP	66	96	7
TAP	66	144	5
TAP	66	192	3
TAP	66	192	4
TAP	66	240	5
TAP	66	288	4
TAP	66	288	6
TAP	66	336	7
HLD	67	0	0	96
TAP	67	0	1
TAP	67	96	1
TAP	67	144	2
TAP	67	192	3
TAP	67	192	4
TAP	67	240	2
STR	67	288	0
SI_	67	288	0	96	48	4
TAP	67	288	1
TAP	68	0	0
STR	68	0	3
SI_	68	0	3	96	48	1
TAP	68	96	3
STR	68	96	5
SI_	68	96	5	96	48	7
STR	68	192	0
SI_	68	192	0	96	48	4
TAP	68	192	5
TAP	68	288	0
STR	68	288	2
SCL	68	288	2	96	192	3
TAP	69	0	2
TAP	69	0	7
TAP	69	240	6
TAP	69	240	7
TAP	69	288	5
TAP	69	336	4
HLD	70	0	2	96
HLD	70	0	3	96
TAP	70	144	2
TAP	70	144	3
TAP	70	192	1
STR	70	192	4
SI_	70	192	4	96	48	0
TAP	70	288	4
TAP	70	288	5
TAP	70	336	6
HLD	71	0	7	96
HLD	71	96	1	96
HLD	71	192	3	96
HLD	71	288	5	48
TAP	71	336	6
TAP	72	0	4
TAP	72	0	5
TAP	72	48	3
TAP	72	96	4
TAP	72	96	5
TAP	72	144	6
TAP	72	192	4
TAP	72	192	5
TAP	72	240	2
TAP	72	288	4
TAP	72	288	5
TAP	72	336	7
STR	73	0	0
SI_	73	0	0	96	48	4
STR	73	0	6
SI_	73	0	6	96	48	2
BRK	73	96	0
BRK	73	96	6
STR	73	192	1
SI_	73	192	1	96	48	5
STR	73	192	7
SI_	73	192	7	96	48	3
BRK	73	288	1
BRK	73	288	7
TAP	74	0	1
TAP	74	0	4
TAP	74	48	2
TAP	74	48	5
STR	74	96	3
SI_	74	96	3	96	48	7
TAP	74	96	6
TAP	74	192	1
TAP	74	192	3
BRK	74	240	0
BRK	74	288	0
TAP	74	336	6
TAP	74	336	7
TAP	75	48	3
TAP	75	48	6
TAP	75	96	1
STR	75	96	4
SI_	75	96	4	96	48	0
TAP	75	192	4
TAP	75	192	6
BRK	75	240	7
BST	75	288	7
SI_	75	288	7	96	48	3
STR	76	0	2
SI_	76	0	2	96	48	0
TAP	76	0	7
TAP	76	96	2
STR	76	96	6
SI_	76	96	6	96	48	4
STR	76	192	3
SI_	76	192	3	96	48	7
TAP	76	192	6
TAP	76	288	3
STR	76	288	5
SCR	76	288	5	96	192	4
TAP	77	0	0
TAP	77	0	5
TAP	77	240	2
TAP	77	240	3
TAP	77	288	1
TAP	77	336	0
TAP	78	0	6
TAP	78	0	7
TAP	78	48	5
STR	78	96	1
SI_	78	96	1	96	48	3
STR	78	96	4
SI_	78	96	4	96	48	0
BRK	78	192	1
BRK	78	192	4
TAP	78	288	2
TAP	78	288	7
TAP	78	336	0
HLD	78	336	5	96
TAP	79	48	4
TAP	79	96	0
TAP	79	96	7
HLD	79	144	2	96
TAP	79	144	3
STR	79	240	0
SCL	79	240	0	96	240	1
TAP	79	288	6
HLD	79	336	4	240
HLD	80	336	0	96
TAP	80	336	7
TAP	81	48	4
TAP	81	96	1
TAP	81	96	5
HLD	81	144	2	96
HLD	81	144	6	96
STR	81	288	1
SUL	81	288	1	96	48	5
STR	81	288	6
SUR	81	288	6	96	48	2
BRK	82	0	1
BRK	82	0	6
TAP	82	192	4
TAP	82	192	5
TAP	82	240	6
TAP	82	288	0
TAP	82	288	7
TAP	83	0	2
TAP	83	0	3
TAP	83	96	1
TAP	83	96	4
TAP	83	144	2
TAP	83	192	3
TAP	83	240	2
TAP	83	288	0
TAP	83	288	1
TAP	84	0	2
TAP	84	0	3
TAP	84	96	0
TAP	84	96	7
TAP	84	192	2
TAP	84	192	3
TAP	84	240	1
TAP	84	288	0
TAP	84	288	7
TAP	85	0	4
TAP	85	0	5
TAP	85	96	3
TAP	85	96	6
TAP	85	144	5
TAP	85	192	4
TAP	85	240	5
TAP	85	288	6
TAP	85	288	7
TAP	86	0	0
STR	86	0	1
SI_	86	0	1	96	48	4
TAP	86	96	5
STR	86	192	6
SI_	86	192	6	96	48	3
TAP	86	192	7
TAP	86	240	7
TAP	86	288	2
TAP	87	0	0
STR	87	0	1
SI_	87	0	1	96	48	4
TAP	87	96	5
STR	87	192	6
SI_	87	192	6	96	48	3
TAP	87	192	7
TAP	87	240	7
TAP	87	288	2
TAP	88	0	1
TAP	88	0	3
TAP	88	48	1
TAP	88	48	3
TAP	88	144	4
TAP	88	144	6
TAP	88	192	4
TAP	88	192	6
TAP	88	288	0
TAP	88	288	2
TAP	88	336	3
TAP	88	336	4
TAP	89	48	5
TAP	89	48	7
TAP	89	96	3
STR	89	96	4
SI_	89	96	4	96	48	0
TAP	89	192	7
BRK	89	288	1
BRK	89	288	6

T_REC_TAP	479
T_REC_BRK	33
T_REC_XTP	0
T_REC_HLD	64
T_REC_XHO	0
T_REC_STR	76
T_REC_BST	8
T_REC_XST	0
T_REC_TTP	0
T_REC_THO	0
T_REC_SLD	85
T_REC_ALL	745
T_NUM_TAP	555
T_NUM_BRK	41
T_NUM_HLD	64
T_NUM_SLD	85
T_NUM_ALL	745
T_JUDGE_TAP	596
T_JUDGE_HLD	144
T_JUDGE_SLD	85
T_JUDGE_ALL	825
TTM_EACHPAIRS	222
TTM_SCR_TAP	277500
TTM_SCR_BRK	106600
TTM_SCR_HLD	64000
TTM_SCR_SLD	127500
TTM_SCR_ALL	575600
TTM_SCR_S	554400
TTM_SCR_SS	571500
TTM_RAT_ACV	10071

