VERSION	0.00.00	1.03.00
FES_MODE	0
BPM_DEF	145.000	145.000	172.000	145.000
MET_DEF	4	4
RESOLUTION	384
CLK_DEF	384
COMPATIBLE_CODE	MA2

BPM	0	0	145.000
BPM	42	0	172.000

STR	1	0	0
SI_	1	0	0	96	48	3
TAP	1	0	7
STR	1	192	6
SI_	1	192	6	96	48	3
TAP	1	192	7
TAP	2	0	0
STR	2	0	1
SI_	2	0	1	96	48	4
TAP	2	192	0
STR	2	192	7
SI_	2	192	7	96	48	4
STR	3	0	0
SI_	3	0	0	96	48	3
TAP	3	0	7
STR	3	192	6
SI_	3	192	6	96	48	3
TAP	3	192	7
TAP	4	0	0
TAP	4	0	7
TAP	4	48	0
TAP	4	48	7
TAP	4	96	0
TAP	4	96	7
TAP	4	144	1
TAP	4	144	6
BRK	4	168	1
BRK	4	168	6
HLD	5	0	5	96
HLD	5	96	4	96
TAP	5	192	3
TAP	5	240	3
TAP	5	288	2
TAP	5	288	4
HLD	6	0	2	96
HLD	6	96	3	96
TAP	6	192	4
TAP	6	240	4
TAP	6	288	3
TAP	6	288	5
HLD	7	0	6	96
HLD	7	96	5	96
TAP	7	192	4
TAP	7	240	4
TAP	7	288	3
TAP	7	288	5
STR	8	0	2
SI_	8	0	2	96	48	0
TAP	8	0	3
TAP	8	192	6
TAP	8	192	7
TAP	8	288	0
TAP	8	288	1
HLD	9	0	2	96
HLD	9	96	3	96
TAP	9	192	4
TAP	9	240	4
TAP	9	288	3
TAP	9	288	5
HLD	10	0	5	96
HLD	10	96	4	96
TAP	10	192	3
TAP	10	240	3
TAP	10	288	2
TAP	10	288	4
HLD	11	0	1	96
HLD	11	96	2	96
TAP	11	192	3
TAP	11	240	3
TAP	11	288	2
TAP	11	288	4
TAP	12	0	4
STR	12	0	5
SI_	12	0	5	96	48	7
TAP	12	192	0
TAP	12	192	1
TAP	12	288	6
TAP	12	288	7
TAP	13	0	4
HLD	13	0	5	96
HLD	13	96	6	96
TAP	13	192	7
TAP	13	240	7
TAP	13	288	0
TAP	13	288	6
HLD	14	0	2	96
TAP	14	0	3
HLD	14	96	1	96
TAP	14	192	0
TAP	14	240	0
TAP	14	288	1
TAP	14	288	7
TAP	15	0	3
HLD	15	0	4	96
HLD	15	96	3	96
TAP	15	192	4
STR	15	288	0
SCR	15	288	0	96	96	3
STR	15	288	7
SCL	15	288	7	96	96	4
TAP	16	192	3
TAP	16	192	4
TAP	16	288	2
TAP	16	288	5
HLD	17	0	2	96
TAP	17	0	3
HLD	17	96	1	96
TAP	17	192	0
TAP	17	240	0
TAP	17	288	1
TAP	17	288	7
TAP	18	0	4
HLD	18	0	5	96
HLD	18	96	6	96
TAP	18	192	7
TAP	18	240	7
TAP	18	288	0
TAP	18	288	6
TAP	19	0	2
TAP	19	48	2
TAP	19	96	2
TAP	19	96	3
TAP	19	192	5
TAP	19	240	5
TAP	19	288	4
TAP	19	288	5
TAP	20	0	1
TAP	20	48	1
STR	20	96	7
SI_	20	96	7	96	48	3
BRK	20	192	0
STR	21	0	1
SXL	21	0	1	96	480	4
HLD	21	0	5	576
HLD	23	0	2	576
STR	23	0	6
SXR	23	0	6	96	480	3
TAP	25	0	3
TAP	25	0	4
BRK	26	0	0
BRK	26	0	7
TAP	26	96	4
TAP	26	96	5
TAP	26	192	1
TAP	26	240	1
TAP	26	288	0
TAP	27	0	0
TAP	27	0	7
TAP	27	96	2
TAP	27	96	3
TAP	27	192	6
TAP	27	240	6
TAP	27	288	7
HLD	28	0	1	96
HLD	28	96	3	96
HLD	28	192	4	96
STR	28	288	6
SCR	28	288	6	96	192	3
TAP	29	288	2
TAP	29	288	5
TAP	30	0	1
TAP	30	0	3
TAP	30	96	3
TAP	30	96	5
TAP	30	192	6
TAP	30	240	6
TAP	30	288	4
TAP	31	0	4
TAP	31	0	6
TAP	31	96	2
TAP	31	96	4
TAP	31	192	1
TAP	31	240	1
TAP	31	288	3
TAP	32	0	4
TAP	32	0	5
TAP	32	96	6
TAP	32	96	7
TAP	32	192	0
TAP	32	192	1
TAP	32	288	2
TAP	32	288	3
STR	33	0	4
SCL	33	0	4	96	96	1
STR	33	0	5
SUL	33	0	5	96	96	0
TAP	33	288	2
TAP	33	288	7
STR	34	0	2
SI_	34	0	2	96	48	7
STR	34	0	6
SI_	34	0	6	96	48	3
TAP	34	192	1
TAP	34	192	5
BRK	34	240	0
BRK	34	288	0
STR	35	0	1
SI_	35	0	1	96	48	4
STR	35	0	5
SI_	35	0	5	96	48	0
TAP	35	192	2
TAP	35	192	6
BRK	35	240	7
BRK	35	288	7
HLD	36	0	6	96
HLD	36	96	4	96
HLD	36	192	3	96
STR	36	288	1
SCL	36	288	1	96	192	4
TAP	37	288	2
TAP	37	288	5
TAP	38	0	2
TAP	38	0	3
TAP	38	96	6
TAP	38	96	7
TAP	38	192	4
TAP	38	240	4
TAP	38	288	1
TAP	39	0	4
TAP	39	0	5
TAP	39	96	0
TAP	39	96	1
TAP	39	192	3
TAP	39	240	3
TAP	39	288	6
TAP	40	0	2
TAP	40	0	3
TAP	40	96	0
TAP	40	96	1
TAP	40	192	6
TAP	40	192	7
TAP	40	288	4
TAP	40	288	5
STR	41	0	2
SCL	41	0	2	96	96	7
STR	41	0	3
SCR	41	0	3	96	96	6
TAP	41	288	0
TAP	41	288	5
BRK	42	0	0
BST	42	0	7
SCL	42	0	7	96	576	0
TAP	44	0	5
HLD	44	48	5	96
TAP	44	144	4
HLD	44	192	4	96
TAP	44	288	3
HLD	44	336	3	96
TAP	45	48	2
HLD	45	96	2	96
TAP	45	192	5
TAP	45	288	6
TAP	45	288	7
TAP	46	0	1
HLD	46	48	1	96
TAP	46	144	0
HLD	46	192	0	96
TAP	46	288	7
HLD	46	336	7	96
TAP	47	48	6
HLD	47	96	6	96
TAP	47	192	1
TAP	47	288	2
TAP	47	288	3
TAP	48	0	6
HLD	48	48	6	96
TAP	48	144	7
HLD	48	192	7	96
TAP	48	288	0
HLD	48	336	0	96
TAP	49	48	1
HLD	49	96	1	96
TAP	49	192	6
TAP	49	288	4
TAP	49	288	5
STR	50	0	2
SCL	50	0	2	96	480	4
HLD	50	0	3	576
HLD	52	0	4	576
STR	52	0	5
SCR	52	0	5	96	480	3
STR	54	0	0
SCL	54	0	0	96	480	2
HLD	54	0	1	576
HLD	56	0	6	576
STR	56	0	7
SCR	56	0	7	96	480	5
HLD	58	0	0	192
HLD	58	192	1	192
HLD	59	0	2	192
HLD	59	192	3	192
HLD	60	0	4	192
HLD	60	192	5	192
HLD	61	0	6	192
HLD	61	192	7	192
STR	62	0	0
SCR	62	0	0	96	96	3
TAP	62	192	7
STR	63	0	7
SCL	63	0	7	96	96	4
TAP	63	192	0
TAP	64	0	2
TAP	64	0	7
TAP	64	48	2
TAP	64	48	7
TAP	64	144	0
TAP	64	144	5
TAP	64	192	0
TAP	64	192	5
TAP	64	288	3
TAP	64	288	7
TAP	64	336	3
TAP	64	336	7
TAP	65	48	0
TAP	65	48	4
TAP	65	96	0
TAP	65	96	4
BRK	65	192	2
BRK	65	192	6
TAP	66	0	0
STR	66	0	1
SI_	66	0	1	96	48	4
TAP	66	192	5
TAP	66	240	5
TAP	66	288	4
TAP	66	288	6
STR	67	0	6
SI_	67	0	6	96	48	3
TAP	67	0	7
TAP	67	192	2
TAP	67	240	2
TAP	67	288	1
TAP	67	288	3
HLD	68	0	2	96
HLD	68	96	0	96
HLD	68	192	7	96
STR	68	288	5
SCL	68	288	5	96	192	0
TAP	69	288	1
TAP	69	288	6
TAP	70	0	0
TAP	70	0	1
TAP	70	96	3
TAP	70	192	1
TAP	70	240	0
TAP	70	288	1
TAP	71	0	6
TAP	71	0	7
TAP	71	96	4
TAP	71	192	6
TAP	71	240	7
TAP	71	288	6
TAP	72	0	0
TAP	72	0	7
TAP	72	96	5
TAP	72	96	6
TAP	72	192	3
TAP	72	192	4
TAP	72	288	1
TAP	72	288	2
STR	73	0	0
SI_	73	0	0	96	48	4
STR	73	0	7
SI_	73	0	7	96	48	3
TAP	73	192	1
TAP	73	192	6
TAP	73	288	3
TAP	73	288	4
TAP	74	0	0
TAP	74	0	7
TAP	74	48	0
TAP	74	48	7
TAP	74	96	0
STR	74	96	7
SI_	74	96	7	96	48	3
TAP	74	192	1
TAP	74	288	0
TAP	75	0	0
TAP	75	0	7
TAP	75	48	0
TAP	75	48	7
STR	75	96	0
SI_	75	96	0	96	48	4
TAP	75	96	7
TAP	75	192	6
TAP	75	288	7
HLD	76	0	5	96
HLD	76	96	7	96
HLD	76	192	0	96
STR	76	288	2
SCR	76	288	2	96	192	7
TAP	77	288	1
TAP	77	288	6
TAP	78	0	6
TAP	78	0	7
TAP	78	96	4
TAP	78	192	6
TAP	78	240	7
TAP	78	288	6
TAP	79	0	0
TAP	79	0	1
TAP	79	96	3
TAP	79	192	1
TAP	79	240	0
TAP	79	288	1
TAP	80	0	0
TAP	80	0	7
TAP	80	96	1
TAP	80	96	2
TAP	80	192	3
TAP	80	192	4
TAP	80	288	5
TAP	80	288	6
STR	81	0	0
SCR	81	0	0	96	192	3
STR	81	0	7
SCL	81	0	7	96	192	4
BRK	82	0	0
HLD	82	0	7	96
HLD	82	96	5	96
HLD	82	192	4	96
TAP	82	288	3
HLD	83	0	0	96
TAP	83	0	7
HLD	83	96	2	96
HLD	83	192	3	96
TAP	83	288	4
TAP	84	0	6
STR	84	0	7
SI_	84	0	7	96	48	3
STR	84	192	0
SI_	84	192	0	96	48	4
TAP	84	192	1
TAP	85	0	6
STR	85	0	7
SCR	85	0	7	96	96	4
TAP	85	288	1
TAP	85	288	6
HLD	86	0	0	96
TAP	86	0	7
HLD	86	96	2	96
HLD	86	192	3	96
TAP	86	288	4
TAP	87	0	0
HLD	87	0	7	96
HLD	87	96	5	96
HLD	87	192	4	96
TAP	87	288	3
TAP	88	0	2
TAP	88	0	6
TAP	88	48	2
TAP	88	48	6
TAP	88	144	0
TAP	88	144	4
TAP	88	192	0
TAP	88	192	4
TAP	88	288	3
TAP	88	288	7
TAP	88	336	3
TAP	88	336	7
TAP	89	48	1
TAP	89	48	5
TAP	89	96	1
TAP	89	96	5
STR	89	192	2
SCR	89	192	2	96	48	5
TAP	89	192	5

T_REC_TAP	294
T_REC_BRK	13
T_REC_XTP	0
T_REC_HLD	72
T_REC_XHO	0
T_REC_STR	43
T_REC_BST	1
T_REC_XST	0
T_REC_TTP	0
T_REC_THO	0
T_REC_SLD	44
T_REC_ALL	467
T_NUM_TAP	337
T_NUM_BRK	14
T_NUM_HLD	72
T_NUM_SLD	44
T_NUM_ALL	467
T_JUDGE_TAP	351
T_JUDGE_HLD	220
T_JUDGE_SLD	44
T_JUDGE_ALL	615
TTM_EACHPAIRS	132
TTM_SCR_TAP	168500
TTM_SCR_BRK	36400
TTM_SCR_HLD	72000
TTM_SCR_SLD	66000
TTM_SCR_ALL	342900
TTM_SCR_S	331300
TTM_SCR_SS	341500
TTM_RAT_ACV	10040

