VERSION	0.00.00	1.03.00
FES_MODE	0
BPM_DEF	145.000	145.000	172.000	145.000
MET_DEF	4	4
RESOLUTION	384
CLK_DEF	384
COMPATIBLE_CODE	MA2

BPM	0	0	145.000
BPM	42	0	172.000

TAP	1	0	3
TAP	1	96	2
TAP	1	192	2
TAP	1	192	3
TAP	2	0	4
TAP	2	96	5
TAP	2	192	4
TAP	2	192	5
TAP	3	0	5
TAP	3	96	4
TAP	3	192	3
TAP	3	288	2
TAP	4	0	3
TAP	4	0	4
TAP	4	96	3
TAP	4	96	4
BRK	4	192	2
BRK	4	192	5
HLD	5	0	6	192
TAP	5	192	7
TAP	6	0	6
TAP	6	96	6
TAP	6	192	6
TAP	6	192	7
HLD	7	0	1	192
TAP	7	192	0
TAP	8	0	1
TAP	8	96	1
TAP	8	192	0
TAP	8	192	1
HLD	9	0	2	192
TAP	9	192	3
TAP	10	0	2
TAP	10	96	2
TAP	10	192	2
TAP	10	192	3
HLD	11	0	5	192
TAP	11	192	4
TAP	12	0	5
TAP	12	96	5
TAP	12	192	4
TAP	12	192	5
TAP	13	0	6
TAP	13	96	6
TAP	13	192	7
TAP	13	288	7
TAP	14	0	0
TAP	14	96	0
TAP	14	192	0
TAP	14	192	1
TAP	15	0	2
TAP	15	96	2
TAP	15	192	3
TAP	15	288	3
TAP	16	0	4
TAP	16	96	4
TAP	16	192	4
TAP	16	192	5
STR	17	0	4
SI_	17	0	4	96	192	7
STR	18	0	0
SI_	18	0	0	96	192	3
STR	19	0	3
SXR	19	0	3	96	480	0
STR	19	0	4
SXL	19	0	4	96	480	7
HLD	21	0	1	192
TAP	21	96	0
TAP	21	192	0
HLD	22	0	6	192
TAP	22	96	7
TAP	22	192	7
TAP	23	0	5
TAP	23	96	4
TAP	23	192	3
TAP	23	288	2
TAP	24	0	3
TAP	24	0	4
TAP	24	96	3
TAP	24	96	4
BRK	24	192	2
BRK	24	192	5
STR	25	0	3
SI_	25	0	3	96	192	0
STR	25	0	4
SI_	25	0	4	96	192	7
TAP	26	0	1
TAP	26	96	0
TAP	26	192	0
TAP	26	192	1
TAP	26	288	2
TAP	26	288	7
TAP	27	0	6
TAP	27	96	7
TAP	27	192	6
TAP	27	192	7
TAP	27	288	0
TAP	27	288	5
TAP	28	0	1
TAP	28	96	0
TAP	28	96	1
TAP	28	192	6
TAP	28	288	6
TAP	28	288	7
TAP	29	0	0
TAP	29	0	7
TAP	29	96	0
TAP	29	96	7
BRK	29	192	1
BRK	29	192	6
STR	30	0	4
SI_	30	0	4	96	192	1
STR	30	0	5
SI_	30	0	5	96	192	0
STR	31	0	2
SI_	31	0	2	96	192	7
STR	31	0	3
SI_	31	0	3	96	192	6
TAP	32	0	4
TAP	32	0	5
TAP	32	96	4
TAP	32	96	5
TAP	32	192	2
TAP	32	192	3
TAP	32	288	2
TAP	32	288	3
HLD	33	0	3	96
HLD	33	0	4	96
BRK	33	192	2
BRK	33	192	5
TAP	34	0	5
TAP	34	96	4
TAP	34	192	4
TAP	34	192	5
TAP	34	288	3
TAP	34	288	6
TAP	35	0	2
TAP	35	96	3
TAP	35	192	2
TAP	35	192	3
TAP	35	288	1
TAP	35	288	4
TAP	36	0	5
TAP	36	96	4
TAP	36	96	5
TAP	36	192	2
TAP	36	288	2
TAP	36	288	3
TAP	37	0	3
TAP	37	0	4
TAP	37	96	3
TAP	37	96	4
BRK	37	192	2
BRK	37	192	5
STR	38	0	0
SI_	38	0	0	96	192	5
STR	38	0	1
SI_	38	0	1	96	192	4
STR	39	0	6
SI_	39	0	6	96	192	3
STR	39	0	7
SI_	39	0	7	96	192	2
TAP	40	0	0
TAP	40	0	1
TAP	40	96	0
TAP	40	96	1
TAP	40	192	6
TAP	40	192	7
TAP	40	288	6
TAP	40	288	7
HLD	41	0	0	96
HLD	41	0	7	96
BRK	41	192	1
BRK	41	192	6
HLD	42	0	5	384
HLD	43	0	4	384
TAP	44	0	5
TAP	44	192	4
TAP	45	0	5
TAP	45	96	4
TAP	45	192	4
TAP	45	192	5
TAP	46	0	6
TAP	46	192	7
TAP	47	0	6
TAP	47	96	7
TAP	47	192	6
TAP	47	192	7
TAP	48	0	1
TAP	48	192	0
TAP	49	0	1
TAP	49	96	0
TAP	49	192	0
TAP	49	192	1
HLD	50	0	2	384
HLD	51	0	3	384
HLD	52	0	4	384
HLD	53	0	5	192
TAP	53	192	4
HLD	54	0	6	384
HLD	55	0	7	384
HLD	56	0	0	384
HLD	57	0	1	192
TAP	57	192	0
HLD	58	0	6	192
TAP	58	192	7
HLD	59	0	6	192
TAP	59	192	7
HLD	60	0	1	192
TAP	60	192	0
HLD	61	0	1	192
TAP	61	192	0
HLD	62	0	2	192
TAP	62	192	3
HLD	63	0	5	192
TAP	63	192	4
STR	64	0	3
SI_	64	0	3	96	192	0
STR	64	0	4
SI_	64	0	4	96	192	7
TAP	65	0	0
TAP	65	0	7
TAP	65	96	0
TAP	65	96	7
BRK	65	192	1
BRK	65	192	6
TAP	66	0	1
TAP	66	96	0
TAP	66	192	6
TAP	66	192	7
TAP	66	288	0
TAP	66	288	5
TAP	67	0	6
TAP	67	96	7
TAP	67	192	0
TAP	67	192	1
TAP	67	288	2
TAP	67	288	7
TAP	68	0	1
TAP	68	96	0
TAP	68	96	1
TAP	68	192	6
TAP	68	288	6
TAP	68	288	7
TAP	69	0	0
TAP	69	0	7
TAP	69	96	0
TAP	69	96	7
BRK	69	192	1
BRK	69	192	6
STR	70	0	4
SI_	70	0	4	96	192	1
STR	70	0	5
SI_	70	0	5	96	192	0
STR	71	0	2
SI_	71	0	2	96	192	7
STR	71	0	3
SI_	71	0	3	96	192	6
TAP	72	0	4
TAP	72	0	5
TAP	72	96	4
TAP	72	96	5
TAP	72	192	2
TAP	72	192	3
TAP	72	288	2
TAP	72	288	3
HLD	73	0	3	96
HLD	73	0	4	96
BRK	73	192	2
BRK	73	192	5
TAP	74	0	5
TAP	74	96	4
TAP	74	192	2
TAP	74	192	3
TAP	74	288	1
TAP	74	288	4
TAP	75	0	2
TAP	75	96	3
TAP	75	192	4
TAP	75	192	5
TAP	75	288	3
TAP	75	288	6
TAP	76	0	5
TAP	76	96	4
TAP	76	96	5
TAP	76	192	2
TAP	76	288	2
TAP	76	288	3
TAP	77	0	3
TAP	77	0	4
TAP	77	96	3
TAP	77	96	4
BRK	77	192	2
BRK	77	192	5
STR	78	0	0
SI_	78	0	0	96	192	5
STR	78	0	1
SI_	78	0	1	96	192	4
STR	79	0	6
SI_	79	0	6	96	192	3
STR	79	0	7
SI_	79	0	7	96	192	2
TAP	80	0	0
TAP	80	0	1
TAP	80	96	0
TAP	80	96	1
TAP	80	192	6
TAP	80	192	7
TAP	80	288	6
TAP	80	288	7
HLD	81	0	0	96
HLD	81	0	7	96
BRK	81	192	1
BRK	81	192	6
TAP	82	0	1
TAP	82	96	0
TAP	82	192	0
TAP	82	192	1
TAP	83	0	6
TAP	83	96	7
TAP	83	192	6
TAP	83	192	7
TAP	84	0	6
TAP	84	96	7
TAP	84	192	0
TAP	84	288	1
TAP	85	0	0
TAP	85	0	7
TAP	85	96	0
TAP	85	96	7
TAP	85	192	1
TAP	85	192	6
TAP	86	0	5
TAP	86	96	4
TAP	86	192	4
TAP	86	192	5
TAP	87	0	2
TAP	87	96	3
TAP	87	192	2
TAP	87	192	3
TAP	88	0	0
TAP	88	0	1
TAP	88	192	6
TAP	88	192	7
TAP	89	0	0
TAP	89	0	7
TAP	89	96	1
TAP	89	96	6
BRK	89	192	2
BRK	89	192	5

T_REC_TAP	248
T_REC_BRK	24
T_REC_XTP	0
T_REC_HLD	30
T_REC_XHO	0
T_REC_STR	24
T_REC_BST	0
T_REC_XST	0
T_REC_TTP	0
T_REC_THO	0
T_REC_SLD	24
T_REC_ALL	350
T_NUM_TAP	272
T_NUM_BRK	24
T_NUM_HLD	30
T_NUM_SLD	24
T_NUM_ALL	350
T_JUDGE_TAP	296
T_JUDGE_HLD	136
T_JUDGE_SLD	24
T_JUDGE_ALL	456
TTM_EACHPAIRS	103
TTM_SCR_TAP	136000
TTM_SCR_BRK	62400
TTM_SCR_HLD	30000
TTM_SCR_SLD	36000
TTM_SCR_ALL	264400
TTM_SCR_S	254150
TTM_SCR_SS	262000
TTM_RAT_ACV	10091

