VERSION	0.00.00	1.03.00
FES_MODE	0
BPM_DEF	145.000	145.000	172.000	145.000
MET_DEF	4	4
RESOLUTION	384
CLK_DEF	384
COMPATIBLE_CODE	MA2

BPM	0	0	145.000
BPM	42	0	172.000

TAP	5	0	0
TAP	5	192	0
TAP	6	0	1
TAP	6	192	1
HLD	7	0	2	384
TAP	9	0	3
TAP	9	192	3
TAP	10	0	4
TAP	10	192	4
HLD	11	0	5	384
TAP	13	0	6
TAP	13	192	6
TAP	14	0	7
TAP	14	192	7
STR	15	0	0
SI_	15	0	0	96	288	3
TAP	17	0	4
TAP	17	192	4
TAP	18	0	3
TAP	18	192	3
STR	19	0	4
SI_	19	0	4	96	288	7
HLD	21	0	0	192
TAP	22	0	0
TAP	22	192	0
HLD	23	0	7	192
TAP	24	0	7
TAP	24	192	7
BRK	25	0	1
BRK	25	0	6
TAP	26	0	7
TAP	26	96	7
TAP	26	192	7
TAP	27	0	6
TAP	27	96	6
TAP	27	192	6
TAP	28	0	5
TAP	28	96	5
TAP	28	192	4
TAP	28	288	4
HLD	29	0	3	192
HLD	29	0	4	192
TAP	30	0	3
TAP	30	96	3
TAP	30	192	3
TAP	31	0	2
TAP	31	96	2
TAP	31	192	2
TAP	32	0	1
TAP	32	96	1
TAP	32	192	1
TAP	33	0	0
TAP	33	96	7
BRK	33	192	0
TAP	34	0	0
TAP	34	96	0
TAP	34	192	0
TAP	35	0	1
TAP	35	96	1
TAP	35	192	1
TAP	36	0	2
TAP	36	96	2
TAP	36	192	3
TAP	36	288	3
HLD	37	0	3	192
HLD	37	0	4	192
TAP	38	0	5
TAP	38	96	5
TAP	38	192	5
TAP	39	0	6
TAP	39	96	6
TAP	39	192	6
HLD	40	0	0	192
HLD	40	0	7	192
TAP	41	0	7
TAP	41	96	0
BRK	41	192	7
STR	42	0	0
SI_	42	0	0	96	288	4
STR	44	0	7
SI_	44	0	7	96	288	3
STR	46	0	1
SI_	46	0	1	96	288	4
STR	48	0	6
SI_	48	0	6	96	288	3
TAP	50	0	0
TAP	51	0	0
TAP	52	0	1
TAP	53	0	1
TAP	54	0	2
TAP	55	0	2
TAP	56	0	3
TAP	57	0	3
TAP	57	0	4
TAP	58	0	4
TAP	59	0	4
TAP	60	0	5
TAP	61	0	5
TAP	62	0	6
TAP	63	0	6
HLD	64	0	0	576
HLD	64	0	7	576
TAP	66	0	7
TAP	66	96	7
TAP	66	192	7
TAP	67	0	6
TAP	67	96	6
TAP	67	192	6
TAP	68	0	5
TAP	68	96	5
TAP	68	192	4
TAP	68	288	4
HLD	69	0	3	192
HLD	69	0	4	192
TAP	70	0	3
TAP	70	96	3
TAP	70	192	3
TAP	71	0	2
TAP	71	96	2
TAP	71	192	2
TAP	72	0	1
TAP	72	96	1
TAP	72	192	1
TAP	73	0	0
TAP	73	0	7
TAP	73	96	0
TAP	73	96	7
BRK	73	192	1
BRK	73	192	6
TAP	74	0	0
TAP	74	96	0
TAP	74	192	0
TAP	75	0	1
TAP	75	96	1
TAP	75	192	1
TAP	76	0	2
TAP	76	96	2
TAP	76	192	3
TAP	76	288	3
HLD	77	0	3	192
HLD	77	0	4	192
TAP	78	0	5
TAP	78	96	5
TAP	78	192	5
TAP	79	0	6
TAP	79	96	6
TAP	79	192	6
HLD	80	0	0	192
HLD	80	0	7	192
TAP	81	0	7
TAP	81	96	7
TAP	81	192	0
TAP	81	288	0
STR	82	0	7
SI_	82	0	7	96	288	3
STR	84	0	0
SI_	84	0	0	96	288	4
TAP	86	0	5
TAP	86	192	5
TAP	87	0	6
TAP	87	192	6
TAP	88	0	7
TAP	88	96	7
TAP	88	192	0
TAP	88	288	0
TAP	89	0	7
TAP	89	96	7
TAP	89	192	0
TAP	89	192	7
TAP	89	288	1
TAP	89	288	6

T_REC_TAP	131
T_REC_BRK	6
T_REC_XTP	0
T_REC_HLD	18
T_REC_XHO	0
T_REC_STR	8
T_REC_BST	0
T_REC_XST	0
T_REC_TTP	0
T_REC_THO	0
T_REC_SLD	8
T_REC_ALL	171
T_NUM_TAP	139
T_NUM_BRK	6
T_NUM_HLD	18
T_NUM_SLD	8
T_NUM_ALL	171
T_JUDGE_TAP	145
T_JUDGE_HLD	96
T_JUDGE_SLD	8
T_JUDGE_ALL	249
TTM_EACHPAIRS	14
TTM_SCR_TAP	69500
TTM_SCR_BRK	15600
TTM_SCR_HLD	18000
TTM_SCR_SLD	12000
TTM_SCR_ALL	115100
TTM_SCR_S	111100
TTM_SCR_SS	114500
TTM_RAT_ACV	10052

