VERSION	0.00.00	1.03.00
FES_MODE	0
BPM_DEF	150.000	150.000	150.000	150.000
MET_DEF	4	4
RESOLUTION	384
CLK_DEF	384
COMPATIBLE_CODE	MA2

BPM	0	0	150.000
MET	0	0	4	4
MET	42	0	4	2
MET	42	192	4	4
MET	58	192	4	2
MET	59	0	4	4
MET	67	0	4	2
MET	67	192	4	4
MET	85	192	4	2
MET	86	0	4	4

TAP	1	288	5
STR	2	0	0
SI_	2	0	0	96	48	4
TAP	2	0	4
TAP	2	96	0
STR	2	96	7
SI_	2	96	7	96	48	3
STR	2	192	1
SI_	2	192	1	96	48	4
TAP	2	192	7
TAP	2	288	1
STR	2	288	6
SCL	2	288	6	96	96	0
TAP	3	0	0
TAP	3	0	6
BRK	3	96	4
TAP	3	192	3
TAP	3	216	4
TAP	3	240	3
TAP	3	264	4
TAP	3	288	2
TAP	3	288	5
STR	4	0	2
SCR	4	0	2	96	48	5
TAP	4	0	6
TAP	4	72	3
TAP	4	96	2
TAP	4	144	7
STR	4	192	7
SV_	4	192	7	96	48	2
TAP	4	288	0
TAP	5	0	1
STR	5	0	5
SCL	5	0	5	96	48	2
TAP	5	72	4
TAP	5	96	5
TAP	5	144	0
STR	5	192	0
SV_	5	192	0	96	48	5
TAP	5	288	7
TAP	6	0	4
TAP	6	0	6
TAP	6	48	5
TAP	6	96	1
TAP	6	96	3
TAP	6	144	2
TAP	6	192	4
TAP	6	192	7
TAP	6	240	5
TAP	6	288	0
STR	6	288	3
SF_	6	288	3	96	96	7
TAP	6	336	2
TAP	7	192	1
TAP	7	192	5
STR	7	288	0
SI_	7	288	0	96	48	3
STR	7	288	7
SI_	7	288	7	96	48	4
TAP	7	336	1
TAP	7	336	6
TAP	8	0	0
TAP	8	0	7
STR	8	96	1
SCL	8	96	1	96	48	6
STR	8	96	5
SCL	8	96	5	96	48	2
TAP	8	192	1
TAP	8	192	5
TAP	8	288	0
TAP	8	336	0
HLD	9	0	1	48
HLD	9	48	3	48
TAP	9	96	4
TAP	9	144	4
TAP	9	192	2
TAP	9	192	5
TAP	9	240	1
TAP	9	240	6
TAP	9	288	3
TAP	9	336	5
STR	10	0	6
SI_	10	0	6	96	48	1
TAP	10	48	6
STR	10	96	2
SI_	10	96	2	96	48	5
TAP	10	144	2
STR	10	192	7
SI_	10	192	7	96	48	4
TAP	10	240	7
STR	10	288	3
SI_	10	288	3	96	48	0
TAP	10	336	3
STR	11	0	7
SI_	11	0	7	96	48	4
TAP	11	48	7
STR	11	96	3
SI_	11	96	3	96	48	1
STR	11	144	3
SI_	11	144	3	96	48	7
TAP	11	336	7
TAP	12	0	7
TAP	12	48	1
STR	12	96	3
SI_	12	96	3	96	48	0
TAP	12	144	3
STR	12	192	4
SI_	12	192	4	96	48	7
TAP	12	240	4
TAP	12	288	0
TAP	12	336	0
TAP	13	0	0
TAP	13	48	6
STR	13	96	1
SI_	13	96	1	96	48	6
STR	13	96	5
SI_	13	96	5	96	48	2
TAP	13	288	0
TAP	13	288	4
HLD	13	336	0	96
TAP	14	48	2
STR	14	96	3
SI_	14	96	3	96	48	7
TAP	14	144	3
STR	14	192	4
SI_	14	192	4	96	48	0
TAP	14	240	4
STR	14	288	2
SI_	14	288	2	96	48	7
TAP	14	336	2
STR	15	0	5
SI_	15	0	5	96	48	0
TAP	15	48	5
STR	15	96	2
SCR	15	96	2	96	96	7
TAP	15	144	2
TAP	15	192	7
TAP	16	0	3
HLD	16	0	5	288
TAP	16	288	2
HLD	17	0	2	48
HLD	17	0	4	48
HLD	17	96	3	48
HLD	17	96	5	48
HLD	17	192	1	48
HLD	17	192	4	48
HLD	17	288	3	48
HLD	17	288	6	48
STR	18	0	1
SI_	18	0	1	96	48	4
TAP	18	0	4
TAP	18	72	0
TAP	18	96	1
TAP	18	144	7
TAP	18	192	3
STR	18	192	6
SI_	18	192	6	96	48	3
TAP	18	264	7
TAP	18	288	6
TAP	18	336	0
STR	19	0	1
SI_	19	0	1	96	48	4
TAP	19	0	4
TAP	19	72	0
TAP	19	96	1
TAP	19	144	7
TAP	19	192	3
STR	19	192	6
SI_	19	192	6	96	48	3
TAP	19	264	7
TAP	19	288	6
TAP	19	336	0
TAP	20	0	2
TAP	20	0	7
TAP	20	48	6
TAP	20	96	0
TAP	20	96	5
TAP	20	144	1
TAP	20	192	2
STR	20	192	7
SI_	20	192	7	96	48	3
TAP	20	240	2
TAP	20	288	2
TAP	20	336	2
STR	21	0	3
SCL	21	0	3	96	48	1
STR	21	0	4
SCR	21	0	4	96	48	6
TAP	21	192	2
HLD	21	192	5	48
HLD	21	240	4	48
HLD	21	288	3	48
TAP	21	336	2
STR	22	0	1
SI_	22	0	1	96	48	6
STR	22	48	5
SI_	22	48	5	96	48	2
TAP	22	192	0
TAP	22	240	7
TAP	22	288	7
TAP	23	0	0
STR	23	48	1
SLR	23	48	1	96	96	7
STR	23	96	3
SV_	23	96	3	96	48	0
TAP	23	288	3
TAP	23	288	4
HLD	23	336	5	96
TAP	24	48	4
HLD	24	96	2	48
TAP	24	144	3
HLD	24	192	6	48
TAP	24	240	4
HLD	24	288	1	48
TAP	24	336	3
STR	25	0	3
SCR	25	0	3	96	96	7
TAP	25	96	0
STR	25	192	4
SI_	25	192	4	96	48	0
TAP	25	288	7
HLD	26	0	1	144
TAP	26	0	4
TAP	26	192	4
TAP	26	216	3
HLD	26	240	5	96
TAP	26	336	4
HLD	27	0	3	192
TAP	27	192	4
TAP	27	288	5
TAP	28	0	3
HLD	28	0	6	144
TAP	28	192	3
TAP	28	216	4
HLD	28	240	2	96
TAP	28	336	3
HLD	29	0	4	192
TAP	29	192	3
TAP	29	288	3
HLD	30	0	1	144
TAP	30	0	4
TAP	30	96	4
TAP	30	192	4
TAP	30	216	3
HLD	30	240	5	144
TAP	30	288	3
HLD	31	0	3	288
TAP	31	96	4
HLD	31	192	4	96
TAP	31	336	3
TAP	31	336	4
TAP	32	48	0
TAP	32	48	7
STR	32	96	0
SI_	32	96	0	96	48	4
STR	32	96	7
SI_	32	96	7	96	48	3
TAP	32	192	0
TAP	32	192	7
TAP	32	288	1
TAP	32	288	6
TAP	32	336	2
TAP	33	0	2
BRK	33	0	7
TAP	33	48	2
TAP	33	96	2
BRK	33	96	7
TAP	33	144	2
TAP	33	192	2
BST	33	192	7
SI_	33	192	7	96	48	3
TAP	34	0	1
TAP	34	0	5
TAP	34	48	2
TAP	34	48	6
STR	34	96	1
SI_	34	96	1	96	48	4
STR	34	96	5
SI_	34	96	5	96	48	0
TAP	34	144	2
TAP	34	144	6
TAP	34	192	1
TAP	34	192	5
TAP	34	288	2
TAP	34	288	6
TAP	34	336	1
TAP	34	336	5
STR	35	0	2
SCL	35	0	2	96	48	7
TAP	35	0	6
TAP	35	48	1
TAP	35	48	5
TAP	35	96	2
TAP	35	96	6
TAP	35	168	5
TAP	35	192	5
TAP	35	240	4
TAP	35	288	3
TAP	35	336	2
TAP	35	360	3
TAP	36	0	1
TAP	36	48	5
TAP	36	72	4
TAP	36	96	6
TAP	36	144	6
TAP	36	192	6
TAP	36	192	7
TAP	36	240	0
TAP	36	240	5
TAP	36	288	1
TAP	36	288	4
TAP	36	336	2
TAP	36	336	3
STR	37	0	1
SI_	37	0	1	96	48	4
STR	37	0	5
SI_	37	0	5	96	48	0
TAP	37	96	1
TAP	37	96	5
TAP	37	192	2
STR	37	192	6
SI_	37	192	6	96	48	2
TAP	37	288	2
TAP	37	288	6
HLD	37	336	0	96
TAP	38	48	7
TAP	38	72	0
TAP	38	96	7
TAP	38	144	3
STR	38	192	2
SCR	38	192	2	96	48	5
TAP	38	240	6
TAP	38	288	2
HLD	38	336	7	96
TAP	39	48	0
TAP	39	72	7
TAP	39	96	0
TAP	39	144	4
STR	39	192	5
SCL	39	192	5	96	48	2
TAP	39	240	1
TAP	39	288	0
TAP	39	288	5
TAP	39	336	0
TAP	40	0	2
TAP	40	0	6
TAP	40	48	1
TAP	40	48	5
STR	40	96	2
SI_	40	96	2	96	48	7
STR	40	96	6
SI_	40	96	6	96	48	3
TAP	40	144	1
TAP	40	144	5
TAP	40	192	2
TAP	40	192	6
TAP	40	288	1
TAP	40	288	5
TAP	40	336	2
TAP	40	336	6
TAP	41	0	1
STR	41	0	5
SCR	41	0	5	96	192	4
TAP	41	48	2
TAP	41	48	6
TAP	41	96	1
TAP	41	96	5
TAP	41	192	2
STR	41	288	6
SUL	41	288	6	96	48	1
BRK	42	96	0
TAP	42	192	4
HLD	42	192	5	672
TAP	42	240	4
TAP	42	288	3
TAP	42	336	3
STR	43	0	4
SCL	43	0	4	96	48	1
TAP	43	192	3
TAP	43	240	3
STR	43	288	4
SI_	43	288	4	96	48	2
TAP	44	96	3
TAP	44	144	2
HLD	44	192	2	672
TAP	44	264	3
TAP	44	336	4
TAP	45	0	4
TAP	45	72	5
TAP	45	144	4
STR	45	192	4
SLL	45	192	4	96	144	5
TAP	46	96	3
HLD	46	192	5	72
HLD	46	264	4	72
TAP	46	336	3
HLD	47	0	2	72
HLD	47	72	3	72
TAP	47	144	4
HLD	47	192	6	72
HLD	47	264	5	72
TAP	47	336	4
STR	48	0	4
SI_	48	0	4	96	48	2
SI_	48	0	4	96	48	6
TAP	48	192	7
TAP	48	240	7
TAP	48	288	0
TAP	48	336	0
TAP	49	0	6
TAP	49	48	6
TAP	49	96	1
TAP	49	144	1
TAP	49	192	0
TAP	49	216	7
TAP	49	240	2
TAP	49	264	5
TAP	49	288	3
TAP	49	312	4
TAP	49	336	1
TAP	49	360	6
TAP	50	0	3
TAP	50	24	4
TAP	50	48	2
TAP	50	72	5
TAP	50	96	0
BRK	50	192	1
BRK	50	192	6
TAP	50	240	2
TAP	50	264	3
TAP	50	312	5
TAP	50	336	4
STR	51	0	2
SI_	51	0	2	96	48	0
STR	51	0	7
SI_	51	0	7	96	48	4
TAP	51	96	2
TAP	51	96	7
TAP	51	192	3
TAP	51	192	6
TAP	51	240	5
TAP	51	264	4
TAP	51	312	2
TAP	51	336	3
STR	52	0	0
SI_	52	0	0	96	48	3
STR	52	0	5
SI_	52	0	5	96	48	7
TAP	52	96	0
TAP	52	96	5
TAP	52	192	2
TAP	52	192	6
TAP	52	240	1
TAP	52	264	3
TAP	52	312	6
TAP	52	336	4
STR	53	0	2
SCL	53	0	2	96	48	0
STR	53	0	7
SV_	53	0	7	96	48	4
TAP	53	96	2
TAP	53	96	7
TAP	53	192	1
TAP	53	192	5
TAP	53	240	6
TAP	53	264	4
TAP	53	312	1
TAP	53	336	3
STR	54	0	0
SCR	54	0	0	96	48	3
STR	54	0	5
SCR	54	0	5	96	48	7
TAP	54	96	0
TAP	54	96	5
TAP	54	192	4
TAP	54	192	6
TAP	54	264	3
TAP	54	264	4
TAP	54	336	1
TAP	54	336	3
HLD	55	24	0	72
TAP	55	96	7
TAP	55	144	0
TAP	55	192	1
TAP	55	192	3
TAP	55	264	3
TAP	55	264	4
TAP	55	336	4
TAP	55	336	6
HLD	56	24	7	72
TAP	56	96	0
TAP	56	144	0
HLD	56	192	6	72
HLD	56	264	5	72
HLD	56	336	7	72
HLD	57	24	4	72
HLD	57	96	0	72
HLD	57	168	3	72
HLD	57	240	1	72
HLD	57	312	2	72
TAP	58	0	3
TAP	58	72	1
TAP	58	72	4
TAP	58	144	1
TAP	58	144	4
TAP	58	192	4
TAP	58	192	5
TAP	58	264	3
TAP	58	264	6
TAP	58	336	3
TAP	58	336	6
STR	59	0	7
SXR	59	0	7	96	144	7
TAP	59	96	2
STR	59	192	0
SXL	59	192	0	96	144	0
TAP	59	288	5
STR	60	0	7
SXR	60	0	7	96	144	7
TAP	60	96	2
STR	60	192	0
SXL	60	192	0	96	144	0
TAP	60	288	5
STR	61	0	4
SXL	61	0	4	96	144	4
TAP	61	96	1
STR	61	192	3
SXR	61	192	3	96	144	3
TAP	61	288	6
STR	62	0	4
SXL	62	0	4	96	144	4
TAP	62	96	1
STR	62	192	3
SXR	62	192	3	96	144	3
TAP	62	288	6
TAP	63	0	4
TAP	63	96	4
TAP	63	96	6
TAP	63	192	3
TAP	63	288	1
TAP	63	288	3
TAP	64	0	5
TAP	64	96	2
TAP	64	96	5
TAP	64	192	3
TAP	64	192	4
TAP	64	288	2
TAP	64	288	5
HLD	64	336	2	96
TAP	65	48	3
TAP	65	96	3
TAP	65	144	4
TAP	65	192	2
TAP	65	192	4
TAP	65	240	2
STR	65	288	3
SCL	65	288	3	96	96	0
TAP	65	288	5
TAP	65	336	5
HLD	66	0	4	192
BRK	66	192	0
TAP	66	208	4
TAP	66	224	0
TAP	66	240	4
TAP	66	256	0
TAP	66	272	4
STR	66	288	0
SCR	66	288	0	96	96	7
TAP	66	304	4
TAP	66	320	0
TAP	66	336	4
TAP	66	352	0
TAP	66	368	4
TAP	67	0	0
BRK	67	96	0
TAP	67	192	2
TAP	67	192	6
TAP	67	240	1
TAP	67	240	5
STR	67	288	2
SI_	67	288	2	96	48	7
STR	67	288	6
SI_	67	288	6	96	48	3
TAP	67	336	1
TAP	67	336	5
TAP	68	0	2
TAP	68	0	6
TAP	68	96	1
TAP	68	96	5
TAP	68	144	2
TAP	68	144	6
TAP	68	192	1
STR	68	192	5
SCR	68	192	5	96	48	0
TAP	68	240	2
TAP	68	240	6
TAP	68	288	1
TAP	68	288	5
TAP	68	360	2
TAP	69	0	2
TAP	69	48	3
TAP	69	96	4
TAP	69	144	5
TAP	69	168	4
TAP	69	192	6
TAP	69	240	2
TAP	69	264	3
TAP	69	288	1
TAP	69	336	1
TAP	70	0	0
TAP	70	0	1
TAP	70	48	2
TAP	70	48	7
TAP	70	96	3
TAP	70	96	6
TAP	70	144	4
TAP	70	144	5
STR	70	192	2
SI_	70	192	2	96	48	7
STR	70	192	6
SI_	70	192	6	96	48	3
TAP	70	288	2
TAP	70	288	6
STR	71	0	1
SI_	71	0	1	96	48	5
TAP	71	0	5
TAP	71	96	1
TAP	71	96	5
HLD	71	144	7	96
TAP	71	240	0
TAP	71	264	6
TAP	71	288	1
TAP	71	336	4
STR	72	0	5
SCL	72	0	5	96	48	2
TAP	72	48	1
TAP	72	96	5
HLD	72	144	0	96
TAP	72	240	7
TAP	72	264	1
TAP	72	288	6
TAP	72	336	3
STR	73	0	2
SCR	73	0	2	96	48	5
TAP	73	48	6
TAP	73	96	2
TAP	73	96	7
TAP	73	144	7
TAP	73	192	1
TAP	73	192	5
TAP	73	240	2
TAP	73	240	6
STR	73	288	1
SI_	73	288	1	96	48	4
STR	73	288	5
SI_	73	288	5	96	48	0
TAP	73	336	2
TAP	73	336	6
TAP	74	0	1
TAP	74	0	5
TAP	74	96	2
TAP	74	96	6
TAP	74	144	1
TAP	74	144	5
STR	74	192	2
SCL	74	192	2	96	192	3
TAP	74	192	6
TAP	74	240	1
TAP	74	240	5
TAP	74	288	2
TAP	74	288	6
TAP	75	0	5
TAP	75	96	2
TAP	75	192	1
TAP	75	192	5
TAP	75	240	2
TAP	75	240	6
TAP	75	288	1
STR	75	288	5
SCR	75	288	5	96	96	2
TAP	75	336	2
TAP	75	336	6
TAP	76	0	1
TAP	76	0	5
TAP	76	72	3
TAP	76	144	1
TAP	76	144	4
TAP	76	192	6
TAP	76	264	4
TAP	76	336	3
TAP	76	336	6
TAP	77	0	7
TAP	77	48	7
TAP	77	96	0
TAP	77	144	0
TAP	77	192	2
TAP	77	192	6
TAP	77	240	1
TAP	77	240	5
STR	77	288	2
SCL	77	288	2	96	96	5
TAP	77	288	6
TAP	77	336	1
TAP	77	336	5
TAP	78	0	2
TAP	78	0	6
STR	78	192	6
SI_	78	192	6	96	48	0
TAP	78	240	6
STR	78	288	2
SI_	78	288	2	96	48	4
TAP	78	336	2
STR	79	0	5
SI_	79	0	5	96	48	1
TAP	79	48	5
BRK	79	96	0
STR	79	192	0
SCR	79	192	0	96	48	3
TAP	79	192	3
TAP	79	240	3
TAP	79	288	5
TAP	79	336	5
TAP	80	0	4
STR	80	0	7
SCL	80	0	7	96	48	4
TAP	80	48	4
TAP	80	96	2
TAP	80	144	2
STR	80	192	0
SCR	80	192	0	96	48	3
TAP	80	192	3
TAP	80	240	3
TAP	80	288	5
TAP	80	336	5
TAP	81	0	4
STR	81	0	7
SCL	81	0	7	96	48	4
TAP	81	48	4
TAP	81	96	2
HLD	81	144	2	96
TAP	81	240	3
STR	81	288	0
SI_	81	288	0	96	48	4
STR	81	336	7
SI_	81	336	7	96	48	3
TAP	82	0	0
TAP	82	48	7
TAP	82	96	0
HLD	82	144	0	96
TAP	82	240	7
STR	82	288	6
SI_	82	288	6	96	48	3
STR	82	336	1
SI_	82	336	1	96	48	5
TAP	83	0	6
BRK	83	48	1
HLD	83	144	7	96
TAP	83	240	0
TAP	83	288	1
TAP	83	288	6
TAP	83	336	2
TAP	83	336	5
TAP	84	0	3
TAP	84	0	4
TAP	84	48	2
TAP	84	48	5
TAP	84	96	2
TAP	84	96	5
TAP	84	144	4
HLD	84	192	4	192
TAP	85	0	0
TAP	85	16	4
TAP	85	32	0
TAP	85	48	4
TAP	85	64	0
TAP	85	80	4
TAP	85	96	0
TAP	85	112	4
TAP	85	128	0
TAP	85	144	4
TAP	85	160	0
TAP	85	176	4
TAP	85	192	0
TAP	85	204	1
TAP	85	216	2
TAP	85	228	3
TAP	85	240	4
TAP	85	252	5
TAP	85	264	6
TAP	85	276	7
TAP	85	288	0
TAP	85	300	1
TAP	85	312	2
TAP	85	324	3
TAP	85	336	4
TAP	85	348	5
TAP	85	360	6
TAP	85	372	7
TAP	86	0	0
TAP	86	72	3
TAP	86	96	4
TAP	86	144	0
STR	86	192	0
SV_	86	192	0	96	48	5
TAP	86	288	0
TAP	86	288	7
STR	87	0	2
SCR	87	0	2	96	48	5
TAP	87	0	6
TAP	87	72	3
TAP	87	96	2
TAP	87	144	7
STR	87	192	7
SV_	87	192	7	96	48	2
TAP	87	288	0
TAP	87	288	7
TAP	88	0	1
TAP	88	0	3
TAP	88	96	4
TAP	88	96	6
TAP	88	192	2
TAP	88	192	5
TAP	88	264	3
STR	88	288	4
SF_	88	288	4	96	96	0
TAP	88	336	4
TAP	89	192	2
TAP	89	216	5
TAP	89	240	3
TAP	89	264	4
STR	89	288	2
SCL	89	288	2	96	240	5
TAP	89	312	5
TAP	89	336	3
TAP	89	360	4
TAP	90	0	2
STR	90	288	4
SI_	90	288	4	96	48	7
TAP	91	0	3

T_REC_TAP	553
T_REC_BRK	10
T_REC_XTP	0
T_REC_HLD	57
T_REC_XHO	0
T_REC_STR	108
T_REC_BST	1
T_REC_XST	0
T_REC_TTP	0
T_REC_THO	0
T_REC_SLD	110
T_REC_ALL	839
T_NUM_TAP	661
T_NUM_BRK	11
T_NUM_HLD	57
T_NUM_SLD	110
T_NUM_ALL	839
T_JUDGE_TAP	672
T_JUDGE_HLD	142
T_JUDGE_SLD	110
T_JUDGE_ALL	924
TTM_EACHPAIRS	164
TTM_SCR_TAP	330500
TTM_SCR_BRK	28600
TTM_SCR_HLD	57000
TTM_SCR_SLD	165000
TTM_SCR_ALL	581100
TTM_SCR_S	562600
TTM_SCR_SS	580000
TTM_RAT_ACV	10018

