VERSION	0.00.00	1.03.00
FES_MODE	0
BPM_DEF	150.000	150.000	150.000	150.000
MET_DEF	4	4
RESOLUTION	384
CLK_DEF	384
COMPATIBLE_CODE	MA2

BPM	0	0	150.000
MET	0	0	4	4
MET	42	0	4	2
MET	42	192	4	4
MET	58	192	4	2
MET	59	0	4	4
MET	67	0	4	2
MET	67	192	4	4
MET	85	192	4	2
MET	86	0	4	4

TAP	1	288	5
STR	2	0	1
SI_	2	0	1	96	48	4
STR	2	96	6
SI_	2	96	6	96	48	3
STR	2	192	0
SI_	2	192	0	96	48	4
STR	2	288	5
SCR	2	288	5	96	96	2
TAP	3	0	2
TAP	3	192	3
TAP	3	216	4
TAP	3	240	3
TAP	3	288	1
TAP	3	288	6
HLD	4	0	2	72
TAP	4	72	3
STR	4	96	2
SI_	4	96	2	96	48	5
TAP	4	144	2
STR	4	192	7
SI_	4	192	7	96	48	4
TAP	4	288	0
HLD	5	0	5	72
TAP	5	72	4
STR	5	96	5
SI_	5	96	5	96	48	2
TAP	5	144	5
STR	5	192	0
SI_	5	192	0	96	48	3
TAP	5	288	7
HLD	6	0	4	48
HLD	6	0	5	48
HLD	6	96	2	48
HLD	6	96	3	48
HLD	6	192	4	48
HLD	6	192	6	48
HLD	6	288	1	48
HLD	6	288	3	48
HLD	7	0	1	96
HLD	7	0	6	96
TAP	7	192	1
TAP	7	192	6
TAP	7	288	0
TAP	7	288	7
TAP	7	336	1
TAP	7	336	6
TAP	8	0	2
TAP	8	0	5
STR	8	96	2
SCL	8	96	2	96	48	7
STR	8	96	6
SCL	8	96	6	96	48	3
TAP	8	288	0
TAP	8	336	0
TAP	9	0	7
TAP	9	48	7
STR	9	96	3
SCL	9	96	3	96	48	0
HLD	9	192	5	96
TAP	9	288	0
TAP	9	336	0
STR	10	0	7
SCL	10	0	7	96	48	4
TAP	10	48	7
TAP	10	96	2
TAP	10	144	2
STR	10	192	0
SCR	10	192	0	96	48	3
TAP	10	240	0
TAP	10	288	5
TAP	10	336	5
TAP	11	0	7
TAP	11	48	7
HLD	11	96	1	48
HLD	11	96	6	48
TAP	11	192	0
TAP	11	192	7
TAP	11	240	0
TAP	11	240	7
TAP	11	336	0
TAP	11	336	1
TAP	12	0	2
TAP	12	0	7
TAP	12	48	3
TAP	12	48	6
STR	12	96	4
SCL	12	96	4	96	48	1
STR	12	96	5
SCR	12	96	5	96	48	0
TAP	12	288	2
TAP	12	288	7
TAP	13	0	0
TAP	13	0	5
TAP	13	48	1
TAP	13	48	4
STR	13	96	2
SCL	13	96	2	96	48	7
STR	13	96	3
SCR	13	96	3	96	48	6
TAP	13	288	0
TAP	13	288	5
TAP	13	336	0
TAP	13	336	5
TAP	14	48	2
TAP	14	96	2
TAP	14	96	3
TAP	14	144	5
TAP	14	192	4
TAP	14	192	5
TAP	14	240	2
TAP	14	288	2
TAP	14	288	3
TAP	14	336	5
TAP	15	0	4
TAP	15	0	6
TAP	15	48	2
TAP	15	96	1
TAP	15	96	3
TAP	15	144	4
TAP	15	192	2
STR	15	192	5
SCR	15	192	5	96	384	2
TAP	15	288	3
TAP	16	0	3
TAP	16	96	3
TAP	16	192	3
TAP	16	288	3
STR	17	0	1
SI_	17	0	1	96	48	3
TAP	17	48	1
STR	17	96	7
SI_	17	96	7	96	48	5
TAP	17	144	7
TAP	17	192	0
TAP	17	240	0
TAP	17	288	0
TAP	17	288	7
HLD	18	0	1	72
TAP	18	72	0
TAP	18	96	1
TAP	18	144	3
HLD	18	192	6	72
TAP	18	264	7
TAP	18	288	6
TAP	18	336	4
HLD	19	0	2	72
TAP	19	72	3
TAP	19	96	2
TAP	19	144	1
TAP	19	144	4
HLD	19	192	5	72
TAP	19	264	4
TAP	19	288	5
TAP	19	336	3
TAP	19	336	6
TAP	20	0	7
TAP	20	48	7
STR	20	96	0
SCR	20	96	0	96	96	6
TAP	20	144	0
TAP	20	192	7
TAP	20	240	7
TAP	20	288	7
TAP	21	0	4
TAP	21	0	6
TAP	21	72	1
TAP	21	72	3
TAP	21	144	0
TAP	21	144	7
TAP	21	192	2
TAP	21	192	5
TAP	21	288	3
TAP	21	288	4
STR	22	0	6
SI_	22	0	6	96	48	4
STR	22	0	7
SI_	22	0	7	96	48	3
TAP	22	48	6
TAP	22	48	7
TAP	22	192	1
TAP	22	192	5
TAP	22	240	0
TAP	22	288	0
STR	23	0	0
SI_	23	0	0	96	48	4
STR	23	0	1
SI_	23	0	1	96	48	3
TAP	23	48	0
TAP	23	48	1
HLD	23	192	2	96
HLD	23	192	6	96
TAP	23	336	2
TAP	23	336	6
STR	24	48	0
SI_	24	48	0	96	48	4
TAP	24	96	0
STR	24	144	7
SI_	24	144	7	96	48	3
TAP	24	192	7
STR	24	240	1
SI_	24	240	1	96	48	5
TAP	24	288	1
STR	24	336	6
SI_	24	336	6	96	48	2
TAP	25	0	6
STR	25	48	0
SI_	25	48	0	96	48	4
TAP	25	96	0
TAP	25	144	7
TAP	25	192	7
TAP	25	288	2
TAP	25	288	5
STR	26	0	4
SCR	26	0	4	96	480	2
TAP	26	192	3
TAP	27	0	4
TAP	27	192	4
TAP	27	288	4
STR	28	0	3
SCL	28	0	3	96	480	5
TAP	28	192	4
TAP	29	0	3
TAP	29	192	3
TAP	29	288	3
STR	30	0	4
SCR	30	0	4	96	480	2
TAP	30	192	3
TAP	31	0	4
TAP	31	192	4
TAP	31	288	5
HLD	31	336	5	336
TAP	32	48	4
TAP	32	96	4
TAP	32	192	0
TAP	32	240	0
TAP	32	288	0
TAP	32	336	0
TAP	33	0	1
TAP	33	0	3
TAP	33	48	5
TAP	33	96	4
TAP	33	96	6
TAP	33	144	7
BST	33	192	0
SI_	33	192	0	96	48	4
STR	34	0	1
SI_	34	0	1	96	48	5
TAP	34	48	1
STR	34	96	6
SI_	34	96	6	96	48	2
TAP	34	144	6
TAP	34	192	0
TAP	34	288	3
TAP	34	288	7
TAP	34	336	2
TAP	34	336	6
STR	35	0	1
SI_	35	0	1	96	48	6
STR	35	0	5
SI_	35	0	5	96	48	2
TAP	35	192	4
TAP	35	240	4
TAP	35	288	2
TAP	35	336	2
STR	36	0	6
SI_	36	0	6	96	48	2
TAP	36	48	6
STR	36	96	0
SI_	36	96	0	96	48	3
TAP	36	144	0
STR	36	192	4
SI_	36	192	4	96	48	7
TAP	36	240	4
TAP	36	288	3
TAP	36	336	3
STR	37	0	1
SI_	37	0	1	96	48	4
STR	37	0	5
SI_	37	0	5	96	48	0
STR	37	192	2
SI_	37	192	2	96	48	7
STR	37	192	6
SI_	37	192	6	96	48	3
TAP	38	0	0
STR	38	0	5
SCL	38	0	5	96	48	2
TAP	38	48	0
TAP	38	96	1
TAP	38	144	1
TAP	38	192	0
TAP	38	192	1
TAP	38	240	2
TAP	38	240	7
TAP	38	288	3
TAP	38	288	6
STR	39	0	2
SCR	39	0	2	96	48	5
TAP	39	0	7
TAP	39	48	7
TAP	39	96	6
TAP	39	144	6
TAP	39	192	6
TAP	39	192	7
TAP	39	240	0
TAP	39	240	5
TAP	39	288	1
TAP	39	288	4
STR	40	0	6
SI_	40	0	6	96	48	2
TAP	40	48	6
STR	40	96	1
SI_	40	96	1	96	48	5
TAP	40	144	1
TAP	40	192	7
TAP	40	288	0
TAP	40	288	4
TAP	40	336	1
TAP	40	336	5
STR	41	0	2
SCR	41	0	2	96	96	5
STR	41	0	6
SCR	41	0	6	96	96	1
STR	41	288	2
SCL	41	288	2	96	96	5
TAP	41	288	7
TAP	42	192	4
HLD	42	192	5	480
TAP	42	288	4
TAP	43	0	4
TAP	43	96	4
TAP	43	192	4
TAP	43	240	4
TAP	43	288	4
TAP	44	0	3
TAP	44	0	6
TAP	44	48	5
TAP	44	96	2
TAP	44	96	4
TAP	44	192	2
HLD	44	192	3	480
TAP	44	288	2
TAP	45	0	1
TAP	45	96	1
TAP	45	192	2
TAP	45	288	1
TAP	46	0	2
TAP	46	0	4
TAP	46	48	4
TAP	46	96	3
TAP	46	96	5
TAP	46	192	4
STR	46	192	6
SI_	46	192	6	96	48	1
TAP	46	288	3
TAP	47	0	0
STR	47	0	2
SI_	47	0	2	96	48	5
TAP	47	96	7
TAP	47	192	4
STR	47	192	6
SI_	47	192	6	96	48	1
TAP	47	288	3
TAP	48	0	0
STR	48	0	2
SI_	48	0	2	96	48	5
TAP	48	96	7
TAP	48	192	7
TAP	48	240	7
TAP	48	288	0
TAP	48	336	0
TAP	49	0	5
TAP	49	48	5
TAP	49	96	2
TAP	49	144	2
TAP	49	192	3
TAP	49	192	4
TAP	49	240	3
TAP	49	240	4
TAP	49	288	2
TAP	49	288	5
TAP	49	336	2
TAP	49	336	5
TAP	50	0	1
TAP	50	0	6
TAP	50	48	1
TAP	50	48	6
TAP	50	96	0
TAP	50	96	7
TAP	50	144	0
TAP	50	144	7
BRK	50	192	1
BRK	50	192	6
TAP	50	264	4
TAP	50	288	3
TAP	50	336	0
TAP	50	336	7
STR	51	0	0
SI_	51	0	0	96	48	2
STR	51	0	7
SI_	51	0	7	96	48	5
TAP	51	192	1
TAP	51	192	5
TAP	51	264	2
TAP	51	288	3
TAP	51	336	0
TAP	51	336	7
STR	52	0	0
SI_	52	0	0	96	48	2
STR	52	0	7
SI_	52	0	7	96	48	5
TAP	52	192	1
TAP	52	192	6
TAP	52	264	5
TAP	52	288	4
TAP	52	336	0
TAP	52	336	7
STR	53	0	0
SI_	53	0	0	96	48	2
STR	53	0	7
SI_	53	0	7	96	48	5
TAP	53	192	1
TAP	53	192	6
TAP	53	264	4
TAP	53	288	3
TAP	53	336	0
TAP	53	336	7
STR	54	0	0
SI_	54	0	0	96	48	2
STR	54	0	7
SI_	54	0	7	96	48	5
STR	54	192	0
SI_	54	192	0	96	48	3
STR	54	192	4
SI_	54	192	4	96	48	7
STR	55	0	3
SI_	55	0	3	96	48	0
STR	55	0	7
SI_	55	0	7	96	48	4
STR	55	192	0
SI_	55	192	0	96	48	3
STR	55	192	4
SI_	55	192	4	96	48	7
STR	56	0	3
SI_	56	0	3	96	48	0
STR	56	0	7
SI_	56	0	7	96	48	4
HLD	56	192	5	72
HLD	56	264	6	72
HLD	56	336	7	72
HLD	57	24	0	72
HLD	57	96	1	72
HLD	57	168	2	72
HLD	57	240	3	72
HLD	57	312	4	72
TAP	58	0	5
TAP	58	72	3
TAP	58	72	6
TAP	58	144	2
TAP	58	144	7
TAP	58	192	2
TAP	58	192	3
TAP	58	264	1
TAP	58	264	4
TAP	58	336	0
TAP	58	336	5
STR	59	0	0
SCR	59	0	0	96	480	6
TAP	59	0	5
TAP	59	192	7
TAP	60	0	0
TAP	60	192	0
TAP	60	288	0
STR	61	0	7
SCL	61	0	7	96	480	1
TAP	61	192	0
TAP	62	0	7
TAP	62	192	7
TAP	62	288	7
TAP	63	0	4
HLD	63	0	5	96
TAP	63	96	3
HLD	63	192	4	96
TAP	63	192	5
TAP	63	288	6
HLD	64	0	2	96
TAP	64	0	3
TAP	64	96	4
TAP	64	192	2
HLD	64	192	3	96
TAP	64	288	1
HLD	65	0	4	96
TAP	65	0	5
TAP	65	96	7
TAP	65	192	2
HLD	65	192	3	96
TAP	65	288	0
TAP	66	0	7
TAP	66	48	7
STR	66	96	0
SCR	66	96	0	96	144	7
TAP	66	144	0
BRK	66	192	7
TAP	67	0	0
TAP	67	24	7
TAP	67	48	0
TAP	67	72	7
TAP	67	96	0
TAP	67	120	7
TAP	67	144	0
STR	67	192	6
SI_	67	192	6	96	48	2
TAP	67	240	6
STR	67	288	1
SI_	67	288	1	96	48	5
TAP	67	336	1
TAP	68	0	7
TAP	68	96	0
TAP	68	96	4
TAP	68	144	1
TAP	68	144	5
STR	68	192	2
SI_	68	192	2	96	48	5
STR	68	192	6
SI_	68	192	6	96	48	1
TAP	69	0	3
TAP	69	48	3
TAP	69	96	5
TAP	69	144	5
STR	69	192	1
SI_	69	192	1	96	48	5
TAP	69	240	1
STR	69	288	7
SI_	69	288	7	96	48	4
TAP	69	336	7
STR	70	0	3
SI_	70	0	3	96	48	0
TAP	70	48	3
TAP	70	96	4
TAP	70	144	5
STR	70	192	2
SI_	70	192	2	96	48	7
STR	70	192	6
SI_	70	192	6	96	48	3
STR	71	0	1
SI_	71	0	1	96	48	4
STR	71	0	5
SI_	71	0	5	96	48	0
STR	71	192	2
SCR	71	192	2	96	48	5
TAP	71	192	7
TAP	71	240	7
TAP	71	288	6
TAP	71	336	6
TAP	72	0	6
TAP	72	0	7
TAP	72	48	0
TAP	72	48	5
TAP	72	96	1
TAP	72	96	4
TAP	72	192	0
STR	72	192	5
SCL	72	192	5	96	48	2
TAP	72	240	0
TAP	72	288	1
TAP	72	336	1
TAP	73	0	0
TAP	73	0	1
TAP	73	48	2
TAP	73	48	7
TAP	73	96	3
TAP	73	96	6
TAP	73	144	2
STR	73	192	1
SI_	73	192	1	96	48	5
TAP	73	240	1
STR	73	288	6
SI_	73	288	6	96	48	2
TAP	73	336	6
TAP	74	0	0
TAP	74	96	3
TAP	74	96	7
TAP	74	144	2
TAP	74	144	6
STR	74	192	1
SCL	74	192	1	96	96	6
STR	74	192	5
SCL	74	192	5	96	96	2
TAP	75	96	3
TAP	75	96	4
STR	75	192	6
SI_	75	192	6	96	48	3
TAP	75	240	6
STR	75	288	2
SCL	75	288	2	96	96	5
TAP	75	336	2
TAP	76	0	5
TAP	76	96	4
STR	76	192	6
SI_	76	192	6	96	48	2
TAP	76	240	6
STR	76	288	3
SI_	76	288	3	96	48	0
TAP	76	336	3
TAP	77	0	7
TAP	77	48	7
TAP	77	96	0
TAP	77	96	6
TAP	77	144	0
TAP	77	144	6
STR	77	192	1
SI_	77	192	1	96	48	4
TAP	77	240	1
STR	77	288	5
SCR	77	288	5	96	96	2
TAP	77	336	5
TAP	78	0	2
TAP	78	96	3
STR	78	192	1
SI_	78	192	1	96	48	5
TAP	78	240	1
STR	78	288	4
SI_	78	288	4	96	48	7
TAP	78	336	4
TAP	79	0	0
TAP	79	48	0
TAP	79	96	1
TAP	79	96	7
STR	79	192	7
SCL	79	192	7	96	48	4
TAP	79	240	7
TAP	79	288	2
TAP	79	336	2
STR	80	0	0
SCR	80	0	0	96	48	3
TAP	80	48	0
TAP	80	96	5
TAP	80	144	5
STR	80	192	7
SCL	80	192	7	96	48	4
TAP	80	240	7
TAP	80	288	2
TAP	80	336	2
STR	81	0	0
SCR	81	0	0	96	48	3
TAP	81	48	0
TAP	81	96	5
HLD	81	144	5	96
TAP	81	240	4
TAP	81	288	4
TAP	81	336	3
STR	82	0	2
SI_	82	0	2	96	48	5
TAP	82	0	4
TAP	82	96	7
HLD	82	144	7	96
TAP	82	240	0
STR	82	288	6
SI_	82	288	6	96	48	1
TAP	82	336	6
TAP	83	0	3
TAP	83	48	3
TAP	83	144	2
HLD	83	144	5	96
TAP	83	240	2
STR	83	288	1
SI_	83	288	1	96	48	5
TAP	83	336	1
STR	84	0	6
SI_	84	0	6	96	48	2
TAP	84	48	6
STR	84	96	0
SI_	84	96	0	96	48	4
TAP	84	144	0
STR	84	192	7
SI_	84	192	7	96	48	3
TAP	84	240	7
STR	84	288	0
SCR	84	288	0	96	144	7
TAP	84	336	0
TAP	85	0	7
TAP	85	192	0
TAP	85	216	7
TAP	85	240	0
TAP	85	264	7
TAP	85	288	0
TAP	85	312	7
TAP	85	336	0
TAP	86	0	2
HLD	86	0	5	72
TAP	86	72	4
STR	86	96	5
SI_	86	96	5	96	48	2
TAP	86	144	5
STR	86	192	0
SI_	86	192	0	96	48	3
TAP	86	288	7
HLD	87	0	2	72
TAP	87	72	3
STR	87	96	2
SI_	87	96	2	96	48	5
TAP	87	144	2
STR	87	192	7
SI_	87	192	7	96	48	4
TAP	87	288	0
TAP	88	0	4
TAP	88	0	6
TAP	88	96	1
TAP	88	96	3
TAP	88	192	3
TAP	88	192	4
TAP	88	264	2
TAP	88	264	5
TAP	88	336	1
TAP	88	336	6
TAP	89	0	1
STR	89	0	6
SCR	89	0	6	96	48	1
TAP	89	192	3
TAP	89	216	4
TAP	89	240	3
TAP	89	264	4
TAP	89	288	3
TAP	89	312	4
TAP	89	336	3
TAP	90	0	2
TAP	90	0	5
STR	90	288	7
SI_	90	288	7	96	48	3
TAP	91	0	0

T_REC_TAP	450
T_REC_BRK	3
T_REC_XTP	0
T_REC_HLD	43
T_REC_XHO	0
T_REC_STR	116
T_REC_BST	1
T_REC_XST	0
T_REC_TTP	0
T_REC_THO	0
T_REC_SLD	117
T_REC_ALL	730
T_NUM_TAP	566
T_NUM_BRK	4
T_NUM_HLD	43
T_NUM_SLD	117
T_NUM_ALL	730
T_JUDGE_TAP	570
T_JUDGE_HLD	97
T_JUDGE_SLD	117
T_JUDGE_ALL	784
TTM_EACHPAIRS	141
TTM_SCR_TAP	283000
TTM_SCR_BRK	10400
TTM_SCR_HLD	43000
TTM_SCR_SLD	175500
TTM_SCR_ALL	511900
TTM_SCR_S	496200
TTM_SCR_SS	511500
TTM_RAT_ACV	10007

