VERSION	0.00.00	1.03.00
FES_MODE	0
BPM_DEF	150.000	150.000	150.000	150.000
MET_DEF	4	4
RESOLUTION	384
CLK_DEF	384
COMPATIBLE_CODE	MA2

BPM	0	0	150.000
MET	0	0	4	4
MET	42	0	4	2
MET	42	192	4	4
MET	58	192	4	2
MET	59	0	4	4
MET	67	0	4	2
MET	67	192	4	4
MET	85	192	4	2
MET	86	0	4	4

TAP	1	288	5
TAP	2	0	4
TAP	2	0	5
TAP	2	96	2
TAP	2	96	3
TAP	2	192	4
TAP	2	192	6
TAP	2	288	0
STR	2	288	1
SUL	2	288	1	96	120	4
TAP	3	192	5
TAP	3	240	5
BRK	3	288	4
BRK	3	288	6
HLD	4	0	2	96
TAP	4	96	3
STR	4	192	1
SI_	4	192	1	96	48	4
TAP	4	192	4
HLD	5	0	5	96
TAP	5	96	4
TAP	5	192	3
STR	5	192	6
SI_	5	192	6	96	48	3
TAP	6	0	2
TAP	6	96	2
TAP	6	96	3
TAP	6	192	3
TAP	6	192	4
TAP	6	288	4
STR	6	288	5
SCR	6	288	5	96	96	0
TAP	7	192	1
TAP	7	192	6
TAP	7	288	5
TAP	8	0	4
HLD	8	0	6	96
TAP	8	96	5
TAP	8	192	3
TAP	8	192	4
TAP	8	288	2
TAP	8	288	5
HLD	9	0	1	96
TAP	9	0	3
TAP	9	96	2
TAP	9	192	0
TAP	9	192	7
TAP	9	240	0
TAP	9	240	7
TAP	10	0	2
TAP	10	48	2
TAP	10	96	4
TAP	10	192	5
TAP	10	240	5
TAP	10	288	3
TAP	11	0	2
TAP	11	0	3
TAP	11	96	0
STR	11	96	1
SUR	11	96	1	96	96	6
TAP	12	0	5
TAP	12	96	4
HLD	12	96	6	96
TAP	12	192	7
TAP	12	288	0
TAP	12	288	5
TAP	13	0	1
TAP	13	0	6
TAP	13	96	0
STR	13	96	7
SLL	13	96	7	96	120	3
SLR	13	96	7	96	120	3
HLD	14	0	5	192
TAP	14	96	4
TAP	14	192	4
TAP	14	288	4
TAP	14	288	6
TAP	15	0	3
TAP	15	0	4
TAP	15	96	1
TAP	15	96	3
BRK	15	192	2
BRK	15	192	7
TAP	16	0	2
HLD	16	0	5	480
TAP	16	96	2
TAP	16	192	4
TAP	16	288	4
TAP	17	0	2
TAP	17	96	4
TAP	17	192	3
TAP	17	192	6
HLD	18	0	2	72
TAP	18	72	3
TAP	18	144	1
TAP	18	144	4
HLD	18	192	5	72
TAP	18	264	4
TAP	18	336	3
TAP	18	336	6
HLD	19	0	2	72
TAP	19	72	3
TAP	19	144	1
TAP	19	144	4
TAP	19	192	1
STR	19	192	4
SI_	19	192	4	96	48	7
TAP	20	0	1
TAP	20	48	1
TAP	20	96	3
TAP	20	192	6
TAP	20	240	6
TAP	20	288	4
HLD	21	0	1	72
TAP	21	72	0
TAP	21	144	2
TAP	21	144	7
BRK	21	192	2
BRK	21	192	7
HLD	22	0	2	96
TAP	22	0	3
HLD	22	96	1	96
TAP	22	192	0
TAP	22	240	0
TAP	22	288	0
TAP	23	0	4
HLD	23	0	5	96
HLD	23	96	6	96
STR	23	192	7
SI_	23	192	7	96	48	3
HLD	24	0	2	288
TAP	24	96	3
TAP	24	192	1
TAP	24	288	3
HLD	25	0	5	288
TAP	25	96	4
TAP	25	192	6
STR	25	288	4
SCL	25	288	4	96	384	6
TAP	27	192	2
TAP	27	192	3
TAP	27	288	2
STR	27	288	3
SCR	27	288	3	96	384	1
TAP	29	192	4
TAP	29	192	5
TAP	29	288	3
TAP	29	288	6
TAP	30	0	6
HLD	30	96	6	192
TAP	30	192	4
HLD	30	288	4	192
TAP	31	0	3
HLD	31	96	3	192
TAP	31	192	1
TAP	31	288	1
HLD	32	0	1	96
HLD	32	96	3	96
HLD	32	192	4	96
TAP	32	288	5
TAP	33	0	4
TAP	33	0	6
TAP	33	96	1
TAP	33	96	3
BRK	33	192	2
BRK	33	192	7
STR	34	0	1
SI_	34	0	1	96	48	4
STR	34	96	7
SI_	34	96	7	96	48	3
STR	34	192	0
SI_	34	192	0	96	48	4
STR	34	288	6
SI_	34	288	6	96	48	3
STR	35	0	2
SCL	35	0	2	96	96	5
TAP	35	288	1
TAP	35	288	6
TAP	36	0	2
HLD	36	0	3	96
TAP	36	96	0
HLD	36	192	4	96
TAP	36	192	5
TAP	36	288	7
STR	37	0	0
SI_	37	0	0	96	48	4
STR	37	0	1
SI_	37	0	1	96	48	4
STR	37	192	6
SI_	37	192	6	96	48	3
STR	37	192	7
SI_	37	192	7	96	48	3
TAP	38	0	1
TAP	38	48	1
TAP	38	96	4
TAP	38	144	4
STR	38	192	3
SI_	38	192	3	96	48	7
TAP	39	0	5
TAP	39	48	5
TAP	39	96	0
TAP	39	144	0
STR	39	192	7
SI_	39	192	7	96	48	3
STR	40	0	1
SI_	40	0	1	96	48	4
STR	40	96	6
SI_	40	96	6	96	48	3
STR	40	192	0
SI_	40	192	0	96	48	4
TAP	40	288	7
STR	41	0	6
SCR	41	0	6	96	120	3
STR	41	288	0
SF_	41	288	0	96	96	4
TAP	41	288	7
HLD	42	192	2	480
TAP	42	288	3
TAP	43	0	3
TAP	43	96	1
TAP	43	192	3
TAP	43	288	3
TAP	44	0	2
TAP	44	0	3
TAP	44	96	1
TAP	44	96	4
TAP	44	192	2
HLD	44	192	5	576
TAP	44	288	2
TAP	45	0	4
TAP	45	96	4
TAP	45	192	6
TAP	45	288	6
TAP	46	0	3
TAP	46	96	2
TAP	46	96	4
HLD	46	192	2	96
TAP	46	192	3
TAP	46	288	4
HLD	47	0	2	96
TAP	47	0	3
TAP	47	96	5
HLD	47	192	2	96
TAP	47	192	3
TAP	47	288	6
TAP	48	0	0
TAP	48	0	4
TAP	48	192	2
HLD	48	192	5	96
TAP	48	288	4
HLD	49	0	2	96
TAP	49	0	5
TAP	49	96	3
TAP	49	192	4
TAP	49	192	6
TAP	49	288	0
TAP	49	288	7
TAP	50	0	1
TAP	50	0	3
TAP	50	96	3
TAP	50	96	4
BRK	50	192	1
BRK	50	192	6
TAP	50	288	4
TAP	50	288	5
STR	51	0	0
SI_	51	0	0	96	48	2
STR	51	0	7
SI_	51	0	7	96	48	5
TAP	51	192	3
TAP	51	192	4
TAP	51	288	1
TAP	51	288	3
STR	52	0	0
SI_	52	0	0	96	48	2
STR	52	0	7
SI_	52	0	7	96	48	5
TAP	52	192	3
TAP	52	192	4
TAP	52	288	5
TAP	52	288	6
STR	53	0	0
SCR	53	0	0	96	48	2
STR	53	0	7
SCL	53	0	7	96	48	5
TAP	53	192	3
TAP	53	192	4
TAP	53	288	1
TAP	53	288	2
STR	54	0	0
SCR	54	0	0	96	48	2
STR	54	0	7
SCL	54	0	7	96	48	5
TAP	54	192	3
TAP	54	192	4
TAP	54	288	4
TAP	54	288	6
TAP	55	0	0
TAP	55	0	7
TAP	55	96	1
STR	55	96	3
SCR	55	96	3	96	192	7
TAP	56	96	1
TAP	56	96	6
HLD	56	192	0	72
HLD	56	264	7	72
HLD	56	336	0	72
HLD	57	24	7	72
HLD	57	96	1	72
HLD	57	168	6	72
HLD	57	240	2	72
HLD	57	312	5	72
STR	58	0	4
SI_	58	0	4	96	48	0
STR	58	192	7
SI_	58	192	7	96	48	3
STR	59	0	1
SCR	59	0	1	96	288	7
TAP	60	192	0
TAP	60	192	1
TAP	60	288	0
TAP	60	288	1
STR	61	0	6
SCL	61	0	6	96	288	0
TAP	61	0	7
TAP	62	192	1
TAP	62	192	6
TAP	62	288	1
TAP	62	288	6
HLD	63	0	4	192
TAP	63	0	5
TAP	63	96	6
TAP	63	192	5
TAP	63	288	3
TAP	63	288	4
TAP	64	0	2
HLD	64	0	3	192
TAP	64	96	1
TAP	64	192	2
TAP	64	288	1
TAP	64	288	4
HLD	65	0	4	96
TAP	65	0	5
TAP	65	96	7
TAP	65	192	2
HLD	65	192	3	96
TAP	65	288	0
TAP	66	0	0
TAP	66	0	7
TAP	66	96	4
STR	66	96	6
SCR	66	96	6	96	144	3
TAP	67	0	0
TAP	67	48	0
BRK	67	96	0
BRK	67	96	4
STR	67	192	6
SI_	67	192	6	96	48	3
STR	67	288	0
SI_	67	288	0	96	48	4
STR	68	0	7
SI_	68	0	7	96	48	3
STR	68	96	1
SI_	68	96	1	96	48	4
STR	68	192	5
SCR	68	192	5	96	96	2
TAP	69	96	1
TAP	69	96	6
TAP	69	192	4
HLD	69	192	5	96
TAP	69	288	7
HLD	70	0	2	96
TAP	70	0	3
TAP	70	96	0
STR	70	192	6
SI_	70	192	6	96	48	3
STR	70	192	7
SI_	70	192	7	96	48	2
STR	71	0	0
SI_	71	0	0	96	48	5
STR	71	0	1
SI_	71	0	1	96	48	4
TAP	71	192	6
TAP	71	240	6
TAP	71	288	3
TAP	71	336	4
STR	72	0	1
SI_	72	0	1	96	48	4
TAP	72	192	5
TAP	72	240	5
TAP	72	288	0
TAP	72	336	7
STR	73	0	2
SI_	73	0	2	96	48	7
STR	73	192	6
SI_	73	192	6	96	48	3
STR	73	288	1
SI_	73	288	1	96	48	4
STR	74	0	7
SI_	74	0	7	96	48	3
TAP	74	96	0
STR	74	192	1
SCL	74	192	1	96	120	4
BRK	75	96	0
BRK	75	96	7
HLD	75	192	2	96
TAP	75	192	3
TAP	75	288	0
HLD	76	0	6	96
TAP	76	0	7
TAP	76	96	4
TAP	76	192	2
STR	76	192	3
SI_	76	192	3	96	48	6
STR	77	0	4
SI_	77	0	4	96	48	1
TAP	77	0	5
HLD	77	192	2	96
TAP	77	192	3
TAP	77	288	0
HLD	78	0	6	96
TAP	78	0	7
TAP	78	96	4
TAP	78	192	2
STR	78	192	3
SI_	78	192	3	96	48	7
STR	79	0	4
SI_	79	0	4	96	48	0
TAP	79	0	5
HLD	79	192	6	288
TAP	79	288	7
TAP	80	0	5
TAP	80	96	3
HLD	80	192	1	288
TAP	80	288	0
TAP	81	0	2
TAP	81	96	4
TAP	81	192	3
HLD	81	192	4	96
TAP	81	288	6
HLD	82	0	3	96
TAP	82	0	4
TAP	82	96	1
TAP	82	192	4
HLD	82	192	6	96
TAP	82	288	7
TAP	83	0	0
TAP	83	0	5
TAP	83	48	0
TAP	83	48	5
TAP	83	192	0
HLD	83	192	1	96
HLD	83	288	3	96
TAP	84	0	4
TAP	84	96	2
TAP	84	96	5
TAP	84	192	7
TAP	84	240	7
STR	84	288	0
SCL	84	288	0	96	144	2
TAP	85	192	7
TAP	85	240	7
TAP	85	288	0
TAP	85	336	0
BRK	86	0	1
BRK	86	0	6
TAP	86	96	1
HLD	86	96	3	96
TAP	86	192	4
TAP	86	288	2
TAP	86	288	5
TAP	87	0	0
TAP	87	0	7
HLD	87	96	4	96
TAP	87	96	6
TAP	87	192	3
TAP	87	288	1
TAP	87	288	6
TAP	88	0	0
TAP	88	0	1
TAP	88	96	2
TAP	88	96	3
HLD	88	192	5	72
TAP	88	264	4
TAP	88	336	3
TAP	88	336	6
BRK	89	0	3
HLD	89	0	6	192
TAP	89	192	0
TAP	89	240	0
STR	89	288	7
SCL	89	288	7	96	192	3
TAP	89	336	7
TAP	90	0	0
STR	90	288	2
SI_	90	288	2	96	48	5

T_REC_TAP	293
T_REC_BRK	17
T_REC_XTP	0
T_REC_HLD	61
T_REC_XHO	0
T_REC_STR	62
T_REC_BST	0
T_REC_XST	0
T_REC_TTP	0
T_REC_THO	0
T_REC_SLD	63
T_REC_ALL	496
T_NUM_TAP	355
T_NUM_BRK	17
T_NUM_HLD	61
T_NUM_SLD	63
T_NUM_ALL	496
T_JUDGE_TAP	372
T_JUDGE_HLD	178
T_JUDGE_SLD	63
T_JUDGE_ALL	613
TTM_EACHPAIRS	126
TTM_SCR_TAP	177500
TTM_SCR_BRK	44200
TTM_SCR_HLD	61000
TTM_SCR_SLD	94500
TTM_SCR_ALL	377200
TTM_SCR_S	364250
TTM_SCR_SS	375500
TTM_RAT_ACV	10045

