VERSION	0.00.00	1.03.00
FES_MODE	0
BPM_DEF	150.000	150.000	150.000	150.000
MET_DEF	4	4
RESOLUTION	384
CLK_DEF	384
COMPATIBLE_CODE	MA2

BPM	0	0	150.000
MET	0	0	4	4
MET	42	0	4	2
MET	42	192	4	4
MET	58	192	4	2
MET	59	0	4	4
MET	67	0	4	2
MET	67	192	4	4
MET	85	192	4	2
MET	86	0	4	4

TAP	2	0	5
TAP	2	96	4
TAP	2	96	5
TAP	2	192	2
TAP	2	288	2
TAP	2	288	3
HLD	3	0	3	192
HLD	3	0	4	192
BRK	3	288	3
BRK	3	288	4
TAP	4	0	2
TAP	4	96	2
TAP	4	192	2
TAP	4	192	3
TAP	5	0	5
TAP	5	96	5
TAP	5	192	4
TAP	5	192	5
TAP	6	0	6
TAP	6	96	7
TAP	6	192	0
TAP	6	288	1
HLD	7	0	0	96
HLD	7	0	7	96
BRK	7	192	0
BRK	7	192	7
TAP	8	0	6
TAP	8	96	6
TAP	8	192	7
TAP	8	288	7
TAP	9	0	0
TAP	9	96	0
TAP	9	192	0
TAP	9	192	1
TAP	10	0	1
TAP	10	96	1
TAP	10	192	0
TAP	10	288	0
TAP	11	0	7
TAP	11	96	7
TAP	11	192	6
TAP	11	192	7
HLD	12	0	5	192
TAP	12	96	4
TAP	12	192	4
HLD	13	0	2	192
TAP	13	96	3
TAP	13	192	3
TAP	14	0	5
TAP	14	96	4
TAP	14	192	2
TAP	14	288	3
TAP	15	0	3
TAP	15	0	4
TAP	15	96	3
TAP	15	96	4
TAP	15	192	2
TAP	15	192	5
STR	16	0	4
SI_	16	0	4	96	192	7
STR	17	0	0
SI_	17	0	0	96	192	3
TAP	18	0	5
TAP	18	96	4
TAP	18	192	5
TAP	18	288	4
TAP	18	288	5
TAP	19	0	2
TAP	19	96	3
TAP	19	192	2
TAP	19	288	2
TAP	19	288	3
TAP	20	0	1
TAP	20	96	1
TAP	20	192	0
TAP	20	288	0
TAP	21	0	7
TAP	21	96	7
TAP	21	192	0
TAP	21	192	7
TAP	22	0	5
TAP	22	96	4
TAP	22	192	3
TAP	22	192	4
TAP	23	0	2
TAP	23	96	3
TAP	23	192	3
TAP	23	192	4
TAP	24	0	5
TAP	24	96	6
TAP	24	192	7
TAP	24	288	0
TAP	25	0	1
TAP	25	96	2
TAP	25	192	3
TAP	25	288	4
STR	26	0	3
SXR	26	0	3	96	576	0
STR	26	0	4
SXL	26	0	4	96	576	7
HLD	28	0	6	384
HLD	29	0	7	384
HLD	30	0	0	384
HLD	31	0	1	384
TAP	32	0	0
TAP	32	96	0
TAP	32	192	7
TAP	32	288	7
TAP	33	0	0
TAP	33	0	7
TAP	33	96	1
TAP	33	96	6
BRK	33	192	2
BRK	33	192	5
TAP	34	0	6
TAP	34	0	7
TAP	34	96	0
TAP	34	96	5
TAP	34	192	6
TAP	34	192	7
TAP	34	288	0
TAP	34	288	5
TAP	35	0	0
TAP	35	0	1
TAP	35	96	0
TAP	35	96	1
TAP	35	192	2
TAP	35	192	7
HLD	36	0	6	96
TAP	36	96	7
HLD	36	192	1	96
TAP	36	288	0
TAP	37	0	6
TAP	37	0	7
TAP	37	96	0
TAP	37	96	1
TAP	37	192	6
TAP	37	192	7
TAP	37	288	0
TAP	37	288	1
HLD	38	0	2	192
TAP	38	96	3
TAP	38	192	3
TAP	38	288	2
TAP	38	288	3
TAP	39	0	5
TAP	39	96	4
TAP	39	192	5
TAP	39	288	4
TAP	39	288	5
TAP	40	0	6
TAP	40	96	7
TAP	40	192	1
TAP	40	288	0
TAP	41	0	0
TAP	41	0	7
TAP	41	96	0
TAP	41	96	7
TAP	41	192	1
TAP	41	192	6
TAP	41	288	1
TAP	41	288	6
BRK	42	0	2
BRK	42	0	5
TAP	42	192	2
TAP	42	288	2
TAP	43	0	3
TAP	43	96	3
TAP	43	192	4
TAP	43	288	4
TAP	44	0	4
TAP	44	0	5
TAP	44	192	5
TAP	44	288	5
TAP	45	0	4
TAP	45	96	4
TAP	45	192	3
TAP	45	288	3
TAP	46	0	2
TAP	46	0	3
TAP	46	192	1
TAP	46	288	0
TAP	47	0	1
TAP	47	96	0
TAP	47	192	6
TAP	47	288	7
TAP	48	0	6
TAP	48	96	7
TAP	48	192	1
TAP	48	288	0
TAP	49	0	7
TAP	49	96	6
TAP	49	192	0
TAP	49	192	7
TAP	49	288	0
TAP	49	288	7
TAP	50	0	1
TAP	50	0	6
TAP	50	96	1
TAP	50	96	6
BRK	50	192	2
BRK	50	192	5
BRK	51	96	1
TAP	51	192	2
TAP	51	288	3
TAP	52	0	4
BRK	52	96	5
TAP	52	192	6
TAP	52	288	7
TAP	53	0	0
BRK	53	96	1
TAP	53	192	1
TAP	53	288	0
TAP	54	0	7
BRK	54	96	6
TAP	54	192	5
TAP	54	288	4
TAP	55	0	3
TAP	55	96	2
TAP	55	192	1
TAP	55	288	0
BRK	56	0	0
BRK	56	0	7
STR	56	192	6
SI_	56	192	6	96	192	3
STR	56	192	7
SI_	56	192	7	96	192	2
STR	57	192	0
SI_	57	192	0	96	192	5
STR	57	192	1
SI_	57	192	1	96	192	4
TAP	58	192	3
TAP	58	192	4
TAP	58	288	3
TAP	58	288	4
HLD	59	0	5	192
TAP	59	192	4
HLD	60	0	2	192
TAP	60	192	3
HLD	61	0	1	192
TAP	61	192	0
HLD	62	0	6	192
TAP	62	192	7
TAP	63	0	5
TAP	63	96	5
TAP	63	192	4
TAP	63	288	4
TAP	64	0	3
TAP	64	96	3
TAP	64	192	2
TAP	64	288	2
TAP	65	0	1
TAP	65	96	0
TAP	65	192	7
TAP	65	288	6
TAP	66	0	5
TAP	66	96	4
BRK	66	192	3
BRK	66	192	4
TAP	67	0	2
TAP	67	0	5
TAP	67	192	6
TAP	67	192	7
TAP	67	288	0
TAP	67	288	5
TAP	68	0	0
TAP	68	0	1
TAP	68	96	2
TAP	68	96	7
TAP	68	192	6
TAP	68	192	7
TAP	68	288	0
TAP	68	288	5
TAP	69	0	1
TAP	69	0	4
HLD	69	192	2	96
TAP	69	288	3
HLD	70	0	5	96
TAP	70	96	4
TAP	70	192	6
TAP	70	192	7
TAP	70	288	0
TAP	70	288	1
TAP	71	0	2
TAP	71	0	3
TAP	71	96	4
TAP	71	96	5
HLD	71	192	6	192
TAP	71	288	7
TAP	72	0	7
TAP	72	96	6
TAP	72	96	7
TAP	72	192	1
TAP	72	288	0
TAP	73	0	1
TAP	73	96	0
TAP	73	96	1
TAP	73	192	2
TAP	73	288	3
TAP	74	0	5
TAP	74	96	4
TAP	74	192	3
TAP	74	192	4
TAP	74	288	3
TAP	74	288	4
TAP	75	0	2
TAP	75	0	5
TAP	75	96	2
TAP	75	96	5
TAP	75	192	6
TAP	75	288	7
STR	76	0	0
SXL	76	0	0	96	288	4
TAP	77	192	5
TAP	77	288	4
STR	78	0	3
SXR	78	0	3	96	288	7
TAP	79	192	6
TAP	79	288	7
TAP	80	0	6
TAP	80	0	7
TAP	80	192	1
TAP	80	288	0
TAP	81	0	0
TAP	81	0	1
TAP	81	192	2
TAP	81	288	3
TAP	82	0	2
TAP	82	96	2
TAP	82	96	3
TAP	82	192	5
TAP	82	288	4
TAP	83	0	5
TAP	83	96	4
TAP	83	96	5
TAP	83	192	4
TAP	83	288	3
TAP	84	0	3
TAP	84	0	4
TAP	84	96	3
TAP	84	96	4
TAP	84	192	2
TAP	84	192	5
TAP	84	288	2
TAP	84	288	5
BRK	85	0	1
BRK	85	0	6
TAP	85	192	0
TAP	85	192	7
TAP	86	0	6
TAP	86	96	6
TAP	86	192	6
TAP	86	192	7
TAP	87	0	1
TAP	87	96	1
TAP	87	192	0
TAP	87	192	1
TAP	88	0	2
TAP	88	96	3
TAP	88	192	4
TAP	88	288	5
HLD	89	0	3	96
HLD	89	0	4	96
TAP	89	192	3
TAP	89	192	4
BRK	90	0	2
BRK	90	0	5

T_REC_TAP	303
T_REC_BRK	22
T_REC_XTP	0
T_REC_HLD	22
T_REC_XHO	0
T_REC_STR	10
T_REC_BST	0
T_REC_XST	0
T_REC_TTP	0
T_REC_THO	0
T_REC_SLD	10
T_REC_ALL	367
T_NUM_TAP	313
T_NUM_BRK	22
T_NUM_HLD	22
T_NUM_SLD	10
T_NUM_ALL	367
T_JUDGE_TAP	335
T_JUDGE_HLD	88
T_JUDGE_SLD	10
T_JUDGE_ALL	433
TTM_EACHPAIRS	86
TTM_SCR_TAP	156500
TTM_SCR_BRK	57200
TTM_SCR_HLD	22000
TTM_SCR_SLD	15000
TTM_SCR_ALL	250700
TTM_SCR_S	241050
TTM_SCR_SS	248500
TTM_RAT_ACV	10088

