VERSION	0.00.00	1.03.00
FES_MODE	0
BPM_DEF	150.000	150.000	150.000	150.000
MET_DEF	4	4
RESOLUTION	384
CLK_DEF	384
COMPATIBLE_CODE	MA2

BPM	0	0	150.000
MET	0	0	4	4
MET	42	0	4	2
MET	42	192	4	4
MET	58	192	4	2
MET	59	0	4	4
MET	67	0	4	2
MET	67	192	4	4
MET	85	192	4	2
MET	86	0	4	4

TAP	4	0	0
TAP	4	192	0
TAP	5	0	1
TAP	5	192	1
TAP	6	0	2
TAP	6	192	2
TAP	7	0	3
TAP	7	192	3
TAP	7	192	4
HLD	8	0	5	192
HLD	9	0	2	192
TAP	10	0	4
TAP	10	96	4
TAP	10	192	4
TAP	11	0	3
TAP	11	96	3
TAP	11	192	3
HLD	12	0	4	192
HLD	12	0	5	192
HLD	13	0	2	192
HLD	13	0	3	192
TAP	14	0	4
TAP	14	96	4
TAP	14	192	3
TAP	14	288	3
TAP	15	0	4
TAP	15	96	4
TAP	15	192	3
TAP	15	192	4
TAP	16	0	2
TAP	16	0	5
TAP	18	0	6
TAP	18	96	6
TAP	18	192	6
TAP	19	0	7
TAP	19	96	7
TAP	19	192	7
TAP	20	0	0
TAP	20	192	7
TAP	21	0	0
TAP	21	96	7
TAP	21	192	0
TAP	22	0	1
TAP	22	96	1
TAP	22	192	1
TAP	23	0	2
TAP	23	96	2
TAP	23	192	2
TAP	24	0	3
TAP	24	96	3
TAP	24	192	4
TAP	24	288	4
TAP	25	0	3
TAP	25	96	3
TAP	25	192	3
TAP	25	192	4
STR	26	0	4
SI_	26	0	4	96	288	7
STR	28	0	3
SI_	28	0	3	96	288	0
STR	30	0	7
SI_	30	0	7	96	288	4
STR	32	0	0
SI_	32	0	0	96	288	3
TAP	34	0	7
TAP	34	96	7
TAP	34	192	7
TAP	35	0	6
TAP	35	96	6
TAP	35	192	6
TAP	36	0	5
TAP	36	192	5
TAP	37	0	4
TAP	37	96	3
TAP	37	192	4
TAP	38	0	3
TAP	38	96	3
TAP	38	192	3
TAP	39	0	2
TAP	39	96	2
TAP	39	192	2
TAP	40	0	1
TAP	40	96	1
TAP	40	192	0
TAP	40	288	0
TAP	41	0	7
TAP	41	96	7
TAP	41	192	0
TAP	41	192	7
BRK	42	0	0
TAP	42	192	0
TAP	42	288	0
TAP	43	0	0
TAP	43	192	1
TAP	43	288	1
TAP	44	0	1
TAP	44	192	2
TAP	44	288	2
TAP	45	0	2
TAP	45	192	3
TAP	45	288	3
TAP	46	0	3
TAP	46	0	4
TAP	46	192	4
TAP	46	288	4
TAP	47	0	4
TAP	47	192	5
TAP	47	288	5
TAP	48	0	5
TAP	48	192	6
TAP	48	288	6
TAP	49	0	6
TAP	49	192	7
TAP	49	288	7
TAP	50	0	0
TAP	50	0	7
BRK	50	192	1
BRK	50	192	6
TAP	51	192	0
TAP	51	192	1
TAP	52	192	6
TAP	52	192	7
TAP	53	192	0
TAP	53	192	7
STR	54	192	0
SI_	54	192	0	96	288	4
STR	56	192	7
SI_	56	192	7	96	288	3
BRK	58	192	0
BRK	58	192	7
TAP	59	0	0
TAP	59	192	0
TAP	60	0	1
TAP	60	192	1
TAP	61	0	2
TAP	61	192	2
TAP	62	0	3
TAP	62	192	3
TAP	63	0	4
TAP	63	192	4
TAP	64	0	4
TAP	64	192	4
TAP	65	0	3
TAP	65	96	3
TAP	65	192	3
TAP	66	0	4
TAP	66	96	4
TAP	66	192	4
BRK	67	0	3
BRK	67	0	4
TAP	67	192	3
TAP	67	288	3
TAP	68	0	3
TAP	68	192	2
TAP	68	288	2
TAP	69	0	2
TAP	69	192	1
TAP	69	288	1
TAP	70	0	0
TAP	70	96	0
TAP	70	192	7
TAP	70	288	0
TAP	71	0	7
TAP	71	192	7
TAP	71	288	7
TAP	72	0	0
TAP	72	0	7
TAP	72	192	6
TAP	72	288	6
TAP	73	0	6
TAP	73	0	7
TAP	73	192	5
TAP	73	288	5
TAP	74	0	4
TAP	74	96	4
HLD	74	192	3	192
HLD	74	192	4	192
TAP	75	192	4
TAP	75	288	4
TAP	76	0	4
TAP	76	192	5
TAP	77	0	5
TAP	77	192	6
TAP	77	288	6
TAP	78	0	6
TAP	78	192	7
TAP	79	0	7
TAP	79	192	0
TAP	79	288	0
TAP	80	0	0
TAP	80	192	1
TAP	80	288	1
TAP	81	0	1
HLD	81	192	2	192
TAP	82	192	3
TAP	82	288	3
TAP	83	0	3
HLD	83	192	4	192
TAP	84	192	3
TAP	84	192	4
TAP	84	288	3
TAP	84	288	4
HLD	85	0	3	192
HLD	85	0	4	192
TAP	86	0	3
TAP	86	192	3
TAP	87	0	2
TAP	87	192	2
TAP	88	0	0
TAP	88	0	1
TAP	88	192	0
TAP	88	192	1
HLD	89	0	7	192
HLD	90	0	0	192
HLD	90	0	7	192
TAP	91	0	0
TAP	91	0	7

T_REC_TAP	183
T_REC_BRK	7
T_REC_XTP	0
T_REC_HLD	15
T_REC_XHO	0
T_REC_STR	6
T_REC_BST	0
T_REC_XST	0
T_REC_TTP	0
T_REC_THO	0
T_REC_SLD	6
T_REC_ALL	217
T_NUM_TAP	189
T_NUM_BRK	7
T_NUM_HLD	15
T_NUM_SLD	6
T_NUM_ALL	217
T_JUDGE_TAP	196
T_JUDGE_HLD	60
T_JUDGE_SLD	6
T_JUDGE_ALL	262
TTM_EACHPAIRS	25
TTM_SCR_TAP	94500
TTM_SCR_BRK	18200
TTM_SCR_HLD	15000
TTM_SCR_SLD	9000
TTM_SCR_ALL	136700
TTM_SCR_S	131950
TTM_SCR_SS	136000
TTM_RAT_ACV	10051

