VERSION	0.00.00	1.03.00
FES_MODE	0
BPM_DEF	200.000	200.000	200.000	200.000
MET_DEF	4	4
RESOLUTION	384
CLK_DEF	384
COMPATIBLE_CODE	MA2

BPM	0	0	200.000

HLD	1	0	6	64
HLD	1	64	4	64
TAP	1	128	5
HLD	1	192	1	64
HLD	1	256	3	64
TAP	1	320	2
TAP	2	0	3
TAP	2	0	4
TAP	2	64	2
TAP	2	64	5
TAP	2	128	1
TAP	2	128	6
STR	2	192	0
SUL	2	192	0	96	48	3
TAP	2	192	7
TAP	3	0	5
TAP	3	96	4
TAP	3	96	6
HLD	3	144	4	96
HLD	3	144	6	96
TAP	3	288	1
TAP	3	288	4
TAP	4	0	2
TAP	4	96	1
TAP	4	96	3
HLD	4	144	1	96
HLD	4	144	3	96
TAP	4	288	3
TAP	4	288	6
TAP	5	0	1
TAP	5	48	2
TAP	5	96	3
TAP	5	144	5
TAP	5	192	4
TAP	5	240	3
TAP	5	288	4
TAP	5	336	5
TAP	6	0	3
TAP	6	0	6
TAP	6	144	1
TAP	6	144	4
BRK	6	288	0
BRK	6	288	7
TAP	7	0	1
TAP	7	96	0
TAP	7	96	2
TAP	7	192	2
TAP	7	240	3
TAP	7	288	1
TAP	8	0	0
TAP	8	0	2
TAP	8	48	7
TAP	8	96	6
TAP	8	144	5
STR	8	192	4
SI_	8	192	4	96	48	0
TAP	8	288	4
TAP	9	0	6
TAP	9	96	5
TAP	9	96	7
TAP	9	192	5
TAP	9	240	4
TAP	9	288	6
TAP	10	0	5
TAP	10	0	7
TAP	10	48	0
TAP	10	96	1
TAP	10	144	2
STR	10	192	3
SI_	10	192	3	96	48	7
TAP	10	288	3
TAP	11	0	1
TAP	11	96	0
TAP	11	96	2
TAP	11	192	2
TAP	11	240	3
TAP	11	288	1
TAP	12	0	0
TAP	12	0	2
TAP	12	48	7
TAP	12	96	6
TAP	12	144	5
STR	12	192	4
SI_	12	192	4	96	48	0
TAP	12	288	4
TAP	13	0	2
TAP	13	0	5
TAP	13	96	4
TAP	13	96	6
TAP	13	144	4
TAP	13	144	6
TAP	13	240	1
TAP	13	240	3
TAP	13	288	1
TAP	13	288	3
TAP	14	0	2
TAP	14	0	5
TAP	14	48	0
TAP	14	72	7
TAP	14	96	0
TAP	14	144	1
TAP	14	144	6
TAP	14	192	2
TAP	14	240	2
BRK	14	288	7
BRK	15	0	7
TAP	15	144	3
TAP	15	192	3
TAP	15	288	5
HLD	15	336	5	192
TAP	16	48	4
TAP	16	144	4
TAP	16	240	3
TAP	16	288	3
HLD	17	0	2	192
TAP	17	144	3
TAP	17	192	3
TAP	17	288	5
HLD	17	336	5	192
TAP	18	48	4
TAP	18	144	4
TAP	18	288	3
TAP	18	288	4
TAP	19	0	2
HLD	19	48	1	240
TAP	19	48	3
TAP	19	288	3
TAP	20	0	5
TAP	20	48	4
HLD	20	48	6	240
TAP	20	288	4
TAP	21	0	0
TAP	21	0	7
TAP	21	48	0
TAP	21	48	7
TAP	21	144	2
TAP	21	168	3
TAP	21	192	2
TAP	21	240	4
TAP	21	288	5
TAP	22	0	1
TAP	22	0	6
TAP	22	48	1
TAP	22	48	6
TAP	22	144	4
TAP	22	144	5
TAP	22	240	2
TAP	22	240	3
BRK	22	288	1
BRK	22	288	6
TAP	23	0	3
TAP	23	0	4
TAP	23	96	6
STR	23	144	6
SI_	23	144	6	96	48	3
TAP	23	192	7
TAP	23	288	1
STR	23	336	1
SI_	23	336	1	96	48	4
TAP	24	0	0
TAP	24	96	6
STR	24	144	6
SI_	24	144	6	96	24	3
TAP	24	192	7
TAP	24	288	2
STR	24	336	2
SI_	24	336	2	96	48	7
TAP	25	0	3
TAP	25	96	5
STR	25	144	5
SI_	25	144	5	96	48	0
TAP	25	192	4
TAP	25	288	2
TAP	25	336	1
TAP	25	336	3
TAP	26	48	3
TAP	26	48	4
TAP	26	144	4
TAP	26	144	6
TAP	26	240	1
TAP	26	288	1
TAP	27	0	3
TAP	27	0	4
TAP	27	96	6
STR	27	144	6
SI_	27	144	6	96	48	3
TAP	27	192	7
TAP	27	288	1
TAP	27	336	0
TAP	27	336	2
TAP	28	48	0
TAP	28	48	7
TAP	28	144	5
TAP	28	144	7
TAP	28	240	2
TAP	28	288	2
TAP	29	0	5
TAP	29	48	4
TAP	29	96	7
TAP	29	192	2
TAP	29	240	3
TAP	29	288	0
TAP	30	0	2
TAP	30	0	3
TAP	30	48	2
TAP	30	48	3
TAP	30	144	4
TAP	30	144	5
TAP	30	192	3
TAP	30	192	6
BRK	30	288	0
BRK	30	288	1
STR	31	0	2
SCL	31	0	2	96	144	5
STR	31	0	3
SUR	31	0	3	96	144	4
TAP	31	336	4
TAP	31	336	5
TAP	32	48	3
HLD	32	96	3	96
TAP	32	192	4
TAP	32	288	2
TAP	32	288	3
STR	33	0	4
SUL	33	0	4	96	144	3
STR	33	0	5
SCR	33	0	5	96	144	2
TAP	33	336	2
TAP	33	336	3
TAP	34	48	4
HLD	34	96	4	96
TAP	34	192	3
TAP	34	288	4
TAP	34	288	5
TAP	35	0	2
TAP	35	96	1
TAP	35	96	3
TAP	35	192	5
TAP	35	288	4
TAP	35	288	6
TAP	36	0	2
TAP	36	0	3
TAP	36	96	1
TAP	36	96	3
TAP	36	192	4
TAP	36	192	5
STR	36	288	4
SCR	36	288	4	96	240	3
TAP	36	288	6
STR	37	0	6
SI_	37	0	6	96	72	1
BRK	37	288	2
BRK	37	288	5
TAP	38	192	4
TAP	38	216	3
TAP	38	240	4
TAP	38	288	2
TAP	38	288	5
STR	39	0	0
SI_	39	0	0	96	48	2
STR	39	0	7
SI_	39	0	7	96	48	3
TAP	39	96	0
TAP	39	96	7
TAP	39	192	4
TAP	39	192	5
STR	39	288	7
SCL	39	288	7	96	48	4
TAP	39	336	7
TAP	40	48	2
TAP	40	96	3
TAP	40	144	1
TAP	40	192	0
TAP	40	192	7
TAP	40	288	4
TAP	40	288	5
TAP	41	0	3
STR	41	0	6
SI_	41	0	6	96	48	3
TAP	41	96	7
STR	41	192	1
SI_	41	192	1	96	48	4
TAP	41	192	4
TAP	41	288	6
HLD	41	336	6	96
TAP	42	48	7
TAP	42	96	7
BST	42	192	1
SUR	42	192	1	96	96	6
BRK	42	192	4
STR	42	288	6
SUL	42	288	6	96	96	1
STR	43	96	7
SI_	43	96	7	96	48	2
SI_	43	96	7	96	48	4
TAP	43	288	5
HLD	43	336	5	96
TAP	44	48	2
TAP	44	96	3
TAP	44	144	1
TAP	44	192	0
TAP	44	192	7
TAP	44	288	3
TAP	44	288	4
TAP	45	0	3
STR	45	0	5
SI_	45	0	5	96	48	0
TAP	45	96	2
STR	45	192	1
SI_	45	192	1	96	48	6
TAP	45	192	4
TAP	45	288	3
HLD	45	336	3	96
TAP	46	48	2
TAP	46	96	2
BRK	46	192	0
BRK	46	192	5
STR	46	288	7
SCL	46	288	7	96	48	4
STR	47	0	7
SCR	47	0	7	96	48	2
STR	47	96	7
SI_	47	96	7	96	48	4
STR	47	192	7
SI_	47	192	7	96	48	2
STR	47	288	7
SI_	47	288	7	96	48	3
STR	48	0	7
SCR	48	0	7	96	48	2
STR	48	96	7
SCL	48	96	7	96	48	4
STR	48	192	7
SI_	48	192	7	96	48	3
TAP	48	288	7
TAP	49	0	6
TAP	49	96	5
TAP	49	96	7
TAP	49	192	1
TAP	49	288	0
TAP	49	288	2
TAP	49	336	0
HLD	49	336	2	144
TAP	50	48	7
TAP	50	96	7
TAP	50	192	1
TAP	50	192	5
STR	50	288	0
SCR	50	288	0	96	48	3
TAP	50	288	4
STR	51	0	0
SCL	51	0	0	96	48	5
STR	51	96	0
SI_	51	96	0	96	48	3
STR	51	192	0
SI_	51	192	0	96	48	5
STR	51	288	0
SI_	51	288	0	96	48	4
STR	52	0	0
SCL	52	0	0	96	48	5
STR	52	96	0
SCR	52	96	0	96	48	3
STR	52	192	0
SI_	52	192	0	96	48	4
TAP	52	288	0
HLD	53	0	1	96
TAP	53	96	0
TAP	53	192	1
TAP	53	192	3
STR	53	288	4
SLR	53	288	4	96	96	3
STR	53	336	7
SI_	53	336	7	96	48	2
BRK	54	192	1
BRK	54	192	5
TAP	54	288	3
TAP	54	288	4
TAP	55	0	4
HLD	55	0	5	96
TAP	55	48	4
TAP	55	96	4
TAP	55	192	6
TAP	55	240	3
TAP	55	240	6
TAP	55	336	2
STR	56	0	2
SI_	56	0	2	96	48	5
TAP	56	0	3
TAP	56	96	4
TAP	56	192	6
TAP	56	288	4
TAP	56	288	5
HLD	57	0	2	96
TAP	57	0	3
TAP	57	48	3
TAP	57	96	3
TAP	57	192	1
TAP	57	240	1
TAP	57	240	4
TAP	57	336	5
TAP	58	0	4
TAP	58	0	5
STR	58	96	3
SF_	58	96	3	96	144	7
TAP	59	0	2
HLD	59	0	3	96
TAP	59	48	2
TAP	59	96	2
TAP	59	192	1
TAP	59	240	1
TAP	59	240	4
TAP	59	336	5
TAP	60	0	4
STR	60	0	5
SI_	60	0	5	96	48	3
STR	60	96	1
SI_	60	96	1	96	48	5
TAP	60	192	6
TAP	60	288	3
TAP	60	288	4
HLD	61	0	4	96
TAP	61	0	5
TAP	61	48	5
TAP	61	96	5
TAP	61	192	6
TAP	61	240	3
TAP	61	240	6
TAP	61	336	2
TAP	62	0	2
TAP	62	0	3
STR	62	96	4
SCR	62	96	4	96	192	3
STR	64	0	4
SUR	64	0	4	96	144	1
STR	64	0	5
SCR	64	0	5	96	144	0
TAP	64	336	2
TAP	64	336	3
TAP	65	48	4
HLD	65	96	4	96
TAP	65	192	3
TAP	65	288	4
TAP	65	288	5
STR	66	0	2
SCL	66	0	2	96	144	7
STR	66	0	3
SUL	66	0	3	96	144	6
TAP	66	336	4
TAP	66	336	5
TAP	67	48	3
HLD	67	96	3	96
TAP	67	192	4
TAP	67	288	2
TAP	67	288	3
TAP	68	0	5
TAP	68	96	4
TAP	68	96	6
TAP	68	192	2
TAP	68	288	1
TAP	68	288	3
TAP	69	0	4
TAP	69	0	5
TAP	69	96	4
TAP	69	96	6
TAP	69	192	2
TAP	69	192	3
TAP	69	288	1
STR	69	288	3
SCL	69	288	3	96	240	4
STR	70	0	1
SI_	70	0	1	96	72	6
BRK	70	288	2
BRK	70	288	5
STR	71	288	4
SCR	71	288	4	96	240	3
BST	72	0	6
SI_	72	0	6	96	72	1
BRK	72	288	1
BRK	72	288	5
HLD	74	0	2	576
TAP	74	0	4
TAP	74	96	4
TAP	74	192	6
TAP	74	288	6
TAP	75	0	3
TAP	75	96	4
TAP	75	192	5
TAP	75	288	3
TAP	75	288	4
TAP	76	0	3
HLD	76	0	5	288
TAP	76	96	3
TAP	76	192	2
TAP	76	288	2
STR	77	0	1
SI_	77	0	1	96	48	3
STR	77	0	6
SI_	77	0	6	96	48	4
TAP	77	192	2
TAP	77	192	5
STR	77	288	5
SCL	77	288	5	96	96	2
STR	78	0	2
SCR	78	0	2	96	96	5
TAP	78	192	2
TAP	78	288	1
TAP	78	288	6
HLD	79	0	6	192
TAP	79	96	4
TAP	79	192	4
TAP	79	288	3
TAP	79	288	4
HLD	80	0	1	288
TAP	80	96	3
TAP	80	192	5
TAP	80	288	3
STR	81	0	3
SI_	81	0	3	96	48	1
STR	81	0	4
SI_	81	0	4	96	48	6
TAP	81	192	2
TAP	81	192	5
TAP	81	288	5
TAP	82	0	4
HLD	82	0	5	672
TAP	82	96	6
TAP	82	192	7
TAP	82	288	0
TAP	83	0	1
TAP	83	96	2
TAP	83	192	3
TAP	83	288	4
TAP	84	0	2
TAP	84	96	1
TAP	84	96	3
TAP	84	192	5
TAP	84	288	4
TAP	84	288	6
TAP	84	336	4
HLD	84	336	6	144
TAP	85	48	3
TAP	85	96	3
TAP	85	192	4
TAP	85	192	5
TAP	85	288	1
TAP	85	288	3
HLD	86	0	2	672
TAP	86	0	3
TAP	86	96	1
TAP	86	192	0
TAP	86	288	7
TAP	87	0	6
TAP	87	96	5
TAP	87	192	4
TAP	87	288	3
TAP	88	0	2
TAP	88	96	1
TAP	88	96	3
TAP	88	192	5
TAP	88	288	4
TAP	88	288	6
TAP	88	336	4
HLD	88	336	6	144
TAP	89	48	1
TAP	89	96	1
BRK	89	192	0
BRK	89	192	7
TAP	89	288	3
TAP	89	288	4
STR	90	0	6
SI_	90	0	6	96	48	4
STR	90	0	7
SI_	90	0	7	96	48	3
TAP	90	96	6
TAP	90	96	7
STR	90	192	0
SUR	90	192	0	96	48	4
TAP	90	192	1
TAP	90	288	2
HLD	90	336	2	96
TAP	91	48	5
TAP	91	96	4
TAP	91	144	6
TAP	91	192	0
TAP	91	192	7
TAP	91	288	4
TAP	91	288	5
STR	92	0	0
SCR	92	0	0	96	48	3
TAP	92	0	6
TAP	92	96	4
STR	92	192	4
SUL	92	192	4	96	48	0
TAP	92	192	5
TAP	92	288	6
HLD	92	336	6	96
TAP	93	48	7
TAP	93	96	7
BRK	93	192	1
BRK	93	192	4
STR	93	288	5
SCR	93	288	5	96	96	2
STR	94	0	2
SCL	94	0	2	96	96	5
HLD	94	192	1	96
TAP	94	288	6
HLD	94	336	6	96
TAP	95	48	2
TAP	95	96	3
TAP	95	144	1
TAP	95	192	0
TAP	95	192	7
TAP	95	288	4
TAP	95	288	5
TAP	96	0	2
STR	96	0	4
SI_	96	0	4	96	48	7
TAP	96	96	0
STR	96	192	0
SUR	96	192	0	96	48	5
TAP	96	192	1
TAP	96	288	2
HLD	96	336	2	96
TAP	97	48	3
TAP	97	96	3
BRK	97	192	0
BRK	97	192	5
TAP	97	288	0
STR	97	288	7
SCL	97	288	7	96	48	4
STR	98	0	7
SCR	98	0	7	96	48	2
STR	98	96	7
SI_	98	96	7	96	48	4
STR	98	192	7
SI_	98	192	7	96	48	2
STR	98	288	7
SI_	98	288	7	96	48	3
STR	99	0	7
SCR	99	0	7	96	48	2
STR	99	96	7
SCL	99	96	7	96	48	4
STR	99	192	7
SI_	99	192	7	96	48	3
TAP	99	288	7
TAP	100	0	6
TAP	100	96	5
TAP	100	96	7
TAP	100	192	1
TAP	100	288	0
TAP	100	288	2
TAP	100	336	0
HLD	100	336	2	144
TAP	101	48	7
TAP	101	96	7
TAP	101	192	1
TAP	101	192	5
STR	101	288	0
SCR	101	288	0	96	48	3
TAP	101	288	4
STR	102	0	0
SCL	102	0	0	96	48	5
STR	102	96	0
SI_	102	96	0	96	48	3
STR	102	192	0
SI_	102	192	0	96	48	5
STR	102	288	0
SI_	102	288	0	96	48	4
STR	103	0	0
SCL	103	0	0	96	48	5
STR	103	96	0
SCR	103	96	0	96	48	3
STR	103	192	0
SI_	103	192	0	96	48	4
TAP	103	288	0
TAP	104	0	1
TAP	104	96	0
TAP	104	96	2
TAP	104	192	6
TAP	104	288	5
TAP	104	288	7
HLD	104	336	5	144
TAP	104	336	7
TAP	105	48	0
TAP	105	96	0
TAP	105	192	2
TAP	105	192	4
TAP	105	288	0
STR	105	288	6
SI_	105	288	6	96	48	4
STR	106	0	6
SI_	106	0	6	96	48	3
STR	106	96	6
SI_	106	96	6	96	48	2
STR	106	192	6
SI_	106	192	6	96	48	1
STR	106	288	6
SI_	106	288	6	96	48	0
STR	107	0	6
SI_	107	0	6	96	48	1
STR	107	96	6
SI_	107	96	6	96	48	2
STR	107	192	6
SI_	107	192	6	96	48	3
TAP	107	288	6
TAP	108	0	4
TAP	108	0	5
TAP	108	96	4
TAP	108	96	7
TAP	108	192	2
TAP	108	192	3
TAP	108	288	0
TAP	108	288	3
HLD	108	336	0	144
TAP	108	336	3
TAP	109	48	4
TAP	109	96	4
TAP	109	192	2
TAP	109	192	3
STR	109	288	1
SI_	109	288	1	96	48	3
TAP	109	288	7
STR	110	0	1
SI_	110	0	1	96	48	4
STR	110	96	1
SI_	110	96	1	96	48	5
STR	110	192	1
SI_	110	192	1	96	48	6
STR	110	288	1
SI_	110	288	1	96	48	7
STR	111	0	1
SI_	111	0	1	96	48	6
STR	111	96	1
SI_	111	96	1	96	48	5
STR	111	192	1
SI_	111	192	1	96	48	4
TAP	111	288	1
HLD	112	0	2	528
HLD	112	0	5	528
TAP	113	192	2
TAP	113	192	5

T_REC_TAP	462
T_REC_BRK	25
T_REC_XTP	0
T_REC_HLD	44
T_REC_XHO	0
T_REC_STR	102
T_REC_BST	2
T_REC_XST	0
T_REC_TTP	0
T_REC_THO	0
T_REC_SLD	105
T_REC_ALL	740
T_NUM_TAP	564
T_NUM_BRK	27
T_NUM_HLD	44
T_NUM_SLD	105
T_NUM_ALL	740
T_JUDGE_TAP	591
T_JUDGE_HLD	168
T_JUDGE_SLD	105
T_JUDGE_ALL	864
TTM_EACHPAIRS	166
TTM_SCR_TAP	282000
TTM_SCR_BRK	70200
TTM_SCR_HLD	44000
TTM_SCR_SLD	157500
TTM_SCR_ALL	553700
TTM_SCR_S	534500
TTM_SCR_SS	551000
TTM_RAT_ACV	10049

