VERSION	0.00.00	1.03.00
FES_MODE	0
BPM_DEF	200.000	200.000	200.000	200.000
MET_DEF	4	4
RESOLUTION	384
CLK_DEF	384
COMPATIBLE_CODE	MA2

BPM	0	0	200.000

HLD	1	0	0	64
HLD	1	64	7	64
HLD	1	128	6	64
HLD	1	192	5	64
HLD	1	256	4	64
HLD	1	320	3	64
HLD	2	0	2	64
HLD	2	64	1	64
HLD	2	128	0	64
TAP	2	192	7
TAP	2	288	1
TAP	2	288	6
STR	3	0	5
SI_	3	0	5	96	48	2
TAP	3	96	1
STR	3	144	1
SI_	3	144	1	96	48	6
TAP	3	240	5
TAP	3	288	5
STR	4	0	2
SI_	4	0	2	96	48	5
TAP	4	96	6
STR	4	144	6
SI_	4	144	6	96	48	1
TAP	4	240	2
TAP	4	288	2
STR	5	0	6
SI_	5	0	6	96	48	3
STR	5	96	1
SI_	5	96	1	96	48	4
STR	5	192	7
SI_	5	192	7	96	48	3
STR	5	288	0
SI_	5	288	0	96	48	4
TAP	6	0	7
TAP	6	96	7
TAP	6	192	1
TAP	6	192	6
TAP	6	288	3
TAP	6	288	4
TAP	7	0	5
TAP	7	48	4
TAP	7	96	6
TAP	7	144	2
TAP	7	192	3
TAP	7	240	1
TAP	7	288	7
TAP	7	336	0
STR	8	0	7
SI_	8	0	7	96	48	4
STR	8	96	3
SI_	8	96	3	96	48	0
STR	8	192	6
SI_	8	192	6	96	48	3
TAP	8	288	0
TAP	9	0	2
TAP	9	48	3
TAP	9	96	1
TAP	9	144	5
TAP	9	192	4
TAP	9	240	6
TAP	9	288	0
TAP	9	336	7
STR	10	0	0
SI_	10	0	0	96	48	3
STR	10	96	4
SI_	10	96	4	96	48	7
STR	10	192	1
SI_	10	192	1	96	48	4
TAP	10	288	7
TAP	11	0	5
TAP	11	48	4
TAP	11	96	6
TAP	11	144	2
TAP	11	192	3
TAP	11	240	1
TAP	11	288	7
TAP	11	336	0
STR	12	0	7
SI_	12	0	7	96	48	4
STR	12	96	3
SI_	12	96	3	96	48	0
STR	12	192	6
SI_	12	192	6	96	48	3
TAP	12	288	0
TAP	13	0	2
TAP	13	48	3
TAP	13	96	1
TAP	13	144	5
TAP	13	192	4
TAP	13	240	6
TAP	13	288	0
TAP	13	336	7
STR	14	0	0
SI_	14	0	0	96	48	3
STR	14	96	4
SI_	14	96	4	96	48	7
TAP	14	192	1
TAP	14	288	2
TAP	14	288	5
HLD	15	0	7	768
TAP	15	192	3
TAP	16	0	4
TAP	16	192	3
HLD	17	0	0	768
TAP	17	192	4
TAP	18	0	3
TAP	18	192	4
TAP	19	0	7
HLD	19	48	7	336
TAP	19	192	3
TAP	20	0	0
HLD	20	48	0	336
TAP	20	192	4
TAP	21	0	7
TAP	21	48	7
TAP	21	192	3
TAP	21	240	4
TAP	21	288	3
TAP	21	288	4
TAP	22	0	3
TAP	22	0	5
TAP	22	48	3
TAP	22	48	5
TAP	22	144	2
TAP	22	144	4
TAP	22	240	3
TAP	22	240	5
TAP	22	288	3
TAP	22	288	5
STR	23	0	6
SI_	23	0	6	96	48	3
TAP	23	96	2
TAP	23	144	2
STR	23	192	7
SI_	23	192	7	96	48	3
TAP	23	288	1
TAP	23	336	1
STR	24	0	6
SI_	24	0	6	96	48	3
TAP	24	96	2
TAP	24	144	2
STR	24	192	7
SI_	24	192	7	96	48	3
TAP	24	288	0
TAP	24	336	0
STR	25	0	1
SI_	25	0	1	96	48	4
TAP	25	96	5
TAP	25	144	5
STR	25	192	0
SI_	25	192	0	96	48	4
TAP	25	288	6
TAP	25	336	6
STR	26	0	1
SI_	26	0	1	96	48	4
TAP	26	96	5
TAP	26	144	5
STR	26	192	0
SI_	26	192	0	96	48	4
TAP	26	288	7
TAP	26	336	7
STR	27	0	6
SI_	27	0	6	96	48	3
TAP	27	96	1
TAP	27	144	1
STR	27	192	7
SI_	27	192	7	96	48	3
TAP	27	288	0
TAP	27	336	0
STR	28	0	1
SI_	28	0	1	96	48	4
TAP	28	96	5
TAP	28	144	5
STR	28	192	0
SI_	28	192	0	96	48	4
TAP	28	288	6
STR	29	0	7
SI_	29	0	7	96	48	3
STR	29	96	0
SI_	29	96	0	96	48	4
STR	29	192	6
SI_	29	192	6	96	48	2
STR	29	288	1
SI_	29	288	1	96	48	5
TAP	30	0	7
TAP	30	96	7
TAP	30	192	1
TAP	30	192	6
TAP	30	288	3
TAP	30	288	4
STR	31	0	5
SUR	31	0	5	96	96	2
TAP	31	288	2
TAP	31	288	3
TAP	31	336	2
TAP	31	336	3
TAP	32	48	2
TAP	32	48	3
TAP	32	96	2
TAP	32	96	3
TAP	32	192	1
TAP	32	192	4
TAP	32	288	1
TAP	32	288	4
STR	33	0	2
SUL	33	0	2	96	96	5
TAP	33	288	4
TAP	33	288	5
TAP	33	336	4
TAP	33	336	5
TAP	34	48	4
TAP	34	48	5
TAP	34	96	4
TAP	34	96	5
TAP	34	192	3
TAP	34	192	6
TAP	34	288	3
TAP	34	288	6
TAP	35	0	1
STR	35	96	2
SI_	35	96	2	96	48	5
TAP	35	192	7
TAP	35	288	7
TAP	36	0	6
STR	36	96	5
SI_	36	96	5	96	48	2
TAP	36	192	0
TAP	36	288	0
TAP	37	0	1
TAP	37	0	3
TAP	37	144	4
TAP	37	144	6
TAP	37	288	0
TAP	37	288	7
TAP	38	192	0
TAP	38	240	0
STR	38	288	6
SI_	38	288	6	96	48	2
STR	39	0	1
SI_	39	0	1	96	48	5
TAP	39	96	6
STR	39	192	7
SI_	39	192	7	96	48	4
TAP	39	288	0
TAP	39	336	0
TAP	40	48	2
STR	40	96	1
SI_	40	96	1	96	48	4
TAP	40	96	3
STR	40	192	6
SI_	40	192	6	96	48	3
TAP	40	288	1
STR	41	0	0
SCR	41	0	0	96	48	3
STR	41	0	4
SCR	41	0	4	96	48	7
TAP	41	192	2
TAP	41	192	6
TAP	41	288	1
TAP	41	288	5
TAP	41	336	1
TAP	41	336	5
TAP	42	48	2
TAP	42	96	3
TAP	42	144	4
TAP	42	192	5
STR	42	288	1
SI_	42	288	1	96	48	5
STR	43	0	6
SI_	43	0	6	96	48	2
TAP	43	96	1
STR	43	192	0
SI_	43	192	0	96	48	3
TAP	43	288	7
TAP	43	336	7
TAP	44	48	5
TAP	44	96	4
STR	44	96	6
SI_	44	96	6	96	48	3
STR	44	192	1
SI_	44	192	1	96	48	4
TAP	44	288	6
STR	45	0	3
SCL	45	0	3	96	48	0
STR	45	0	7
SCL	45	0	7	96	48	4
TAP	45	192	1
TAP	45	192	5
TAP	45	288	2
TAP	45	288	6
TAP	45	336	2
TAP	45	336	6
TAP	46	48	5
TAP	46	96	4
TAP	46	144	3
TAP	46	192	2
STR	46	288	2
SI_	46	288	2	96	48	5
STR	47	0	6
SI_	47	0	6	96	48	1
STR	47	96	3
SI_	47	96	3	96	48	0
STR	47	192	7
SI_	47	192	7	96	48	4
STR	47	288	2
SI_	47	288	2	96	48	5
STR	48	0	6
SI_	48	0	6	96	48	1
STR	48	96	3
SI_	48	96	3	96	48	0
TAP	48	192	7
TAP	48	288	7
STR	49	0	1
SCL	49	0	1	96	48	6
TAP	49	96	4
STR	49	192	5
SCL	49	192	5	96	48	2
TAP	49	288	0
STR	50	0	1
SCL	50	0	1	96	48	6
TAP	50	96	4
TAP	50	192	3
TAP	50	192	4
STR	50	288	5
SI_	50	288	5	96	48	2
STR	51	0	1
SI_	51	0	1	96	48	6
STR	51	96	4
SI_	51	96	4	96	48	7
STR	51	192	0
SI_	51	192	0	96	48	3
STR	51	288	5
SI_	51	288	5	96	48	2
STR	52	0	1
SI_	52	0	1	96	48	6
STR	52	96	4
SI_	52	96	4	96	48	7
TAP	52	192	0
TAP	52	288	0
STR	53	0	6
SCR	53	0	6	96	48	1
TAP	53	96	3
STR	53	192	2
SCR	53	192	2	96	48	5
TAP	53	288	7
STR	54	0	0
SI_	54	0	0	96	48	4
STR	54	0	7
SI_	54	0	7	96	48	3
BRK	54	192	1
BRK	54	192	6
TAP	54	288	3
TAP	54	288	4
TAP	55	0	3
HLD	55	0	4	384
TAP	55	192	7
HLD	56	0	3	384
TAP	56	192	0
HLD	57	0	4	384
TAP	57	192	7
TAP	58	0	3
TAP	58	96	2
TAP	58	96	5
TAP	58	192	1
TAP	58	192	6
HLD	59	0	3	384
TAP	59	0	4
TAP	59	192	0
HLD	60	0	4	384
TAP	60	192	7
HLD	61	0	3	384
TAP	61	192	0
TAP	62	0	4
TAP	62	192	0
TAP	62	192	7
TAP	62	288	1
TAP	62	288	6
TAP	64	0	4
STR	64	0	5
SCR	64	0	5	96	480	3
TAP	64	96	4
TAP	64	192	4
TAP	64	288	4
TAP	65	0	4
TAP	65	96	4
TAP	65	192	4
TAP	65	288	3
TAP	65	288	6
STR	66	0	2
SCL	66	0	2	96	480	4
TAP	66	0	3
TAP	66	96	3
TAP	66	192	3
TAP	66	288	3
TAP	67	0	3
TAP	67	96	3
TAP	67	192	3
TAP	67	288	1
TAP	67	288	4
TAP	68	0	6
STR	68	96	5
SI_	68	96	5	96	48	2
TAP	68	192	0
TAP	68	288	0
TAP	69	0	1
STR	69	96	2
SI_	69	96	2	96	48	5
TAP	69	192	7
TAP	69	288	7
TAP	70	0	4
TAP	70	0	6
TAP	70	144	1
TAP	70	144	3
HLD	70	288	0	384
HLD	70	288	7	384
TAP	72	0	1
TAP	72	0	3
TAP	72	144	4
TAP	72	144	6
HLD	72	288	0	384
HLD	72	288	7	384
HLD	74	0	3	288
TAP	74	0	4
TAP	74	96	4
TAP	74	192	4
TAP	74	288	4
TAP	75	0	4
HLD	75	0	5	288
TAP	75	96	4
TAP	75	192	4
TAP	75	288	4
HLD	76	0	3	96
TAP	76	0	4
TAP	76	96	4
TAP	76	192	4
HLD	76	192	5	96
TAP	76	288	4
TAP	77	0	4
TAP	77	96	4
TAP	77	192	3
TAP	77	192	5
TAP	77	288	4
TAP	78	0	3
HLD	78	0	4	288
TAP	78	96	3
TAP	78	192	3
TAP	78	288	3
HLD	79	0	2	288
TAP	79	0	3
TAP	79	96	3
TAP	79	192	3
TAP	79	288	3
TAP	80	0	3
HLD	80	0	4	96
TAP	80	96	3
HLD	80	192	2	96
TAP	80	192	3
TAP	80	288	3
TAP	81	0	3
TAP	81	96	3
TAP	81	192	2
TAP	81	192	4
HLD	81	288	3	96
TAP	81	288	4
HLD	82	0	2	96
HLD	82	96	1	96
HLD	82	192	0	96
HLD	82	288	7	96
HLD	83	0	6	96
HLD	83	96	5	96
HLD	83	192	4	96
TAP	83	288	3
STR	84	0	3
SCL	84	0	3	96	48	0
TAP	84	0	4
TAP	84	192	3
STR	84	192	4
SCR	84	192	4	96	48	7
STR	85	0	3
SCL	85	0	3	96	48	0
TAP	85	0	4
TAP	85	192	3
TAP	85	192	4
TAP	85	288	3
HLD	85	288	4	96
HLD	86	0	5	96
HLD	86	96	6	96
HLD	86	192	7	96
HLD	86	288	0	96
HLD	87	0	1	96
HLD	87	96	2	96
HLD	87	192	3	96
TAP	87	288	4
TAP	88	0	3
STR	88	0	4
SCR	88	0	4	96	48	7
STR	88	192	3
SCL	88	192	3	96	48	0
TAP	88	192	4
TAP	89	0	3
STR	89	0	4
SCR	89	0	4	96	48	7
TAP	89	192	3
TAP	89	192	4
STR	89	288	1
SI_	89	288	1	96	48	5
TAP	89	288	6
STR	90	0	6
SI_	90	0	6	96	48	2
TAP	90	96	1
STR	90	192	3
SI_	90	192	3	96	48	0
TAP	90	288	7
TAP	90	336	7
TAP	91	48	4
TAP	91	96	3
STR	91	96	5
SI_	91	96	5	96	48	0
STR	91	192	1
SI_	91	192	1	96	48	5
TAP	91	288	6
STR	92	0	3
SCL	92	0	3	96	48	0
STR	92	0	7
SCL	92	0	7	96	48	4
TAP	92	192	1
TAP	92	192	5
TAP	92	288	2
TAP	92	288	6
TAP	92	336	2
TAP	92	336	6
TAP	93	48	5
TAP	93	96	4
TAP	93	144	3
TAP	93	192	2
STR	93	288	6
SI_	93	288	6	96	48	2
STR	94	0	1
SI_	94	0	1	96	48	5
TAP	94	96	6
STR	94	192	4
SI_	94	192	4	96	48	7
TAP	94	288	0
TAP	94	336	0
TAP	95	48	3
STR	95	96	2
SI_	95	96	2	96	48	7
TAP	95	96	4
STR	95	192	6
SI_	95	192	6	96	48	2
TAP	95	288	1
STR	96	0	0
SCR	96	0	0	96	48	3
STR	96	0	4
SCR	96	0	4	96	48	7
TAP	96	192	2
TAP	96	192	6
TAP	96	288	1
TAP	96	288	5
TAP	96	336	1
TAP	96	336	5
TAP	97	48	2
TAP	97	96	3
TAP	97	144	4
TAP	97	192	5
STR	97	288	5
SI_	97	288	5	96	48	2
STR	98	0	1
SI_	98	0	1	96	48	6
STR	98	96	4
SI_	98	96	4	96	48	7
STR	98	192	0
SI_	98	192	0	96	48	3
STR	98	288	5
SI_	98	288	5	96	48	2
STR	99	0	1
SI_	99	0	1	96	48	6
STR	99	96	4
SI_	99	96	4	96	48	7
TAP	99	192	0
TAP	99	288	0
STR	100	0	6
SCR	100	0	6	96	48	1
TAP	100	96	3
STR	100	192	2
SCR	100	192	2	96	48	5
TAP	100	288	7
STR	101	0	6
SCR	101	0	6	96	48	1
TAP	101	96	3
TAP	101	192	3
TAP	101	192	4
STR	101	288	2
SI_	101	288	2	96	48	5
STR	102	0	6
SI_	102	0	6	96	48	1
STR	102	96	3
SI_	102	96	3	96	48	0
STR	102	192	7
SI_	102	192	7	96	48	4
STR	102	288	2
SI_	102	288	2	96	48	5
STR	103	0	6
SI_	103	0	6	96	48	1
STR	103	96	3
SI_	103	96	3	96	48	0
TAP	103	192	7
TAP	103	288	7
STR	104	0	1
SCL	104	0	1	96	48	6
TAP	104	96	4
STR	104	192	5
SCL	104	192	5	96	48	2
TAP	104	288	0
STR	105	0	0
SI_	105	0	0	96	48	4
STR	105	0	7
SI_	105	0	7	96	48	3
TAP	105	192	1
TAP	105	192	6
STR	105	288	2
SI_	105	288	2	96	48	5
STR	106	0	6
SI_	106	0	6	96	48	1
STR	106	96	3
SI_	106	96	3	96	48	0
STR	106	192	7
SCL	106	192	7	96	48	4
STR	106	288	2
SI_	106	288	2	96	48	5
STR	107	0	6
SI_	107	0	6	96	48	1
STR	107	96	3
SCL	107	96	3	96	48	0
TAP	107	192	7
TAP	107	288	7
STR	108	0	1
SCL	108	0	1	96	48	6
TAP	108	96	4
STR	108	192	5
SCL	108	192	5	96	48	2
TAP	108	288	0
STR	109	0	1
SCL	109	0	1	96	48	6
TAP	109	96	4
TAP	109	192	3
TAP	109	192	4
STR	109	288	5
SI_	109	288	5	96	48	2
STR	110	0	1
SI_	110	0	1	96	48	6
STR	110	96	4
SI_	110	96	4	96	48	7
STR	110	192	0
SCR	110	192	0	96	48	3
STR	110	288	5
SI_	110	288	5	96	48	2
STR	111	0	1
SI_	111	0	1	96	48	6
STR	111	96	4
SCR	111	96	4	96	48	7
TAP	111	192	0
TAP	111	288	0
HLD	112	0	7	288
STR	113	0	0
SI_	113	0	0	96	48	4
STR	113	0	7
SI_	113	0	7	96	48	3
TAP	113	192	1
TAP	113	192	6

T_REC_TAP	345
T_REC_BRK	2
T_REC_XTP	0
T_REC_HLD	48
T_REC_XHO	0
T_REC_STR	138
T_REC_BST	0
T_REC_XST	0
T_REC_TTP	0
T_REC_THO	0
T_REC_SLD	138
T_REC_ALL	671
T_NUM_TAP	483
T_NUM_BRK	2
T_NUM_HLD	48
T_NUM_SLD	138
T_NUM_ALL	671
T_JUDGE_TAP	485
T_JUDGE_HLD	214
T_JUDGE_SLD	138
T_JUDGE_ALL	837
TTM_EACHPAIRS	94
TTM_SCR_TAP	241500
TTM_SCR_BRK	5200
TTM_SCR_HLD	48000
TTM_SCR_SLD	207000
TTM_SCR_ALL	501700
TTM_SCR_S	486500
TTM_SCR_SS	501500
TTM_RAT_ACV	10003

