VERSION	0.00.00	1.03.00
FES_MODE	0
BPM_DEF	200.000	200.000	200.000	200.000
MET_DEF	4	4
RESOLUTION	384
CLK_DEF	384
COMPATIBLE_CODE	MA2

BPM	0	0	200.000

TAP	1	0	2
TAP	1	0	3
TAP	1	192	4
TAP	1	192	5
HLD	2	0	3	192
HLD	2	0	4	192
TAP	2	288	2
TAP	2	288	5
HLD	3	0	1	192
HLD	3	192	2	192
HLD	4	0	3	192
TAP	4	192	4
HLD	5	0	6	192
HLD	5	192	5	192
TAP	6	0	4
TAP	6	192	2
TAP	6	192	5
TAP	7	0	4
TAP	7	96	5
TAP	7	192	6
TAP	7	192	7
TAP	7	288	5
TAP	8	0	3
TAP	8	96	3
TAP	8	192	4
TAP	8	288	4
TAP	9	0	3
TAP	9	96	2
TAP	9	192	0
TAP	9	192	1
TAP	9	288	2
TAP	10	0	4
TAP	10	96	3
TAP	10	192	2
TAP	10	192	3
TAP	10	288	1
TAP	10	288	4
TAP	11	0	3
TAP	11	96	2
TAP	11	192	0
TAP	11	192	1
TAP	11	288	2
TAP	12	0	4
TAP	12	96	4
TAP	12	192	3
TAP	12	288	3
TAP	13	0	5
TAP	13	96	6
TAP	13	192	0
TAP	13	192	7
TAP	13	288	1
TAP	14	0	0
TAP	14	96	7
TAP	14	192	0
TAP	14	192	7
TAP	14	288	1
TAP	14	288	6
HLD	15	0	2	192
HLD	15	0	3	192
STR	16	0	1
SCR	16	0	1	96	120	3
HLD	17	0	4	192
HLD	17	0	5	192
STR	18	0	6
SCL	18	0	6	96	120	4
TAP	19	0	3
TAP	19	0	4
TAP	19	192	2
TAP	20	0	3
TAP	20	0	4
TAP	20	192	5
TAP	21	0	3
TAP	21	0	4
TAP	21	96	2
TAP	21	192	1
TAP	21	288	0
STR	22	0	6
SI_	22	0	6	96	144	3
STR	22	0	7
SI_	22	0	7	96	144	2
TAP	23	0	4
TAP	23	96	2
TAP	23	192	0
TAP	23	192	1
TAP	23	288	7
TAP	23	336	7
TAP	24	48	6
TAP	24	144	5
TAP	24	144	7
TAP	25	0	3
TAP	25	96	5
TAP	25	192	6
TAP	25	192	7
TAP	25	288	0
TAP	25	336	0
TAP	26	48	1
TAP	26	144	0
TAP	26	144	2
TAP	27	0	1
TAP	27	96	7
TAP	27	192	4
TAP	27	192	6
TAP	27	288	5
STR	27	336	5
SCL	27	336	5	96	144	2
TAP	29	0	2
TAP	29	96	3
TAP	29	192	5
TAP	29	288	4
HLD	30	0	2	96
TAP	30	96	3
TAP	30	192	1
TAP	30	192	4
STR	31	0	2
SCR	31	0	2	96	144	5
TAP	32	0	6
TAP	32	0	7
TAP	32	96	0
TAP	32	192	0
TAP	32	192	1
TAP	32	288	7
STR	33	0	6
SUL	33	0	6	96	144	1
TAP	34	0	0
TAP	34	96	1
TAP	34	192	2
TAP	34	288	3
HLD	35	0	5	96
TAP	35	96	4
HLD	35	192	2	96
TAP	35	288	3
HLD	36	0	6	96
TAP	36	96	4
HLD	36	192	1	96
TAP	36	288	3
STR	37	0	6
SI_	37	0	6	96	96	1
TAP	37	288	0
TAP	37	288	7
BRK	39	0	1
BRK	39	0	7
TAP	39	96	0
TAP	39	96	6
TAP	39	192	1
TAP	39	288	2
TAP	39	336	2
TAP	40	48	4
TAP	40	48	5
TAP	40	96	4
TAP	40	96	5
TAP	40	192	6
TAP	40	288	5
TAP	40	288	7
TAP	41	0	2
TAP	41	96	0
TAP	41	96	1
TAP	41	192	5
TAP	41	288	6
TAP	41	288	7
TAP	42	0	4
TAP	42	0	6
TAP	42	96	2
TAP	42	96	4
TAP	42	192	4
TAP	42	192	6
HLD	43	0	6	96
HLD	43	0	7	96
TAP	43	192	0
TAP	43	192	5
TAP	43	288	4
TAP	43	336	4
TAP	44	48	2
TAP	44	48	3
TAP	44	96	2
TAP	44	96	3
TAP	44	192	1
TAP	44	288	0
TAP	44	288	2
TAP	45	0	5
TAP	45	96	6
TAP	45	96	7
TAP	45	192	2
TAP	45	288	0
TAP	45	288	1
TAP	46	0	1
TAP	46	0	3
TAP	46	96	4
TAP	46	96	5
TAP	46	192	1
TAP	46	192	3
TAP	46	288	1
HLD	47	0	1	288
TAP	47	96	0
TAP	47	192	7
TAP	47	288	6
HLD	48	0	6	288
TAP	48	96	7
TAP	48	192	0
TAP	48	288	1
TAP	49	0	2
TAP	49	96	1
TAP	49	96	3
TAP	49	192	5
TAP	49	288	4
TAP	49	288	6
HLD	50	0	5	96
TAP	50	96	2
TAP	50	192	0
TAP	50	192	1
TAP	50	288	2
TAP	50	288	7
HLD	51	0	1	288
TAP	51	96	0
TAP	51	192	7
TAP	51	288	6
HLD	52	0	6	288
TAP	52	96	7
TAP	52	192	0
TAP	52	288	1
HLD	53	0	2	96
TAP	53	96	5
TAP	53	192	4
TAP	53	192	5
HLD	53	288	3	192
HLD	54	0	7	96
BRK	54	192	1
BRK	54	192	5
STR	55	0	1
SCL	55	0	1	96	192	6
TAP	56	0	4
TAP	56	96	3
TAP	56	192	3
TAP	56	288	4
STR	57	0	6
SCR	57	0	6	96	192	1
STR	58	0	3
SF_	58	0	3	96	144	7
STR	59	0	5
SCL	59	0	5	96	192	2
TAP	60	0	0
TAP	60	96	7
TAP	60	192	7
TAP	60	288	0
STR	61	0	2
SCR	61	0	2	96	192	5
TAP	62	0	6
TAP	62	96	5
HLD	62	192	3	160
HLD	62	192	4	160
STR	64	0	5
SCL	64	0	5	96	144	2
TAP	65	0	1
TAP	65	96	0
TAP	65	192	7
TAP	65	288	0
STR	66	0	1
SUR	66	0	1	96	144	6
TAP	67	0	7
TAP	67	96	6
TAP	67	192	5
TAP	67	288	4
HLD	68	0	2	96
TAP	68	96	3
HLD	68	192	5	96
TAP	68	288	4
HLD	69	0	1	96
TAP	69	96	3
HLD	69	192	6	96
TAP	69	288	4
STR	70	0	1
SI_	70	0	1	96	96	6
HLD	70	288	0	288
HLD	70	288	7	288
STR	72	0	5
SI_	72	0	5	96	96	2
STR	72	0	6
SI_	72	0	6	96	96	1
TAP	72	288	0
TAP	72	288	7
TAP	74	0	3
TAP	74	0	4
TAP	74	96	4
TAP	74	192	5
TAP	74	288	5
STR	75	0	6
SCL	75	0	6	96	96	4
TAP	76	0	3
TAP	76	0	4
TAP	76	96	3
TAP	76	192	2
TAP	76	288	2
HLD	77	0	2	96
HLD	77	0	3	192
TAP	77	192	2
HLD	78	0	3	96
HLD	78	0	4	96
TAP	78	192	2
TAP	78	192	5
STR	79	0	1
SCR	79	0	1	96	96	3
TAP	80	0	3
TAP	80	0	4
TAP	80	96	4
TAP	80	192	5
TAP	80	288	5
TAP	81	0	4
TAP	81	96	5
TAP	81	192	3
TAP	81	192	6
TAP	82	0	2
TAP	82	0	3
TAP	82	96	3
TAP	82	192	4
TAP	82	288	4
TAP	83	0	4
TAP	83	0	5
TAP	83	96	4
TAP	83	192	3
TAP	83	288	3
TAP	84	0	2
TAP	84	96	2
TAP	84	96	3
TAP	84	192	5
STR	84	288	4
SCL	84	288	4	96	96	2
TAP	84	288	5
TAP	85	192	2
TAP	85	192	3
TAP	85	288	1
TAP	85	288	4
TAP	86	0	2
TAP	86	0	3
TAP	86	96	3
TAP	86	192	4
TAP	86	288	4
TAP	87	0	4
TAP	87	0	5
TAP	87	96	4
TAP	87	192	3
TAP	87	288	3
HLD	88	0	2	96
TAP	88	96	3
HLD	88	192	5	96
HLD	88	288	0	288
HLD	89	0	7	192
TAP	89	288	0
TAP	89	288	7
BRK	90	0	6
BRK	90	0	7
TAP	90	96	0
TAP	90	96	1
TAP	90	192	4
TAP	90	192	6
TAP	90	288	5
TAP	90	336	5
TAP	91	48	1
TAP	91	48	3
TAP	91	96	1
TAP	91	96	3
TAP	91	192	0
TAP	91	288	1
TAP	91	288	7
TAP	92	0	4
TAP	92	96	5
TAP	92	96	7
TAP	92	192	3
TAP	92	288	0
TAP	92	288	2
TAP	93	0	2
TAP	93	0	5
TAP	93	96	5
TAP	93	96	7
BRK	93	192	2
BRK	93	192	5
TAP	94	0	1
TAP	94	96	0
TAP	94	96	1
TAP	94	192	2
TAP	94	192	7
TAP	94	288	3
TAP	94	336	3
TAP	95	48	4
TAP	95	48	6
TAP	95	96	4
TAP	95	96	6
TAP	95	192	7
TAP	95	288	0
TAP	95	288	6
TAP	96	0	3
TAP	96	96	0
TAP	96	96	2
TAP	96	192	4
TAP	96	288	5
TAP	96	288	7
TAP	97	0	3
TAP	97	0	5
TAP	97	96	0
TAP	97	96	2
TAP	97	192	3
TAP	97	192	5
TAP	97	288	6
HLD	98	0	6	288
TAP	98	96	7
TAP	98	192	0
TAP	98	288	1
HLD	99	0	1	288
TAP	99	96	0
TAP	99	192	7
TAP	99	288	6
TAP	100	0	4
TAP	100	0	5
TAP	100	96	3
TAP	100	96	6
TAP	100	192	2
TAP	100	192	3
TAP	100	288	1
TAP	100	288	4
HLD	101	0	2	96
TAP	101	96	5
TAP	101	192	6
TAP	101	192	7
TAP	101	288	0
TAP	101	288	5
HLD	102	0	6	288
TAP	102	96	7
TAP	102	192	0
TAP	102	288	1
HLD	103	0	1	288
TAP	103	96	0
TAP	103	192	7
TAP	103	288	6
HLD	104	0	5	96
TAP	104	96	2
TAP	104	192	2
TAP	104	192	3
HLD	104	288	4	192
HLD	105	0	0	96
BRK	105	192	2
BRK	105	192	6
TAP	105	288	0
HLD	106	0	5	288
TAP	106	96	7
TAP	106	192	0
TAP	106	288	1
HLD	107	0	2	288
TAP	107	96	0
TAP	107	192	7
TAP	107	288	6
TAP	108	0	4
TAP	108	0	5
TAP	108	96	3
TAP	108	96	6
TAP	108	192	2
TAP	108	192	3
TAP	108	288	1
TAP	108	288	4
HLD	109	0	3	96
TAP	109	96	6
TAP	109	192	0
TAP	109	192	7
TAP	109	288	1
TAP	109	288	6
HLD	110	0	5	288
TAP	110	96	7
TAP	110	192	0
TAP	110	288	1
HLD	111	0	2	288
TAP	111	96	0
TAP	111	192	7
TAP	111	288	6
HLD	112	0	0	480
HLD	112	0	4	480
TAP	113	192	2
TAP	113	192	6

T_REC_TAP	365
T_REC_BRK	10
T_REC_XTP	0
T_REC_HLD	57
T_REC_XHO	0
T_REC_STR	21
T_REC_BST	0
T_REC_XST	0
T_REC_TTP	0
T_REC_THO	0
T_REC_SLD	21
T_REC_ALL	474
T_NUM_TAP	386
T_NUM_BRK	10
T_NUM_HLD	57
T_NUM_SLD	21
T_NUM_ALL	474
T_JUDGE_TAP	396
T_JUDGE_HLD	224
T_JUDGE_SLD	21
T_JUDGE_ALL	641
TTM_EACHPAIRS	111
TTM_SCR_TAP	193000
TTM_SCR_BRK	26000
TTM_SCR_HLD	57000
TTM_SCR_SLD	31500
TTM_SCR_ALL	307500
TTM_SCR_S	297350
TTM_SCR_SS	306500
TTM_RAT_ACV	10032

