VERSION	0.00.00	1.03.00
FES_MODE	0
BPM_DEF	200.000	200.000	200.000	200.000
MET_DEF	4	4
RESOLUTION	384
CLK_DEF	384
COMPATIBLE_CODE	MA2

BPM	0	0	200.000

STR	1	0	3
SCL	1	0	3	96	480	4
HLD	3	0	4	192
HLD	3	0	5	192
HLD	4	0	2	192
HLD	4	0	3	192
HLD	5	0	5	192
TAP	5	192	4
HLD	6	0	2	192
BRK	6	192	3
TAP	7	0	1
TAP	7	96	1
TAP	7	192	0
TAP	8	0	6
TAP	8	96	6
TAP	8	192	7
TAP	9	0	0
TAP	9	96	0
TAP	9	192	7
TAP	9	288	7
TAP	10	0	0
TAP	10	96	7
TAP	10	192	1
TAP	10	192	6
TAP	11	0	5
TAP	11	96	5
TAP	11	192	4
TAP	12	0	2
TAP	12	96	2
TAP	12	192	3
TAP	13	0	4
TAP	13	96	4
TAP	13	192	3
TAP	13	288	3
TAP	14	0	4
TAP	14	96	3
TAP	14	192	2
TAP	14	192	5
HLD	15	0	2	192
TAP	15	192	3
TAP	16	0	2
TAP	16	96	2
TAP	16	192	3
HLD	17	0	5	192
TAP	17	192	4
TAP	18	0	5
TAP	18	96	5
TAP	18	192	4
HLD	19	0	2	192
TAP	19	192	3
TAP	20	0	5
TAP	20	96	5
TAP	20	192	4
TAP	21	0	2
TAP	21	96	3
TAP	21	192	4
TAP	21	288	5
TAP	22	0	3
TAP	22	0	4
TAP	22	96	3
TAP	22	96	4
BRK	22	192	2
BRK	22	192	5
TAP	23	0	6
TAP	23	96	6
TAP	23	192	7
TAP	24	0	6
TAP	24	96	6
TAP	24	192	6
TAP	24	192	7
TAP	25	0	1
TAP	25	96	1
TAP	25	192	0
TAP	26	0	1
TAP	26	96	1
TAP	26	192	0
TAP	26	192	1
TAP	27	0	6
TAP	27	96	6
TAP	27	192	6
TAP	27	192	7
TAP	28	0	1
TAP	28	96	1
TAP	28	192	0
TAP	28	192	1
TAP	29	0	6
TAP	29	96	7
TAP	29	192	0
TAP	29	288	1
TAP	30	0	0
TAP	30	0	7
TAP	30	96	0
TAP	30	96	7
BRK	30	192	1
BRK	30	192	6
HLD	31	0	5	192
TAP	31	192	4
TAP	32	0	5
TAP	32	96	4
TAP	32	192	4
TAP	32	192	5
HLD	33	0	2	192
TAP	33	192	3
TAP	34	0	2
TAP	34	96	3
TAP	34	192	2
TAP	34	192	3
TAP	35	0	1
TAP	35	96	1
TAP	35	192	0
TAP	35	288	0
TAP	36	0	7
TAP	36	96	7
TAP	36	192	6
TAP	36	288	6
STR	37	0	0
SI_	37	0	0	96	192	3
STR	37	0	7
SI_	37	0	7	96	192	4
BRK	38	0	2
BRK	38	0	5
TAP	39	0	6
TAP	39	96	6
TAP	39	192	6
TAP	39	192	7
TAP	39	288	6
TAP	39	288	7
TAP	40	0	0
TAP	40	0	1
TAP	40	96	0
TAP	40	96	1
TAP	40	192	2
TAP	40	192	7
TAP	41	0	1
TAP	41	96	1
TAP	41	192	0
TAP	41	192	1
TAP	41	288	0
TAP	41	288	1
TAP	42	0	6
TAP	42	0	7
TAP	42	96	6
TAP	42	96	7
BRK	42	192	0
BRK	42	192	5
TAP	43	0	2
TAP	43	96	2
TAP	43	192	2
TAP	43	192	3
TAP	43	288	2
TAP	43	288	3
TAP	44	0	4
TAP	44	0	5
TAP	44	96	4
TAP	44	96	5
TAP	44	192	3
TAP	44	192	6
TAP	45	0	5
TAP	45	96	5
TAP	45	192	4
TAP	45	192	5
TAP	45	288	4
TAP	45	288	5
TAP	46	0	2
TAP	46	0	3
TAP	46	96	2
TAP	46	96	3
BRK	46	192	1
BRK	46	192	4
STR	47	0	4
SI_	47	0	4	96	192	1
STR	47	0	5
SI_	47	0	5	96	192	0
STR	48	0	2
SI_	48	0	2	96	192	7
STR	48	0	3
SI_	48	0	3	96	192	6
TAP	49	0	0
TAP	49	96	0
TAP	49	192	7
TAP	49	288	7
TAP	50	0	0
TAP	50	96	7
BRK	50	192	1
BRK	50	192	6
STR	51	0	0
SI_	51	0	0	96	192	5
STR	51	0	1
SI_	51	0	1	96	192	4
STR	52	0	6
SI_	52	0	6	96	192	3
STR	52	0	7
SI_	52	0	7	96	192	2
TAP	53	0	4
TAP	53	96	4
TAP	53	192	3
TAP	53	288	3
TAP	54	0	4
TAP	54	96	3
BRK	54	192	2
BRK	54	192	5
STR	55	0	4
SI_	55	0	4	96	192	0
HLD	56	0	1	192
TAP	56	192	0
STR	57	0	7
SI_	57	0	7	96	192	3
HLD	58	0	2	192
BRK	58	192	3
STR	59	0	3
SI_	59	0	3	96	192	7
HLD	60	0	6	192
TAP	60	192	7
STR	61	0	0
SI_	61	0	0	96	192	4
HLD	62	0	5	192
BRK	62	192	4
HLD	63	0	3	192
HLD	63	0	4	192
HLD	64	0	5	192
TAP	64	192	4
TAP	65	0	5
TAP	65	96	4
TAP	65	192	4
TAP	65	192	5
HLD	66	0	2	192
TAP	66	192	3
TAP	67	0	2
TAP	67	96	3
TAP	67	192	2
TAP	67	192	3
TAP	68	0	1
TAP	68	96	1
TAP	68	192	0
TAP	68	288	0
TAP	69	0	7
TAP	69	96	7
TAP	69	192	6
TAP	69	288	6
STR	70	0	0
SI_	70	0	0	96	192	3
STR	70	0	7
SI_	70	0	7	96	192	4
HLD	71	0	2	192
HLD	71	0	5	192
STR	72	0	3
SI_	72	0	3	96	192	0
STR	72	0	4
SI_	72	0	4	96	192	7
BRK	73	0	1
BRK	73	0	6
HLD	74	0	5	192
HLD	74	192	4	192
HLD	75	0	3	192
TAP	75	192	2
HLD	76	0	2	192
TAP	76	192	3
TAP	77	0	2
TAP	77	96	2
TAP	77	192	2
TAP	77	192	3
HLD	78	0	1	192
HLD	78	192	0	192
HLD	79	0	7	192
TAP	79	192	6
HLD	80	0	6	192
TAP	80	192	7
TAP	81	0	6
TAP	81	96	6
TAP	81	192	6
TAP	81	192	7
STR	82	0	5
SI_	82	0	5	96	192	2
STR	83	0	1
SI_	83	0	1	96	192	6
TAP	84	0	5
TAP	84	96	5
TAP	84	192	4
TAP	85	0	2
TAP	85	96	2
TAP	85	192	3
STR	86	0	2
SI_	86	0	2	96	192	5
STR	87	0	6
SI_	87	0	6	96	192	1
TAP	88	0	2
TAP	88	96	3
TAP	88	192	4
TAP	88	288	5
TAP	89	0	3
TAP	89	0	4
TAP	89	96	3
TAP	89	96	4
BRK	89	192	2
BRK	89	192	5
TAP	90	0	1
TAP	90	96	0
TAP	90	96	1
TAP	90	192	1
TAP	90	288	0
TAP	90	288	1
TAP	91	0	6
TAP	91	0	7
TAP	91	96	6
TAP	91	96	7
TAP	91	192	0
TAP	91	192	1
TAP	92	0	6
TAP	92	96	6
TAP	92	96	7
TAP	92	192	6
TAP	92	288	6
TAP	92	288	7
TAP	93	0	0
TAP	93	0	1
TAP	93	96	0
TAP	93	96	1
BRK	93	192	6
BRK	93	192	7
TAP	94	0	5
TAP	94	96	4
TAP	94	96	5
TAP	94	192	5
TAP	94	288	4
TAP	94	288	5
TAP	95	0	2
TAP	95	0	3
TAP	95	96	2
TAP	95	96	3
TAP	95	192	4
TAP	95	192	5
TAP	96	0	2
TAP	96	96	2
TAP	96	96	3
TAP	96	192	2
TAP	96	288	2
TAP	96	288	3
TAP	97	0	4
TAP	97	0	5
TAP	97	96	4
TAP	97	96	5
BRK	97	192	2
BRK	97	192	3
STR	98	0	2
SI_	98	0	2	96	192	7
STR	98	0	3
SI_	98	0	3	96	192	6
STR	99	0	4
SI_	99	0	4	96	192	1
STR	99	0	5
SI_	99	0	5	96	192	0
TAP	100	0	6
TAP	100	96	7
TAP	100	192	1
TAP	100	288	0
TAP	101	0	7
TAP	101	96	0
BRK	101	192	1
BRK	101	192	6
STR	102	0	6
SI_	102	0	6	96	192	3
STR	102	0	7
SI_	102	0	7	96	192	2
STR	103	0	0
SI_	103	0	0	96	192	5
STR	103	0	1
SI_	103	0	1	96	192	4
TAP	104	0	2
TAP	104	96	3
TAP	104	192	5
TAP	104	288	4
TAP	105	0	3
TAP	105	96	4
BRK	105	192	2
BRK	105	192	5
STR	106	0	3
SI_	106	0	3	96	192	0
STR	106	0	4
SI_	106	0	4	96	192	7
STR	107	0	0
SI_	107	0	0	96	192	3
STR	107	0	7
SI_	107	0	7	96	192	4
TAP	108	0	5
TAP	108	96	4
TAP	108	96	5
TAP	108	192	2
TAP	108	288	2
TAP	108	288	3
TAP	109	0	3
TAP	109	0	4
TAP	109	96	2
TAP	109	96	5
BRK	109	192	1
BRK	109	192	6
STR	110	0	0
SI_	110	0	0	96	192	3
STR	110	0	7
SI_	110	0	7	96	192	4
STR	111	0	3
SI_	111	0	3	96	192	0
STR	111	0	4
SI_	111	0	4	96	192	7
HLD	112	0	1	576
HLD	112	0	6	576

T_REC_TAP	265
T_REC_BRK	31
T_REC_XTP	0
T_REC_HLD	31
T_REC_XHO	0
T_REC_STR	39
T_REC_BST	0
T_REC_XST	0
T_REC_TTP	0
T_REC_THO	0
T_REC_SLD	39
T_REC_ALL	405
T_NUM_TAP	304
T_NUM_BRK	31
T_NUM_HLD	31
T_NUM_SLD	39
T_NUM_ALL	405
T_JUDGE_TAP	335
T_JUDGE_HLD	140
T_JUDGE_SLD	39
T_JUDGE_ALL	514
TTM_EACHPAIRS	92
TTM_SCR_TAP	152000
TTM_SCR_BRK	80600
TTM_SCR_HLD	31000
TTM_SCR_SLD	58500
TTM_SCR_ALL	322100
TTM_SCR_S	309450
TTM_SCR_SS	319000
TTM_RAT_ACV	10097

