VERSION	0.00.00	1.03.00
FES_MODE	0
BPM_DEF	200.000	200.000	200.000	200.000
MET_DEF	4	4
RESOLUTION	384
CLK_DEF	384
COMPATIBLE_CODE	MA2

BPM	0	0	200.000

TAP	7	0	0
TAP	8	0	0
TAP	9	0	1
TAP	10	0	1
TAP	11	0	2
TAP	12	0	2
TAP	13	0	3
TAP	14	0	3
TAP	15	0	4
TAP	15	192	4
TAP	16	0	4
TAP	17	0	5
TAP	17	192	5
TAP	18	0	5
TAP	19	0	6
TAP	19	192	6
TAP	20	0	6
TAP	21	0	7
TAP	21	192	7
TAP	22	0	0
BRK	22	192	0
TAP	23	0	7
TAP	23	192	7
TAP	24	0	0
TAP	24	0	7
TAP	25	0	6
TAP	25	192	6
TAP	26	0	6
TAP	26	0	7
TAP	27	0	5
TAP	27	192	5
TAP	28	0	4
TAP	28	0	5
TAP	29	0	4
TAP	29	192	4
TAP	30	0	3
TAP	30	0	4
TAP	30	192	3
TAP	30	192	4
HLD	31	0	3	384
HLD	33	0	2	384
TAP	35	0	1
TAP	35	192	1
TAP	36	0	0
TAP	36	192	0
STR	37	0	7
SI_	37	0	7	96	288	3
TAP	39	0	2
TAP	39	96	2
TAP	39	192	2
TAP	40	0	3
TAP	40	96	3
TAP	40	192	3
TAP	41	0	4
TAP	41	96	4
TAP	41	192	4
TAP	42	0	5
TAP	42	96	5
TAP	42	192	4
TAP	42	192	5
TAP	43	0	6
TAP	43	96	6
TAP	43	192	6
TAP	44	0	7
TAP	44	96	7
TAP	44	192	7
TAP	45	0	0
TAP	45	96	0
TAP	45	192	0
TAP	46	0	7
TAP	46	96	0
TAP	46	192	7
STR	47	0	0
SI_	47	0	0	96	288	3
TAP	49	0	5
TAP	49	96	5
TAP	49	192	5
TAP	50	0	6
TAP	50	96	6
TAP	50	192	6
STR	51	0	7
SI_	51	0	7	96	288	4
TAP	53	0	2
TAP	53	96	2
TAP	53	192	2
TAP	54	0	1
TAP	54	96	1
BRK	54	192	1
HLD	55	0	0	384
HLD	57	0	1	384
HLD	59	0	2	384
HLD	61	0	3	384
TAP	64	0	4
TAP	64	192	4
TAP	65	0	4
TAP	65	96	4
TAP	65	192	4
TAP	66	0	5
TAP	66	192	5
TAP	67	0	5
TAP	67	96	5
TAP	67	192	5
TAP	68	0	6
TAP	68	192	6
TAP	69	0	7
TAP	69	192	7
STR	70	0	0
SI_	70	0	0	96	288	4
STR	72	0	7
SI_	72	0	7	96	288	3
TAP	74	0	0
TAP	74	192	0
TAP	75	0	1
TAP	75	192	1
TAP	76	0	2
TAP	76	192	2
TAP	77	0	3
TAP	77	96	4
TAP	77	192	3
TAP	78	0	4
TAP	78	192	4
TAP	79	0	5
TAP	79	192	5
TAP	80	0	6
TAP	80	192	6
TAP	81	0	7
TAP	81	96	0
TAP	81	192	7
HLD	82	0	0	384
TAP	84	0	7
TAP	84	96	7
TAP	84	192	7
TAP	85	0	6
TAP	85	96	6
TAP	85	192	6
HLD	86	0	5	384
TAP	88	0	4
TAP	88	96	4
TAP	88	192	4
TAP	89	0	3
TAP	89	0	4
TAP	89	96	3
TAP	89	96	4
BRK	89	192	3
BRK	89	192	4
TAP	90	0	3
TAP	90	96	3
TAP	90	192	3
TAP	91	0	2
TAP	91	96	2
TAP	91	192	2
TAP	92	0	1
TAP	92	96	1
TAP	92	192	1
TAP	93	0	0
TAP	93	96	7
TAP	93	192	0
TAP	94	0	7
TAP	94	96	7
TAP	94	192	7
TAP	95	0	6
TAP	95	96	6
TAP	95	192	6
TAP	96	0	5
TAP	96	96	5
TAP	96	192	5
TAP	97	0	4
TAP	97	96	3
TAP	97	192	4
HLD	98	0	5	192
HLD	99	0	5	192
TAP	100	0	6
TAP	100	96	6
TAP	100	192	6
TAP	101	0	7
TAP	101	96	7
TAP	101	192	0
TAP	101	192	7
HLD	102	0	0	192
HLD	103	0	0	192
TAP	104	0	1
TAP	104	96	1
TAP	104	192	1
TAP	105	0	2
TAP	105	96	2
TAP	105	192	2
TAP	105	192	3
HLD	106	0	3	192
HLD	107	0	3	192
TAP	108	0	4
TAP	108	96	4
TAP	108	192	4
TAP	109	0	5
TAP	109	96	5
TAP	109	192	4
TAP	109	192	5
HLD	110	0	6	192
HLD	111	0	6	192
BRK	112	0	0
BRK	112	0	7

T_REC_TAP	168
T_REC_BRK	6
T_REC_XTP	0
T_REC_HLD	16
T_REC_XHO	0
T_REC_STR	5
T_REC_BST	0
T_REC_XST	0
T_REC_TTP	0
T_REC_THO	0
T_REC_SLD	5
T_REC_ALL	200
T_NUM_TAP	173
T_NUM_BRK	6
T_NUM_HLD	16
T_NUM_SLD	5
T_NUM_ALL	200
T_JUDGE_TAP	179
T_JUDGE_HLD	96
T_JUDGE_SLD	5
T_JUDGE_ALL	280
TTM_EACHPAIRS	13
TTM_SCR_TAP	86500
TTM_SCR_BRK	15600
TTM_SCR_HLD	16000
TTM_SCR_SLD	7500
TTM_SCR_ALL	125600
TTM_SCR_S	121250
TTM_SCR_SS	125000
TTM_RAT_ACV	10048

