VERSION	0.00.00	1.03.00
FES_MODE	0
BPM_DEF	162.000	162.000	162.000	162.000
MET_DEF	4	4
RESOLUTION	384
CLK_DEF	384
COMPATIBLE_CODE	MA2

BPM	0	0	162.000

BRK	1	288	1
BRK	1	288	6
STR	2	0	5
SI_	2	0	5	96	48	0
STR	2	96	3
SI_	2	96	3	96	48	6
STR	2	192	7
SI_	2	192	7	96	48	4
STR	2	288	3
SI_	2	288	3	96	48	0
STR	3	0	6
SI_	3	0	6	96	48	1
STR	3	96	2
SCL	3	96	2	96	96	5
TAP	3	192	4
TAP	3	288	7
STR	4	0	2
SI_	4	0	2	96	48	7
STR	4	96	4
SI_	4	96	4	96	48	1
STR	4	192	0
SI_	4	192	0	96	48	3
STR	4	288	4
SI_	4	288	4	96	48	7
STR	5	0	1
SI_	5	0	1	96	48	6
STR	5	96	5
SCR	5	96	5	96	96	2
TAP	5	192	3
TAP	5	288	0
STR	6	0	5
SCR	6	0	5	96	48	0
STR	6	96	3
SI_	6	96	3	96	48	6
STR	6	192	7
SI_	6	192	7	96	48	4
STR	6	288	3
SCL	6	288	3	96	48	0
STR	7	0	5
SI_	7	0	5	96	48	1
STR	7	96	2
SCL	7	96	2	96	96	5
TAP	7	192	4
TAP	7	288	7
STR	8	0	2
SCL	8	0	2	96	48	7
STR	8	96	4
SI_	8	96	4	96	48	1
STR	8	192	0
SI_	8	192	0	96	48	3
STR	8	288	4
SCR	8	288	4	96	48	7
STR	9	0	2
SI_	9	0	2	96	48	6
TAP	9	96	5
TAP	9	192	0
TAP	9	240	0
TAP	9	288	1
TAP	9	288	6
TAP	9	336	2
TAP	9	336	5
STR	10	0	3
SI_	10	0	3	96	48	0
STR	10	0	4
SI_	10	0	4	96	48	7
TAP	10	192	0
TAP	10	192	7
TAP	10	240	0
TAP	10	240	7
TAP	10	288	1
TAP	10	288	6
TAP	10	336	2
TAP	10	336	5
TAP	11	0	3
TAP	11	48	4
TAP	11	96	3
TAP	11	144	2
TAP	11	192	2
TAP	11	240	3
TAP	11	288	4
TAP	11	336	5
TAP	12	0	4
TAP	12	0	6
TAP	12	96	1
TAP	12	96	3
STR	12	192	6
SI_	12	192	6	96	48	3
STR	12	192	7
SI_	12	192	7	96	48	2
TAP	13	48	1
TAP	13	96	0
TAP	13	144	7
STR	13	192	2
SI_	13	192	2	96	48	5
STR	13	192	6
SI_	13	192	6	96	48	1
STR	14	0	6
SCL	14	0	6	96	48	3
STR	14	0	7
SCR	14	0	7	96	48	2
STR	14	192	0
SCL	14	192	0	96	48	5
STR	14	192	1
SCR	14	192	1	96	48	4
TAP	15	0	6
TAP	15	48	7
TAP	15	96	0
TAP	15	144	1
BRK	15	192	1
BRK	15	240	0
BRK	15	288	7
BRK	15	336	6
TAP	16	0	6
TAP	16	0	7
TAP	16	48	5
TAP	16	96	3
TAP	16	96	4
TAP	16	192	0
TAP	16	192	1
TAP	16	240	2
TAP	16	288	3
TAP	16	288	4
TAP	17	0	6
TAP	17	0	7
TAP	17	48	5
TAP	17	96	3
TAP	17	96	4
TAP	17	144	2
TAP	17	192	0
TAP	17	192	1
TAP	17	240	2
TAP	17	288	3
TAP	17	288	4
TAP	17	336	5
TAP	18	0	6
TAP	18	0	7
TAP	18	96	0
TAP	18	96	1
TAP	18	192	4
TAP	18	192	5
STR	18	288	2
SUR	18	288	2	96	144	4
TAP	18	288	3
TAP	19	192	7
BRK	19	288	0
TAP	20	0	1
TAP	20	0	4
TAP	20	96	3
TAP	20	96	6
TAP	20	192	4
TAP	20	240	3
TAP	20	288	2
TAP	20	288	5
TAP	20	336	6
TAP	21	0	7
TAP	21	48	6
TAP	21	96	5
TAP	21	144	4
TAP	21	192	4
TAP	21	240	5
TAP	21	288	6
TAP	21	336	7
STR	22	0	0
SCR	22	0	0	96	96	4
TAP	22	96	4
TAP	22	192	7
TAP	22	240	7
STR	22	288	6
SI_	22	288	6	96	96	4
STR	23	0	4
SV_	23	0	4	96	96	3
STR	23	96	3
SI_	23	96	3	96	96	1
TAP	23	192	0
TAP	23	288	0
HLD	24	0	2	48
HLD	24	0	7	48
HLD	24	96	0	48
HLD	24	96	5	48
HLD	24	192	3	48
HLD	24	192	6	48
HLD	24	288	1	48
HLD	24	288	4	48
TAP	25	0	0
TAP	25	48	1
TAP	25	96	2
TAP	25	144	3
TAP	25	192	3
TAP	25	240	2
TAP	25	288	1
TAP	25	336	0
STR	26	0	7
SI_	26	0	7	96	48	4
TAP	26	48	7
STR	26	96	3
SI_	26	96	3	96	48	0
TAP	26	144	3
STR	26	192	5
SI_	26	192	5	96	48	2
TAP	26	240	5
STR	26	288	1
SI_	26	288	1	96	48	6
TAP	26	336	1
TAP	27	0	4
TAP	27	48	4
TAP	27	96	3
TAP	27	96	4
TAP	27	144	3
TAP	27	144	4
TAP	27	192	2
TAP	27	192	5
TAP	27	240	1
TAP	27	240	6
TAP	27	288	0
TAP	27	288	7
TAP	28	0	4
TAP	28	48	5
TAP	28	96	3
TAP	28	144	2
TAP	28	192	4
TAP	28	240	6
TAP	28	288	3
TAP	28	336	1
TAP	29	0	4
TAP	29	48	5
TAP	29	96	3
TAP	29	144	2
STR	29	192	0
SI_	29	192	0	96	48	4
STR	29	192	6
SI_	29	192	6	96	48	3
TAP	30	0	3
TAP	30	48	2
TAP	30	96	4
TAP	30	144	5
TAP	30	192	3
TAP	30	240	1
TAP	30	288	4
TAP	30	336	6
TAP	31	0	3
TAP	31	48	2
TAP	31	96	4
TAP	31	144	5
STR	31	192	1
SI_	31	192	1	96	48	5
STR	31	192	7
SI_	31	192	7	96	48	2
TAP	32	0	4
TAP	32	48	5
TAP	32	96	3
TAP	32	144	2
TAP	32	192	4
TAP	32	240	6
TAP	32	288	3
TAP	32	336	1
TAP	33	0	4
TAP	33	48	5
TAP	33	96	3
TAP	33	144	2
STR	33	192	1
SI_	33	192	1	96	48	7
STR	33	192	5
SCL	33	192	5	96	48	3
TAP	34	0	3
TAP	34	48	1
TAP	34	96	7
TAP	34	144	5
TAP	34	192	0
TAP	34	240	1
TAP	34	288	5
TAP	34	336	6
TAP	35	0	4
TAP	35	48	2
TAP	35	96	4
TAP	35	144	7
BRK	35	192	0
BRK	35	216	7
BRK	35	240	0
BRK	35	264	7
BRK	35	288	0
STR	36	0	0
SI_	36	0	0	96	48	6
STR	36	0	1
SI_	36	0	1	96	48	5
STR	36	192	2
SI_	36	192	2	96	48	6
STR	36	192	3
SI_	36	192	3	96	48	5
STR	37	0	1
SI_	37	0	1	96	48	6
STR	37	96	2
SI_	37	96	2	96	48	5
STR	37	192	1
SI_	37	192	1	96	48	6
TAP	37	288	3
HLD	38	0	5	96
STR	38	96	2
SXR	38	96	2	96	144	5
TAP	38	192	6
TAP	38	288	6
TAP	39	0	3
TAP	39	0	7
STR	39	96	5
SUR	39	96	5	96	96	2
STR	39	96	6
SCR	39	96	6	96	96	1
TAP	40	0	2
TAP	40	0	3
TAP	40	96	4
TAP	40	96	5
TAP	40	192	6
TAP	40	192	7
TAP	40	288	0
TAP	40	288	1
TAP	41	0	2
STR	41	0	3
SI_	41	0	3	96	48	7
STR	41	96	2
SI_	41	96	2	96	48	0
STR	41	192	4
SI_	41	192	4	96	48	6
BRK	41	288	7
TAP	42	0	7
TAP	42	48	6
TAP	42	96	5
TAP	42	144	4
TAP	42	192	3
STR	42	240	2
SCR	42	240	2	96	144	7
TAP	42	288	1
HLD	42	336	0	240
TAP	43	192	7
STR	43	288	0
SI_	43	288	0	96	48	4
STR	43	288	7
SI_	43	288	7	96	48	5
STR	44	0	0
SI_	44	0	0	96	48	2
STR	44	0	7
SI_	44	0	7	96	48	3
STR	44	96	0
SI_	44	96	0	96	48	4
STR	44	96	7
SI_	44	96	7	96	48	5
STR	44	192	0
SI_	44	192	0	96	48	2
STR	44	192	7
SI_	44	192	7	96	48	3
TAP	45	0	3
TAP	45	0	4
TAP	45	48	2
STR	45	96	1
SCL	45	96	1	96	48	6
TAP	45	192	4
TAP	45	240	4
TAP	45	288	0
TAP	45	288	7
TAP	46	0	1
TAP	46	0	4
TAP	46	48	2
TAP	46	96	3
TAP	46	96	6
TAP	46	144	5
TAP	46	192	1
TAP	46	192	4
TAP	46	240	2
TAP	46	288	3
STR	46	288	6
SXL	46	288	6	96	144	3
TAP	47	0	2
TAP	47	48	2
TAP	47	96	2
TAP	47	192	0
BRK	47	240	7
BST	47	288	7
SI_	47	288	7	96	48	4
TAP	48	0	0
STR	48	96	3
SI_	48	96	3	96	48	0
STR	48	96	7
SUL	48	96	7	96	48	2
STR	48	288	0
SCR	48	288	0	96	96	4
STR	49	0	4
SCR	49	0	4	96	96	0
TAP	49	96	0
TAP	49	192	4
TAP	49	288	3
TAP	49	288	5
TAP	49	336	4
TAP	50	0	3
TAP	50	48	2
TAP	50	96	1
TAP	50	144	0
TAP	50	192	7
TAP	50	240	6
TAP	50	288	5
TAP	50	336	4
TAP	51	0	3
TAP	51	0	4
TAP	51	48	2
TAP	51	48	3
STR	51	96	1
SI_	51	96	1	96	48	7
STR	51	96	2
SI_	51	96	2	96	48	4
BRK	51	288	0
BRK	51	288	3
STR	52	0	1
SCR	52	0	1	96	48	4
STR	52	0	5
SCR	52	0	5	96	48	0
STR	52	192	3
SCL	52	192	3	96	48	0
STR	52	192	7
SCL	52	192	7	96	48	4
TAP	53	0	7
STR	53	48	0
SI_	53	48	0	96	48	3
STR	53	96	7
SI_	53	96	7	96	48	4
TAP	53	240	3
STR	53	288	4
SCR	53	288	4	96	48	7
STR	54	0	0
SCR	54	0	0	96	48	3
STR	54	96	4
SI_	54	96	4	96	48	7
SUR	54	96	4	96	48	1
TAP	54	288	1
TAP	54	288	7
STR	55	0	0
SI_	55	0	0	96	48	4
STR	55	0	7
SI_	55	0	7	96	48	3
TAP	55	192	1
TAP	55	192	6
BRK	55	240	7
BRK	55	288	0
STR	56	0	4
SI_	56	0	4	96	48	1
STR	56	0	5
SI_	56	0	5	96	48	0
STR	56	192	2
SI_	56	192	2	96	48	7
STR	56	192	3
SI_	56	192	3	96	48	6
TAP	57	0	6
TAP	57	0	7
TAP	57	48	6
TAP	57	48	7
TAP	57	96	0
TAP	57	96	5
TAP	57	144	1
TAP	57	144	4
TAP	57	192	2
TAP	57	192	3
STR	57	288	2
SI_	57	288	2	96	48	5
TAP	57	336	2
STR	58	0	6
SI_	58	0	6	96	48	1
TAP	58	48	6
STR	58	96	3
SI_	58	96	3	96	48	0
TAP	58	144	3
TAP	58	192	5
TAP	58	240	5
TAP	58	288	3
STR	58	288	4
SCR	58	288	4	96	48	7
STR	59	0	0
SCR	59	0	0	96	48	3
STR	59	96	7
SF_	59	96	7	96	48	3
BRK	60	0	0
HLD	62	0	2	768
TAP	63	0	3
TAP	63	192	4
HLD	64	0	5	768
TAP	65	0	4
TAP	65	192	3
TAP	66	0	2
TAP	66	96	2
TAP	66	192	4
TAP	66	288	4
TAP	67	0	3
TAP	67	96	3
TAP	67	192	5
TAP	67	288	5
TAP	68	0	3
TAP	68	48	3
TAP	68	96	4
TAP	68	144	4
TAP	68	192	2
TAP	68	240	2
TAP	68	288	5
TAP	68	336	5
TAP	69	0	1
TAP	69	0	6
TAP	69	48	1
TAP	69	48	6
TAP	69	96	0
TAP	69	96	7
TAP	69	144	0
TAP	69	144	7
TAP	69	192	0
TAP	69	192	7
TAP	69	240	0
TAP	69	240	7
STR	69	288	0
SI_	69	288	0	96	48	2
STR	69	288	7
SI_	69	288	7	96	48	3
STR	70	0	0
SI_	70	0	0	96	48	4
STR	70	0	7
SI_	70	0	7	96	48	5
STR	70	96	0
SI_	70	96	0	96	48	2
STR	70	96	7
SI_	70	96	7	96	48	3
STR	70	192	0
SI_	70	192	0	96	48	4
STR	70	192	7
SI_	70	192	7	96	48	5
TAP	71	0	3
TAP	71	0	4
TAP	71	48	5
STR	71	96	6
SCR	71	96	6	96	48	1
TAP	71	192	3
TAP	71	240	3
TAP	71	288	0
TAP	71	288	7
TAP	72	0	3
TAP	72	0	6
TAP	72	48	5
TAP	72	96	1
TAP	72	96	4
TAP	72	144	2
TAP	72	192	3
TAP	72	192	6
TAP	72	240	5
STR	72	288	1
SXR	72	288	1	96	144	4
TAP	72	288	4
TAP	73	0	5
TAP	73	48	5
TAP	73	96	5
TAP	73	192	7
BRK	73	240	0
BST	73	288	7
SI_	73	288	7	96	48	4
TAP	74	0	0
STR	74	96	0
SI_	74	96	0	96	48	3
STR	74	96	7
SUL	74	96	7	96	48	2
STR	74	288	7
SCL	74	288	7	96	96	3
STR	75	0	3
SCL	75	0	3	96	96	7
TAP	75	96	7
TAP	75	192	3
TAP	75	288	4
TAP	75	336	4
TAP	76	0	3
TAP	76	48	2
TAP	76	96	1
TAP	76	144	0
TAP	76	192	7
TAP	76	240	6
TAP	76	288	2
TAP	76	288	5
TAP	77	0	0
TAP	77	12	1
TAP	77	24	2
TAP	77	36	3
TAP	77	48	4
TAP	77	60	5
TAP	77	72	6
TAP	77	84	7
TAP	77	96	0
TAP	77	108	1
TAP	77	120	2
TAP	77	132	3
TAP	77	144	4
TAP	77	156	5
TAP	77	168	6
TAP	77	180	7
TAP	77	192	0
TAP	77	204	1
TAP	77	216	2
TAP	77	228	3
TAP	77	240	4
TAP	77	252	5
TAP	77	264	6
TAP	77	276	7
BRK	77	288	0
STR	78	0	1
SI_	78	0	1	96	48	4
STR	78	0	5
SI_	78	0	5	96	48	0
STR	78	192	2
SI_	78	192	2	96	48	7
STR	78	192	6
SI_	78	192	6	96	48	3
TAP	79	0	0
TAP	79	48	1
STR	79	96	2
SXR	79	96	2	96	96	4
TAP	79	192	7
STR	79	288	7
SCL	79	288	7	96	96	3
STR	80	0	3
SCL	80	0	3	96	96	7
STR	80	96	7
SCL	80	96	7	96	96	3
TAP	80	192	3
TAP	80	288	7
STR	81	0	3
SCL	81	0	3	96	48	0
STR	81	0	4
SCR	81	0	4	96	48	7
TAP	81	192	1
TAP	81	192	6
BRK	81	240	0
BRK	81	288	7
STR	82	0	2
SI_	82	0	2	96	48	7
STR	82	0	3
SI_	82	0	3	96	48	6
STR	82	192	4
SI_	82	192	4	96	48	1
STR	82	192	5
SI_	82	192	5	96	48	0
TAP	83	0	0
TAP	83	0	1
TAP	83	48	0
TAP	83	48	1
TAP	83	96	2
TAP	83	96	7
TAP	83	144	3
TAP	83	144	6
TAP	83	192	4
TAP	83	192	5
STR	83	288	5
SI_	83	288	5	96	48	2
TAP	83	336	5
STR	84	0	1
SI_	84	0	1	96	48	6
TAP	84	48	1
STR	84	96	4
SI_	84	96	4	96	48	7
TAP	84	144	4
TAP	84	192	2
TAP	84	240	2
STR	84	288	3
SCL	84	288	3	96	48	0
TAP	84	288	4
STR	85	0	7
SCL	85	0	7	96	48	4
STR	85	96	0
SF_	85	96	0	96	48	4
STR	86	0	2
SI_	86	0	2	96	48	7
TAP	86	48	2
STR	86	96	4
SI_	86	96	4	96	48	1
TAP	86	144	4
STR	86	192	0
SI_	86	192	0	96	48	3
TAP	86	240	0
STR	86	288	4
SI_	86	288	4	96	48	7
TAP	86	336	4
STR	87	0	1
SI_	87	0	1	96	48	6
TAP	87	48	1
STR	87	96	5
SCR	87	96	5	96	96	2
TAP	87	144	5
TAP	87	192	3
TAP	87	288	0
STR	88	0	5
SI_	88	0	5	96	48	0
TAP	88	48	5
STR	88	96	3
SI_	88	96	3	96	48	6
TAP	88	144	3
STR	88	192	7
SI_	88	192	7	96	48	4
TAP	88	240	7
STR	88	288	3
SI_	88	288	3	96	48	0
TAP	88	336	3
STR	89	0	6
SI_	89	0	6	96	48	1
TAP	89	48	6
STR	89	96	2
SCL	89	96	2	96	96	5
TAP	89	144	2
TAP	89	192	4
TAP	89	288	7
STR	90	0	2
SCL	90	0	2	96	48	7
TAP	90	48	2
STR	90	96	4
SI_	90	96	4	96	48	1
TAP	90	144	4
STR	90	192	0
SI_	90	192	0	96	48	3
TAP	90	240	0
STR	90	288	4
SCR	90	288	4	96	48	7
TAP	90	336	4
STR	91	0	2
SI_	91	0	2	96	48	6
TAP	91	48	2
STR	91	96	5
SCR	91	96	5	96	96	2
TAP	91	144	5
TAP	91	192	3
TAP	91	288	0
STR	92	0	5
SCR	92	0	5	96	48	0
TAP	92	48	5
STR	92	96	3
SI_	92	96	3	96	48	6
TAP	92	144	3
STR	92	192	7
SI_	92	192	7	96	48	4
TAP	92	240	7
STR	92	288	3
SCL	92	288	3	96	48	0
TAP	92	336	3
STR	93	0	5
SI_	93	0	5	96	48	1
TAP	93	48	5
TAP	93	96	2
TAP	93	192	3
TAP	93	216	4
TAP	93	240	3
TAP	93	264	4
TAP	93	288	2
TAP	93	312	5
TAP	93	336	2
TAP	93	360	5
STR	94	0	3
SV_	94	0	3	96	96	4
STR	94	96	4
SUR	94	96	4	96	96	3
BRK	94	336	7

T_REC_TAP	397
T_REC_BRK	24
T_REC_XTP	0
T_REC_HLD	12
T_REC_XHO	0
T_REC_STR	158
T_REC_BST	2
T_REC_XST	0
T_REC_TTP	0
T_REC_THO	0
T_REC_SLD	161
T_REC_ALL	754
T_NUM_TAP	555
T_NUM_BRK	26
T_NUM_HLD	12
T_NUM_SLD	161
T_NUM_ALL	754
T_JUDGE_TAP	581
T_JUDGE_HLD	47
T_JUDGE_SLD	161
T_JUDGE_ALL	789
TTM_EACHPAIRS	109
TTM_SCR_TAP	277500
TTM_SCR_BRK	67600
TTM_SCR_HLD	12000
TTM_SCR_SLD	241500
TTM_SCR_ALL	598600
TTM_SCR_S	578150
TTM_SCR_SS	596000
TTM_RAT_ACV	10043

