VERSION	0.00.00	1.03.00
FES_MODE	0
BPM_DEF	162.000	162.000	162.000	162.000
MET_DEF	4	4
RESOLUTION	384
CLK_DEF	384
COMPATIBLE_CODE	MA2

BPM	0	0	162.000

BRK	1	288	0
TAP	2	0	2
TAP	2	0	3
TAP	2	96	4
TAP	2	96	5
TAP	2	192	6
TAP	2	240	6
TAP	2	288	7
TAP	3	0	4
TAP	3	0	5
TAP	3	96	2
TAP	3	96	3
TAP	3	192	1
TAP	3	240	1
TAP	3	288	0
TAP	4	0	2
TAP	4	0	3
TAP	4	96	4
TAP	4	96	5
TAP	4	192	6
TAP	4	240	6
TAP	4	288	7
HLD	5	0	4	192
STR	5	0	5
SCR	5	0	5	96	96	0
TAP	5	288	1
TAP	5	288	6
TAP	6	0	4
TAP	6	0	5
TAP	6	96	2
TAP	6	96	3
TAP	6	192	0
TAP	6	240	0
TAP	6	288	7
TAP	7	0	2
TAP	7	0	3
TAP	7	96	4
TAP	7	96	5
TAP	7	192	7
TAP	7	240	7
TAP	7	288	0
TAP	8	0	4
TAP	8	0	5
TAP	8	96	2
TAP	8	96	3
TAP	8	192	0
TAP	8	240	0
TAP	8	288	7
TAP	9	0	2
TAP	9	0	7
TAP	9	96	0
TAP	9	96	5
TAP	9	192	1
TAP	9	192	6
TAP	9	240	1
TAP	9	240	6
TAP	9	288	1
TAP	9	288	6
TAP	9	336	1
TAP	9	336	6
BRK	10	96	0
BRK	10	96	7
TAP	10	192	2
TAP	10	288	1
TAP	10	288	3
STR	11	0	6
SI_	11	0	6	96	48	3
TAP	11	0	7
TAP	11	192	0
TAP	11	192	5
TAP	11	288	0
TAP	11	288	5
TAP	12	0	1
TAP	12	96	0
TAP	12	96	2
TAP	12	192	6
TAP	12	288	5
TAP	12	288	7
STR	13	0	0
SCR	13	0	0	96	96	4
TAP	13	0	6
TAP	13	288	1
TAP	13	288	5
TAP	14	0	2
TAP	14	96	1
TAP	14	96	3
TAP	14	192	5
TAP	14	288	4
TAP	14	288	6
TAP	15	0	0
STR	15	0	1
SI_	15	0	1	96	48	4
TAP	15	192	2
TAP	15	192	7
TAP	15	288	2
TAP	15	288	7
TAP	16	0	6
TAP	16	48	7
TAP	16	96	6
TAP	16	192	1
TAP	16	240	0
TAP	16	288	1
TAP	17	0	6
TAP	17	48	7
TAP	17	96	6
TAP	17	192	1
TAP	17	240	0
TAP	17	288	1
TAP	18	0	3
TAP	18	0	4
TAP	18	96	5
TAP	18	96	7
TAP	18	192	3
TAP	18	192	4
TAP	18	288	0
TAP	18	288	2
STR	19	0	0
SXL	19	0	0	96	96	2
STR	19	0	7
SXR	19	0	7	96	96	5
BRK	19	288	7
TAP	20	0	0
TAP	20	96	2
TAP	20	96	3
TAP	20	192	3
TAP	20	192	5
TAP	20	288	0
TAP	20	288	7
STR	21	0	2
SI_	21	0	2	96	48	7
TAP	21	0	3
TAP	21	192	0
TAP	21	192	5
TAP	21	288	0
TAP	21	288	5
TAP	22	0	7
TAP	22	96	0
TAP	22	96	1
TAP	22	192	1
TAP	22	192	3
TAP	22	288	4
TAP	22	288	6
TAP	23	0	1
STR	23	0	7
SCL	23	0	7	96	96	3
TAP	23	288	2
TAP	23	288	6
TAP	24	0	7
TAP	24	96	4
TAP	24	96	5
TAP	24	192	2
TAP	24	192	4
TAP	24	288	0
TAP	24	288	7
TAP	25	0	4
STR	25	0	5
SI_	25	0	5	96	48	0
TAP	25	192	2
TAP	25	192	7
TAP	25	288	2
TAP	25	288	7
TAP	26	0	2
TAP	26	48	3
TAP	26	96	2
TAP	26	192	5
TAP	26	240	4
TAP	26	288	5
TAP	27	0	1
TAP	27	48	0
TAP	27	96	1
TAP	27	192	6
TAP	27	240	7
TAP	27	288	6
TAP	28	0	3
TAP	28	0	4
TAP	28	96	4
TAP	28	96	6
TAP	28	192	3
TAP	28	192	4
TAP	28	288	1
TAP	28	288	3
TAP	29	0	3
TAP	29	0	4
TAP	29	96	4
TAP	29	96	6
TAP	29	192	3
TAP	29	192	4
BRK	29	288	0
TAP	30	0	3
TAP	30	0	4
TAP	30	96	1
TAP	30	96	3
TAP	30	192	3
TAP	30	192	4
TAP	30	288	4
TAP	30	288	6
TAP	31	0	3
TAP	31	0	4
TAP	31	96	1
TAP	31	96	3
TAP	31	192	3
TAP	31	192	4
BRK	31	288	7
TAP	32	0	0
TAP	32	0	7
TAP	32	96	5
TAP	32	96	7
TAP	32	192	0
TAP	32	192	7
TAP	32	288	0
TAP	32	288	2
TAP	33	0	0
TAP	33	0	7
TAP	33	96	5
TAP	33	96	7
TAP	33	192	0
TAP	33	192	7
TAP	33	288	3
TAP	33	288	4
TAP	34	0	6
TAP	34	0	7
TAP	34	96	3
TAP	34	96	4
TAP	34	192	0
TAP	34	192	1
TAP	34	288	3
TAP	34	288	4
TAP	35	0	0
TAP	35	0	7
TAP	35	48	0
TAP	35	48	7
TAP	35	96	0
TAP	35	96	7
TAP	35	144	0
TAP	35	144	7
STR	35	192	0
SI_	35	192	0	96	48	3
STR	35	192	7
SI_	35	192	7	96	48	4
HLD	36	0	3	192
STR	36	0	5
SCR	36	0	5	96	96	1
TAP	36	288	0
TAP	36	288	1
STR	37	0	2
SCL	37	0	2	96	96	6
HLD	37	0	4	192
TAP	37	288	6
TAP	37	288	7
HLD	38	0	0	192
STR	38	0	6
SCL	38	0	6	96	96	2
TAP	38	288	6
TAP	38	288	7
STR	39	0	1
SCR	39	0	1	96	96	5
HLD	39	0	7	192
TAP	39	288	0
TAP	39	288	1
TAP	40	0	3
TAP	40	0	4
TAP	40	96	4
TAP	40	96	5
TAP	40	192	6
TAP	40	192	7
TAP	40	288	0
TAP	40	288	7
TAP	41	0	0
TAP	41	0	1
TAP	41	96	2
TAP	41	96	3
TAP	41	192	3
TAP	41	192	4
TAP	41	288	1
TAP	41	288	6
TAP	42	0	5
TAP	42	48	5
TAP	42	96	1
TAP	42	144	1
TAP	42	192	7
TAP	42	240	7
STR	42	288	0
SCR	42	288	0	96	192	7
TAP	42	336	0
TAP	43	288	1
TAP	43	288	6
BST	44	0	0
SI_	44	0	0	96	48	2
BST	44	0	7
SI_	44	0	7	96	48	5
HLD	44	192	3	48
HLD	44	192	6	48
HLD	44	288	1	48
HLD	44	288	4	48
STR	45	0	2
SI_	45	0	2	96	48	0
STR	45	0	5
SI_	45	0	5	96	48	7
TAP	45	192	0
TAP	45	192	7
TAP	45	240	0
TAP	45	240	7
TAP	45	288	1
TAP	45	288	6
STR	46	0	0
SI_	46	0	0	96	48	5
TAP	46	0	1
TAP	46	192	6
STR	46	192	7
SI_	46	192	7	96	48	2
HLD	47	0	1	48
HLD	47	0	4	48
HLD	47	96	3	48
HLD	47	96	6	48
TAP	47	192	1
TAP	47	192	4
BRK	47	240	0
BST	47	288	0
SI_	47	288	0	96	48	3
STR	48	0	7
SI_	48	0	7	96	48	4
STR	48	96	0
SI_	48	96	0	96	48	3
STR	48	192	7
SI_	48	192	7	96	48	4
STR	48	288	0
SCR	48	288	0	96	192	7
TAP	49	288	1
TAP	49	288	6
TAP	50	0	2
TAP	50	48	2
TAP	50	96	1
TAP	50	96	3
TAP	50	192	4
TAP	50	240	4
TAP	50	288	3
STR	50	288	5
SCR	50	288	5	96	192	2
TAP	51	288	1
TAP	51	288	6
BST	52	0	0
SI_	52	0	0	96	48	2
BST	52	0	7
SI_	52	0	7	96	48	5
HLD	52	192	1	48
HLD	52	192	4	48
HLD	52	288	3	48
HLD	52	288	6	48
BST	53	0	0
SI_	53	0	0	96	48	3
BST	53	0	7
SI_	53	0	7	96	48	4
TAP	53	192	0
TAP	53	192	7
TAP	53	240	0
TAP	53	240	7
TAP	53	288	1
TAP	53	288	6
TAP	54	0	6
STR	54	0	7
SI_	54	0	7	96	48	2
STR	54	192	0
SI_	54	192	0	96	48	5
TAP	54	192	1
HLD	55	0	3	48
HLD	55	0	6	48
HLD	55	96	1	48
HLD	55	96	4	48
TAP	55	192	3
TAP	55	192	6
BRK	55	240	7
BRK	55	288	7
TAP	56	0	1
STR	56	0	3
SI_	56	0	3	96	48	7
STR	56	192	4
SI_	56	192	4	96	48	0
TAP	56	192	6
TAP	57	0	0
TAP	57	0	7
TAP	57	48	0
TAP	57	48	7
TAP	57	96	0
TAP	57	96	7
STR	57	192	1
SI_	57	192	1	96	48	4
STR	57	192	6
SI_	57	192	6	96	48	3
TAP	58	0	0
TAP	58	0	7
TAP	58	96	4
TAP	58	96	6
TAP	58	192	3
TAP	58	192	4
TAP	58	288	1
TAP	58	288	3
STR	59	0	2
SI_	59	0	2	96	48	7
STR	59	0	6
SI_	59	0	6	96	48	3
BRK	59	192	1
BRK	59	192	5
HLD	62	0	3	384
HLD	63	0	4	384
HLD	64	0	3	384
HLD	65	0	4	384
HLD	66	0	3	384
TAP	66	96	4
TAP	66	192	4
TAP	66	288	4
HLD	67	0	4	384
TAP	67	96	3
TAP	67	192	3
TAP	67	288	3
TAP	68	0	3
TAP	68	48	3
TAP	68	96	4
TAP	68	144	4
TAP	68	192	3
TAP	68	240	3
TAP	68	288	4
TAP	68	336	4
STR	69	0	3
SCL	69	0	3	96	192	4
BST	70	0	0
SI_	70	0	0	96	48	4
BST	70	0	5
SI_	70	0	5	96	48	7
HLD	70	192	1	48
HLD	70	192	3	48
HLD	70	288	4	48
HLD	70	288	6	48
STR	71	0	2
SI_	71	0	2	96	48	0
STR	71	0	7
SI_	71	0	7	96	48	3
TAP	71	192	6
TAP	71	192	7
TAP	71	240	6
TAP	71	240	7
TAP	71	288	0
TAP	71	288	5
TAP	72	0	6
STR	72	0	7
SI_	72	0	7	96	48	3
STR	72	192	0
SI_	72	192	0	96	48	4
TAP	72	192	1
HLD	73	0	0	48
HLD	73	0	5	48
HLD	73	96	2	48
HLD	73	96	7	48
TAP	73	192	1
TAP	73	192	6
BRK	73	240	7
BST	73	288	7
SI_	73	288	7	96	48	4
STR	74	0	0
SI_	74	0	0	96	48	3
STR	74	96	7
SI_	74	96	7	96	48	4
STR	74	192	0
SI_	74	192	0	96	48	3
STR	74	288	7
SCL	74	288	7	96	192	0
TAP	75	288	1
TAP	75	288	6
TAP	76	0	1
TAP	76	48	1
TAP	76	96	0
TAP	76	96	2
TAP	76	192	6
TAP	76	240	6
STR	76	288	5
SXR	76	288	5	96	288	0
TAP	76	288	7
BST	78	0	2
SI_	78	0	2	96	48	0
BST	78	0	7
SI_	78	0	7	96	48	3
HLD	78	192	4	48
HLD	78	192	6	48
HLD	78	288	1	48
HLD	78	288	3	48
STR	79	0	0
SI_	79	0	0	96	48	4
STR	79	0	5
SI_	79	0	5	96	48	7
TAP	79	192	0
TAP	79	192	1
TAP	79	240	0
TAP	79	240	1
TAP	79	288	2
TAP	79	288	7
STR	80	0	0
SI_	80	0	0	96	48	4
TAP	80	0	1
TAP	80	192	6
STR	80	192	7
SI_	80	192	7	96	48	3
HLD	81	0	2	48
HLD	81	0	7	48
HLD	81	96	0	48
HLD	81	96	5	48
TAP	81	192	1
TAP	81	192	6
BRK	81	240	0
BRK	81	288	0
STR	82	0	4
SI_	82	0	4	96	48	0
TAP	82	0	6
TAP	82	192	1
STR	82	192	3
SI_	82	192	3	96	48	7
TAP	83	0	0
TAP	83	0	7
TAP	83	48	0
TAP	83	48	7
TAP	83	96	0
TAP	83	96	7
STR	83	192	1
SI_	83	192	1	96	48	4
STR	83	192	6
SI_	83	192	6	96	48	3
TAP	84	0	0
TAP	84	0	7
TAP	84	96	1
TAP	84	96	3
TAP	84	192	3
TAP	84	192	4
TAP	84	288	4
TAP	84	288	6
STR	85	0	1
SI_	85	0	1	96	48	4
STR	85	0	5
SI_	85	0	5	96	48	0
BRK	85	192	2
BRK	85	192	6
BRK	85	288	0
BRK	85	288	7
TAP	86	0	0
STR	86	0	1
SI_	86	0	1	96	48	4
TAP	86	192	5
TAP	86	240	4
TAP	86	288	6
STR	87	0	6
SI_	87	0	6	96	48	3
TAP	87	0	7
TAP	87	192	2
TAP	87	240	3
TAP	87	288	1
STR	88	0	4
SI_	88	0	4	96	48	1
TAP	88	0	5
TAP	88	192	7
TAP	88	240	0
TAP	88	288	7
STR	89	0	2
SCL	89	0	2	96	96	7
HLD	89	0	3	192
TAP	89	288	1
TAP	89	288	6
STR	90	0	6
SI_	90	0	6	96	48	3
TAP	90	0	7
TAP	90	192	2
TAP	90	240	3
TAP	90	288	1
TAP	91	0	0
STR	91	0	1
SI_	91	0	1	96	48	4
TAP	91	192	5
TAP	91	240	4
TAP	91	288	6
TAP	92	0	2
STR	92	0	3
SI_	92	0	3	96	48	6
TAP	92	192	0
TAP	92	240	7
TAP	92	288	0
TAP	93	0	1
TAP	93	0	5
TAP	93	96	3
TAP	93	96	7
TAP	93	192	4
TAP	93	240	4
TAP	93	288	3
TAP	93	336	3
HLD	94	0	4	336
TAP	94	336	3

T_REC_TAP	384
T_REC_BRK	18
T_REC_XTP	0
T_REC_HLD	45
T_REC_XHO	0
T_REC_STR	60
T_REC_BST	12
T_REC_XST	0
T_REC_TTP	0
T_REC_THO	0
T_REC_SLD	72
T_REC_ALL	591
T_NUM_TAP	444
T_NUM_BRK	30
T_NUM_HLD	45
T_NUM_SLD	72
T_NUM_ALL	591
T_JUDGE_TAP	474
T_JUDGE_HLD	111
T_JUDGE_SLD	72
T_JUDGE_ALL	657
TTM_EACHPAIRS	194
TTM_SCR_TAP	222000
TTM_SCR_BRK	78000
TTM_SCR_HLD	45000
TTM_SCR_SLD	108000
TTM_SCR_ALL	453000
TTM_SCR_S	436500
TTM_SCR_SS	450000
TTM_RAT_ACV	10066

