VERSION	0.00.00	1.03.00
FES_MODE	0
BPM_DEF	162.000	162.000	162.000	162.000
MET_DEF	4	4
RESOLUTION	384
CLK_DEF	384
COMPATIBLE_CODE	MA2

BPM	0	0	162.000

HLD	2	0	5	192
TAP	2	96	4
TAP	2	192	4
HLD	3	0	2	192
TAP	3	96	3
TAP	3	192	3
TAP	4	0	4
TAP	4	96	4
TAP	4	192	3
TAP	4	288	3
TAP	5	0	3
TAP	5	0	4
TAP	5	96	3
TAP	5	96	4
TAP	5	192	2
TAP	5	192	5
HLD	6	0	1	192
TAP	6	96	0
TAP	6	192	0
HLD	7	0	6	192
TAP	7	96	7
TAP	7	192	7
TAP	8	0	0
TAP	8	96	0
TAP	8	192	7
TAP	8	288	7
TAP	9	0	0
TAP	9	0	7
TAP	9	96	0
TAP	9	96	7
TAP	9	192	1
TAP	9	192	6
TAP	10	0	5
TAP	10	96	5
TAP	10	192	4
TAP	10	288	4
TAP	11	0	3
TAP	11	96	2
TAP	11	192	2
TAP	11	192	3
TAP	12	0	2
TAP	12	96	2
TAP	12	192	3
TAP	12	288	3
TAP	13	0	4
TAP	13	96	5
TAP	13	192	4
TAP	13	192	5
HLD	14	0	5	192
TAP	14	96	4
TAP	14	192	4
HLD	15	0	2	192
TAP	15	96	3
TAP	15	192	3
TAP	16	0	1
TAP	16	96	1
TAP	16	192	0
TAP	16	288	0
TAP	17	0	7
TAP	17	96	7
TAP	17	192	6
TAP	17	288	6
HLD	18	0	5	192
HLD	18	192	4	192
HLD	19	0	3	192
TAP	19	192	2
BRK	19	288	2
BRK	19	288	3
TAP	20	0	1
TAP	20	96	1
TAP	20	192	0
TAP	20	288	0
TAP	21	0	7
TAP	21	96	6
TAP	21	192	6
TAP	21	192	7
TAP	22	0	6
TAP	22	96	6
TAP	22	192	7
TAP	22	288	7
TAP	23	0	0
TAP	23	96	1
TAP	23	192	0
TAP	23	192	1
HLD	24	0	1	192
TAP	24	96	0
TAP	24	192	0
HLD	25	0	6	192
TAP	25	96	7
TAP	25	192	7
TAP	26	0	5
TAP	26	96	5
TAP	26	192	4
TAP	26	288	4
TAP	27	0	3
TAP	27	96	3
TAP	27	192	2
TAP	27	288	2
HLD	28	0	2	192
TAP	28	192	3
HLD	29	0	5	192
TAP	29	192	4
BRK	29	288	4
BRK	29	288	5
HLD	30	0	6	192
TAP	30	192	7
HLD	31	0	1	192
TAP	31	192	0
BRK	31	288	0
BRK	31	288	1
HLD	32	0	7	192
TAP	32	192	0
HLD	33	0	0	192
TAP	33	192	7
TAP	33	288	0
TAP	33	288	7
STR	34	0	0
SI_	34	0	0	96	192	3
STR	34	0	7
SI_	34	0	7	96	192	4
TAP	35	0	2
TAP	35	0	5
TAP	35	96	2
TAP	35	96	5
TAP	35	192	3
TAP	35	240	3
BRK	35	288	3
HLD	36	0	4	192
HLD	36	192	3	192
HLD	37	0	2	192
TAP	37	192	1
HLD	38	0	3	192
HLD	38	192	4	192
HLD	39	0	5	192
TAP	39	192	6
TAP	40	0	5
TAP	40	96	5
TAP	40	192	4
TAP	40	192	5
TAP	41	0	2
TAP	41	96	2
TAP	41	192	2
TAP	41	192	3
TAP	42	0	3
TAP	42	0	4
TAP	42	96	3
TAP	42	96	4
TAP	42	192	2
TAP	42	192	5
TAP	42	288	2
TAP	42	288	5
STR	43	0	3
SI_	43	0	3	96	192	0
STR	43	0	4
SI_	43	0	4	96	192	7
TAP	44	0	6
TAP	44	0	7
TAP	44	96	6
TAP	44	96	7
TAP	44	192	0
TAP	44	192	1
TAP	44	288	0
TAP	44	288	1
TAP	45	0	6
TAP	45	96	7
TAP	45	192	6
TAP	45	192	7
TAP	45	288	0
TAP	45	288	5
TAP	46	0	1
TAP	46	96	1
TAP	46	192	0
TAP	46	288	0
TAP	47	0	7
TAP	47	96	0
TAP	47	192	1
TAP	47	192	6
TAP	48	0	0
TAP	48	0	1
TAP	48	96	0
TAP	48	96	1
TAP	48	192	6
TAP	48	192	7
TAP	48	288	6
TAP	48	288	7
TAP	49	0	1
TAP	49	96	0
TAP	49	192	2
TAP	49	192	7
TAP	50	0	6
TAP	50	96	6
TAP	50	192	7
TAP	50	288	7
TAP	51	0	0
TAP	51	96	7
BRK	51	192	1
BRK	51	192	6
TAP	52	0	2
TAP	52	0	3
TAP	52	96	2
TAP	52	96	3
TAP	52	192	4
TAP	52	192	5
TAP	52	288	4
TAP	52	288	5
TAP	53	0	2
TAP	53	96	3
TAP	53	192	2
TAP	53	192	3
TAP	53	288	1
TAP	53	288	4
TAP	54	0	5
TAP	54	96	5
TAP	54	192	4
TAP	54	288	4
TAP	55	0	3
TAP	55	96	4
TAP	55	192	2
TAP	55	192	5
TAP	56	0	4
TAP	56	0	5
TAP	56	96	4
TAP	56	96	5
TAP	56	192	2
TAP	56	192	3
TAP	56	288	2
TAP	56	288	3
TAP	57	0	5
TAP	57	96	4
TAP	57	192	3
TAP	57	192	6
TAP	58	0	2
TAP	58	96	2
TAP	58	192	3
TAP	58	288	3
TAP	59	0	4
TAP	59	96	3
BRK	59	192	2
BRK	59	192	5
HLD	62	0	5	384
HLD	63	0	4	384
HLD	64	0	3	384
HLD	65	0	2	192
TAP	65	192	3
HLD	66	0	1	192
TAP	66	192	0
HLD	67	0	6	192
TAP	67	192	7
TAP	68	0	7
TAP	68	96	0
TAP	68	192	1
TAP	68	288	2
HLD	69	0	3	192
BRK	69	192	4
TAP	70	0	2
TAP	70	0	3
TAP	70	96	1
TAP	70	96	4
TAP	70	192	2
TAP	70	192	3
TAP	70	288	1
TAP	70	288	4
TAP	71	0	5
TAP	71	96	4
TAP	71	192	4
TAP	71	192	5
TAP	71	288	3
TAP	71	288	6
TAP	72	0	6
TAP	72	96	6
TAP	72	192	7
TAP	72	288	7
TAP	73	0	0
TAP	73	96	7
TAP	73	192	1
TAP	73	192	6
TAP	74	0	6
TAP	74	0	7
TAP	74	96	0
TAP	74	96	5
TAP	74	192	6
TAP	74	192	7
TAP	74	288	0
TAP	74	288	5
TAP	75	0	1
TAP	75	96	0
TAP	75	192	2
TAP	75	192	7
TAP	76	0	6
TAP	76	96	5
TAP	76	192	4
TAP	76	288	3
TAP	77	0	3
TAP	77	96	4
BRK	77	192	2
BRK	77	192	5
TAP	78	0	0
TAP	78	0	1
TAP	78	96	2
TAP	78	96	7
TAP	78	192	6
TAP	78	192	7
TAP	78	288	0
TAP	78	288	5
TAP	79	0	7
TAP	79	96	0
TAP	79	192	1
TAP	79	192	6
TAP	79	288	2
TAP	79	288	5
TAP	80	0	4
TAP	80	96	4
TAP	80	192	3
TAP	80	288	3
TAP	81	0	2
TAP	81	96	3
TAP	81	192	1
TAP	81	192	4
TAP	82	0	4
TAP	82	0	5
TAP	82	96	3
TAP	82	96	6
TAP	82	192	2
TAP	82	192	3
TAP	82	288	1
TAP	82	288	4
TAP	83	0	3
TAP	83	96	4
TAP	83	192	2
TAP	83	192	5
TAP	84	0	1
TAP	84	96	0
TAP	84	192	7
TAP	84	288	6
TAP	85	0	7
TAP	85	96	0
BRK	85	192	1
BRK	85	192	6
HLD	86	0	1	192
TAP	86	96	0
TAP	86	192	0
HLD	87	0	6	192
TAP	87	96	7
TAP	87	192	7
TAP	88	0	1
TAP	88	96	0
TAP	88	192	7
TAP	88	288	6
TAP	89	0	0
TAP	89	0	7
TAP	89	96	0
TAP	89	96	7
TAP	89	192	1
TAP	89	192	6
HLD	90	0	5	192
TAP	90	96	4
TAP	90	192	4
HLD	91	0	2	192
TAP	91	96	3
TAP	91	192	3
TAP	92	0	5
TAP	92	96	4
TAP	92	192	3
TAP	92	288	2
TAP	93	0	3
TAP	93	0	4
TAP	93	96	3
TAP	93	96	4
HLD	93	192	2	96
HLD	93	192	5	96
BRK	94	0	2
BRK	94	0	5

T_REC_TAP	310
T_REC_BRK	18
T_REC_XTP	0
T_REC_HLD	36
T_REC_XHO	0
T_REC_STR	4
T_REC_BST	0
T_REC_XST	0
T_REC_TTP	0
T_REC_THO	0
T_REC_SLD	4
T_REC_ALL	372
T_NUM_TAP	314
T_NUM_BRK	18
T_NUM_HLD	36
T_NUM_SLD	4
T_NUM_ALL	372
T_JUDGE_TAP	332
T_JUDGE_HLD	152
T_JUDGE_SLD	4
T_JUDGE_ALL	488
TTM_EACHPAIRS	83
TTM_SCR_TAP	157000
TTM_SCR_BRK	46800
TTM_SCR_HLD	36000
TTM_SCR_SLD	6000
TTM_SCR_ALL	245800
TTM_SCR_S	236700
TTM_SCR_SS	244000
TTM_RAT_ACV	10073

